osu file format v14

[General]
AudioFilename: audio.mp3
AudioLeadIn: 0
PreviewTime: 44027
Countdown: 1
SampleSet: None
StackLeniency: 0.3
Mode: 0
LetterboxInBreaks: 0
WidescreenStoryboard: 0

[Editor]
DistanceSpacing: 1
BeatDivisor: 4
GridSize: 4
TimelineZoom: 1.6

[Metadata]
Title:Archangel
TitleUnicode:Archangel
Artist:Elena Siegman feat. Malukah
ArtistUnicode:Elena Siegman feat. Malukah
Creator:ScarletAngel
Version:Corroding Souls
Source:
Tags:
BeatmapID:1688610
BeatmapSetID:804412

[Difficulty]
HPDrainRate:4
CircleSize:3.6
OverallDifficulty:9
ApproachRate:10
SliderMultiplier:2
SliderTickRate:1

[Events]
//Background and Video events
0,0,"archangel-fantasy-hd-wallpaper-1920x1080-4165.jpg",0,0
//Break Periods
//Storyboard Layer 0 (Background)
//Storyboard Layer 1 (Fail)
//Storyboard Layer 2 (Pass)
//Storyboard Layer 3 (Foreground)
//Storyboard Sound Samples

[TimingPoints]
201,260.869565217391,4,1,0,100,1,0
201,-100,4,1,0,30,0,0
2287,-133.333333333333,4,1,0,20,0,0
10635,-133.333333333333,4,1,0,20,0,0
26287,-100,4,1,0,20,0,0
26548,-133.333333333333,4,1,0,20,0,0
26809,-200,4,1,0,20,0,0
27331,-100,4,1,0,20,0,1
44027,-100,4,1,0,20,0,0
50287,-200,4,1,0,20,0,0
51331,-100,4,1,0,20,0,0
57787,-100,4,1,0,5,0,0
57853,-100,4,1,0,20,0,0
58635,-83.3333333333333,4,1,0,20,0,0
58831,-83.3333333333333,4,1,0,5,0,0
58896,-83.3333333333333,4,1,0,20,0,0
59157,-133.333333333333,4,1,0,20,0,0
59614,-133.333333333333,4,1,0,5,0,0
59679,-100,4,1,0,20,0,0

[Colours]
Combo1 : 192,192,192
Combo2 : 188,14,14
Combo3 : 113,85,187

[HitObjects]
80,44,201,6,0,L|72:104,1,50
156,216,331,2,0,L|148:156,1,50
172,20,461,2,0,L|164:80,1,50
248,192,591,2,0,L|240:132,1,50
280,56,722,5,0,0:0:0:0:
311,35,787,1,0,0:0:0:0:
346,23,852,1,0,0:0:0:0:
383,21,917,1,0,0:0:0:0:
420,28,984,1,0,0:0:0:0:
399,60,1049,1,0,0:0:0:0:
385,94,1114,1,0,0:0:0:0:
383,132,1179,1,0,0:0:0:0:
393,168,1244,5,0,0:0:0:0:
406,203,1310,1,0,0:0:0:0:
412,240,1375,1,0,0:0:0:0:
406,277,1440,1,0,0:0:0:0:
391,311,1505,1,0,0:0:0:0:
248,192,1635,1,0,0:0:0:0:
51,278,1766,5,0,0:0:0:0:
113,283,1831,1,0,0:0:0:0:
176,289,1896,1,0,0:0:0:0:
238,294,1961,1,0,0:0:0:0:
300,300,2026,1,0,0:0:0:0:
424,24,2287,5,0,0:0:0:0:
408,60,2353,1,0,0:0:0:0:
400,96,2418,1,0,0:0:0:0:
404,132,2483,1,0,0:0:0:0:
424,164,2548,1,0,0:0:0:0:
448,192,2614,1,0,0:0:0:0:
464,224,2679,1,0,0:0:0:0:
468,260,2744,1,0,0:0:0:0:
460,296,2809,1,0,0:0:0:0:
436,324,2874,1,0,0:0:0:0:
400,336,2940,1,0,0:0:0:0:
364,324,3005,1,0,0:0:0:0:
344,292,3070,6,0,L|336:228,1,37.5000014305115
424,164,3200,2,0,L|432:228,1,37.5000014305115
273,158,3331,5,0,0:0:0:0:
236,164,3396,1,0,0:0:0:0:
200,164,3461,1,0,0:0:0:0:
164,156,3527,1,0,0:0:0:0:
128,144,3592,1,0,0:0:0:0:
92,148,3657,1,0,0:0:0:0:
64,172,3722,1,0,0:0:0:0:
48,208,3787,1,0,0:0:0:0:
52,244,3853,1,0,0:0:0:0:
76,276,3918,1,0,0:0:0:0:
108,292,3983,1,0,0:0:0:0:
144,288,4048,1,0,0:0:0:0:
172,264,4114,6,0,L|180:208,1,37.5000014305115
92,148,4244,2,0,L|100:204,1,37.5000014305115
248,288,4374,5,0,0:0:0:0:
236,324,4440,1,0,0:0:0:0:
204,344,4505,1,0,0:0:0:0:
168,348,4570,1,0,0:0:0:0:
132,336,4635,1,0,0:0:0:0:
116,304,4700,1,0,0:0:0:0:
116,268,4766,1,0,0:0:0:0:
132,236,4831,1,0,0:0:0:0:
164,212,4896,5,0,0:0:0:0:
128,200,4961,1,0,0:0:0:0:
100,176,5027,1,0,0:0:0:0:
92,140,5092,1,0,0:0:0:0:
100,104,5157,1,0,0:0:0:0:
124,76,5222,1,0,0:0:0:0:
160,64,5287,1,0,0:0:0:0:
196,68,5353,1,0,0:0:0:0:
228,84,5418,5,0,0:0:0:0:
204,130,5483,1,0,0:0:0:0:
244,164,5548,1,0,0:0:0:0:
286,133,5613,1,0,0:0:0:0:
266,85,5679,2,0,L|260:32,3,37.5000014305115
360,104,5940,2,0,L|354:157,3,37.5000014305115
416,236,6200,2,0,L|422:289,3,37.5000014305115
480,368,6461,5,0,0:0:0:0:
448,348,6527,1,0,0:0:0:0:
412,340,6592,1,0,0:0:0:0:
376,344,6657,1,0,0:0:0:0:
344,360,6722,1,0,0:0:0:0:
308,368,6787,1,0,0:0:0:0:
272,364,6853,1,0,0:0:0:0:
240,344,6918,1,0,0:0:0:0:
220,312,6983,1,0,0:0:0:0:
252,292,7048,1,0,0:0:0:0:
276,264,7114,1,0,0:0:0:0:
288,228,7179,1,0,0:0:0:0:
288,192,7244,6,0,L|216:200,1,37.5000014305115
116,236,7374,2,0,L|188:244,1,37.5000014305115
396,176,7505,5,0,0:0:0:0:
380,140,7570,1,0,0:0:0:0:
356,112,7635,1,0,0:0:0:0:
324,96,7700,1,0,0:0:0:0:
288,96,7766,1,0,0:0:0:0:
252,108,7831,1,0,0:0:0:0:
220,124,7896,1,0,0:0:0:0:
184,136,7961,1,0,0:0:0:0:
148,132,8027,1,0,0:0:0:0:
120,108,8092,1,0,0:0:0:0:
112,72,8157,1,0,0:0:0:0:
124,36,8222,1,0,0:0:0:0:
152,12,8287,6,0,L|156:60,1,37.5000014305115
0,120,8418,2,0,L|4:72,1,37.5000014305115
148,132,8548,6,0,L|144:180,1,37.5000014305115
32,288,8679,1,0,0:0:0:0:
76,280,8744,1,0,0:0:0:0:
120,284,8809,1,0,0:0:0:0:
160,300,8874,1,0,0:0:0:0:
204,312,8940,1,0,0:0:0:0:
248,312,9005,1,0,0:0:0:0:
292,300,9070,6,0,L|296:236,1,37.5000014305115
272,96,9200,1,0,0:0:0:0:
234,74,9265,1,0,0:0:0:0:
192,86,9330,1,0,0:0:0:0:
173,126,9395,1,0,0:0:0:0:
190,166,9460,1,0,0:0:0:0:
231,182,9526,1,0,0:0:0:0:
272,172,9592,6,0,L|324:161,1,37.5000014305115
424,140,9722,2,0,L|476:129,1,37.5000014305115
294,262,9853,2,0,L|346:251,1,37.5000014305115
446,230,9983,2,0,L|498:219,1,37.5000014305115
496,56,10114,1,0,0:0:0:0:
280,348,10374,5,0,0:0:0:0:
218,343,10439,1,0,0:0:0:0:
155,337,10504,1,0,0:0:0:0:
93,332,10569,1,0,0:0:0:0:
32,324,10635,6,0,L|40:276,1,37.5000014305115
88,220,10766,2,0,L|80:172,1,37.5000014305115
48,108,10896,1,0,0:0:0:0:
144,32,11027,1,0,0:0:0:0:
155,55,11092,1,0,0:0:0:0:
162,80,11157,1,0,0:0:0:0:
165,106,11222,1,0,0:0:0:0:
162,132,11287,1,0,0:0:0:0:
88,220,11418,2,0,L|125:223,1,37.5000014305115
224,268,11548,2,0,L|261:264,1,37.5000014305115
324,352,11679,6,0,P|268:372|236:372,1,75.0000028610231
162,132,11940,2,0,P|218:112|250:112,1,75.0000028610231
368,172,12200,2,0,L|316:180,1,37.5000014305115
224,268,12331,1,0,0:0:0:0:
348,260,12461,1,0,0:0:0:0:
204,160,12592,1,0,0:0:0:0:
208,40,12722,6,0,L|200:80,1,37.5000014305115
296,204,12853,2,0,L|288:164,1,37.5000014305115
340,68,12983,1,0,0:0:0:0:
204,160,13114,1,0,0:0:0:0:
396,156,13244,1,0,0:0:0:0:
405,180,13309,1,0,0:0:0:0:
407,206,13374,1,0,0:0:0:0:
404,232,13439,1,0,0:0:0:0:
396,256,13505,2,0,P|392:304|408:336,1,75.0000028610231
280,384,13766,6,0,P|284:336|268:304,1,75.0000028610231
96,252,14027,2,0,P|92:300|108:332,1,75.0000028610231
216,224,14287,1,0,0:0:0:0:
222,198,14352,1,0,0:0:0:0:
223,172,14417,1,0,0:0:0:0:
20,56,14548,2,0,L|57:61,1,37.5000014305115
88,186,14679,2,0,L|125:180,1,37.5000014305115
184,80,14809,5,0,0:0:0:0:
210,83,14874,1,0,0:0:0:0:
236,87,14939,1,0,0:0:0:0:
262,90,15004,1,0,0:0:0:0:
289,94,15069,1,0,0:0:0:0:
384,28,15200,1,0,0:0:0:0:
388,144,15331,2,0,L|380:192,1,37.5000014305115
420,324,15461,1,0,0:0:0:0:
296,208,15592,1,0,0:0:0:0:
476,236,15722,1,0,0:0:0:0:
256,312,15853,6,0,P|204:296|172:296,1,75.0000028610231
48,244,16114,2,0,P|32:192|32:160,1,75.0000028610231
108,60,16374,2,0,L|110:22,2,37.5000014305115
170,189,16635,2,0,P|203:172|228:144,1,75.0000028610231
304,52,16896,5,0,0:0:0:0:
324,43,16961,1,0,0:0:0:0:
346,39,17026,1,0,0:0:0:0:
369,39,17091,1,0,0:0:0:0:
416,80,17157,5,0,0:0:0:0:
413,102,17222,1,0,0:0:0:0:
405,123,17287,1,0,0:0:0:0:
394,142,17352,1,0,0:0:0:0:
352,188,17418,5,0,0:0:0:0:
355,210,17483,1,0,0:0:0:0:
363,231,17548,1,0,0:0:0:0:
374,250,17613,1,0,0:0:0:0:
428,288,17679,5,0,0:0:0:0:
406,295,17744,1,0,0:0:0:0:
385,302,17809,1,0,0:0:0:0:
364,310,17874,1,0,0:0:0:0:
312,352,17940,6,0,L|356:360,3,37.5000014305115
264,252,18200,2,0,L|227:245,3,37.5000014305115
168,336,18461,2,0,L|155:300,3,37.5000014305115
48,288,18722,2,0,L|72:259,3,37.5000014305115
144,184,18983,5,0,0:0:0:0:
147,165,19048,1,0,0:0:0:0:
148,146,19113,1,0,0:0:0:0:
148,128,19178,1,0,0:0:0:0:
146,109,19243,1,0,0:0:0:0:
143,91,19309,1,0,0:0:0:0:
138,72,19374,1,0,0:0:0:0:
132,55,19439,1,0,0:0:0:0:
124,38,19504,5,0,0:0:0:0:
137,44,19569,1,0,0:0:0:0:
154,53,19635,1,0,0:0:0:0:
172,58,19700,1,0,0:0:0:0:
190,62,19765,1,0,0:0:0:0:
209,64,19830,1,0,0:0:0:0:
228,64,19896,1,0,0:0:0:0:
247,62,19961,1,0,0:0:0:0:
264,60,20027,6,0,P|328:32|364:36,1,75.0000028610231
372,156,20287,2,0,P|308:184|272:180,1,75.0000028610231
256,44,20548,2,0,P|320:16|356:20,1,75.0000028610231
380,172,20808,2,0,P|316:200|280:196,1,75.0000028610231
440,64,21070,5,0,0:0:0:0:
450,79,21135,1,0,0:0:0:0:
459,95,21200,1,0,0:0:0:0:
466,113,21265,1,0,0:0:0:0:
471,131,21330,1,0,0:0:0:0:
473,149,21396,1,0,0:0:0:0:
472,168,21461,1,0,0:0:0:0:
469,187,21526,1,0,0:0:0:0:
465,205,21591,5,0,0:0:0:0:
461,223,21656,1,0,0:0:0:0:
458,242,21722,1,0,0:0:0:0:
457,261,21787,1,0,0:0:0:0:
457,279,21852,1,0,0:0:0:0:
460,298,21917,1,0,0:0:0:0:
465,316,21983,1,0,0:0:0:0:
472,333,22048,1,0,0:0:0:0:
480,352,22114,6,0,P|428:328|380:324,1,75.0000028610231
376,272,22309,2,0,P|318:277|275:297,1,75.0000028610231
260,328,22505,2,0,B|220:344|180:332|180:332|192:288|168:232,1,150.000005722046
164,220,22831,1,0,0:0:0:0:
140,184,22896,1,0,0:0:0:0:
84,296,23027,1,0,0:0:0:0:
56,124,23157,5,0,0:0:0:0:
69,110,23222,1,0,0:0:0:0:
84,99,23287,1,0,0:0:0:0:
100,90,23352,1,0,0:0:0:0:
118,85,23417,1,0,0:0:0:0:
137,83,23483,1,0,0:0:0:0:
156,83,23548,1,0,0:0:0:0:
174,87,23613,1,0,0:0:0:0:
192,91,23678,5,0,0:0:0:0:
208,82,23743,1,0,0:0:0:0:
226,76,23809,1,0,0:0:0:0:
245,74,23874,1,0,0:0:0:0:
263,75,23939,1,0,0:0:0:0:
281,80,24004,1,0,0:0:0:0:
299,87,24070,1,0,0:0:0:0:
315,97,24135,1,0,0:0:0:0:
332,108,24200,6,0,P|352:156|352:192,2,75.0000028610231
184,232,24592,1,0,0:0:0:0:
277,274,24722,1,0,0:0:0:0:
268,172,24853,1,0,0:0:0:0:
84,228,24983,2,0,P|92:272|132:320,1,75.0000028610231
224,360,25244,5,0,0:0:0:0:
268,364,25309,1,0,0:0:0:0:
312,356,25374,2,0,L|348:336,1,37.5000014305115
309,56,25505,1,0,0:0:0:0:
283,92,25570,1,0,0:0:0:0:
268,134,25635,2,0,L|267:175,1,37.5000014305115
408,276,25766,6,0,P|432:256|444:240,1,37.5000014305115
420,56,25896,2,0,P|390:45|370:42,1,37.5000014305115
200,132,26027,2,0,L|203:169,1,37.5000014305115
260,304,26157,2,0,L|222:300,1,37.5000014305115
24,248,26287,5,0,0:0:0:0:
12,200,26353,1,0,0:0:0:0:
16,152,26418,1,0,0:0:0:0:
36,104,26483,1,0,0:0:0:0:
72,72,26548,5,0,0:0:0:0:
96,100,26614,1,0,0:0:0:0:
128,120,26679,1,0,0:0:0:0:
164,132,26744,1,0,0:0:0:0:
200,132,26809,5,0,0:0:0:0:
204,108,26874,1,0,0:0:0:0:
212,84,26940,1,0,0:0:0:0:
224,64,27005,1,0,0:0:0:0:
244,48,27070,1,0,0:0:0:0:
408,152,27331,6,0,L|412:92,1,50
292,180,27461,2,0,L|288:130,1,50
440,292,27592,6,0,L|444:232,1,50
264,324,27722,2,0,L|260:274,1,50
172,152,27853,6,0,L|168:201,1,50
60,300,27983,2,0,L|56:250,1,50
196,128,28114,6,0,L|192:177,1,50
44,328,28244,2,0,L|40:278,1,50
40,88,28374,6,0,P|60:56|80:40,1,50
292,60,28505,2,0,P|309:93|313:118,1,50
180,280,28635,6,0,P|142:278|118:269,1,50
191,78,28766,2,0,L|195:127,1,50
272,304,28896,5,0,0:0:0:0:
290,349,28961,1,0,0:0:0:0:
333,373,29026,1,0,0:0:0:0:
382,367,29091,1,0,0:0:0:0:
417,333,29156,1,0,0:0:0:0:
424,284,29222,1,0,0:0:0:0:
400,241,29287,1,0,0:0:0:0:
355,222,29352,1,0,0:0:0:0:
308,233,29417,5,0,0:0:0:0:
120,340,29548,1,0,0:0:0:0:
324,188,29679,1,0,0:0:0:0:
56,200,29809,1,0,0:0:0:0:
224,292,29940,5,0,0:0:0:0:
288,48,30070,1,0,0:0:0:0:
128,104,30200,1,0,0:0:0:0:
324,188,30331,1,0,0:0:0:0:
120,340,30461,5,0,0:0:0:0:
232,148,30592,1,0,0:0:0:0:
256,304,30722,1,0,0:0:0:0:
72,224,30853,1,0,0:0:0:0:
324,188,30983,5,0,0:0:0:0:
144,24,31114,1,0,0:0:0:0:
156,204,31244,2,0,B|160:228|152:260|152:260|176:284|176:284|168:316|180:348,1,150
253,353,31505,6,0,L|257:285,1,50
345,273,31635,2,0,L|349:205,1,50
425,169,31766,6,0,L|421:101,1,50
333,89,31896,2,0,L|329:21,1,50
225,125,32027,5,0,0:0:0:0:
188,132,32092,1,0,0:0:0:0:
150,132,32157,1,0,0:0:0:0:
114,123,32222,1,0,0:0:0:0:
80,107,32287,5,0,0:0:0:0:
65,136,32353,1,0,0:0:0:0:
61,173,32418,1,0,0:0:0:0:
64,210,32483,1,0,0:0:0:0:
72,247,32548,6,0,L|149:253,1,50
133,381,32679,2,0,L|209:375,1,50
233,261,32809,6,0,L|309:255,1,50
293,127,32940,2,0,L|369:132,1,50
425,209,33070,5,0,0:0:0:0:
414,224,33135,1,0,0:0:0:0:
407,241,33200,1,0,0:0:0:0:
401,259,33265,1,0,0:0:0:0:
399,278,33330,1,0,0:0:0:0:
400,297,33396,1,0,0:0:0:0:
403,315,33461,1,0,0:0:0:0:
409,333,33526,1,0,0:0:0:0:
417,350,33591,5,0,0:0:0:0:
233,261,33722,1,0,0:0:0:0:
417,350,33853,1,0,0:0:0:0:
233,261,33984,1,0,0:0:0:0:
353,101,34114,5,0,0:0:0:0:
313,349,34244,1,0,0:0:0:0:
353,101,34374,1,0,0:0:0:0:
313,349,34504,1,0,0:0:0:0:
189,165,34635,5,0,0:0:0:0:
409,241,34766,1,0,0:0:0:0:
273,73,34896,1,0,0:0:0:0:
249,281,35027,1,0,0:0:0:0:
41,185,35157,5,0,0:0:0:0:
305,177,35287,1,0,0:0:0:0:
125,37,35418,2,0,B|97:65|97:101|97:101|133:125|141:173,1,150
144,232,35679,6,0,L|152:296,1,50
220,384,35809,2,0,L|228:320,1,50
296,228,35940,6,0,L|302:277,1,50
372,380,36070,2,0,L|378:330,1,50
380,176,36200,6,0,P|360:148|332:136,1,50
224,108,36331,2,0,P|244:80|272:68,1,50
500,80,36461,6,0,L|444:88,1,50
336,32,36592,2,0,L|385:39,1,50
480,240,36722,6,0,L|424:248,1,50
244,360,36853,2,0,L|300:352,1,50
496,224,36983,6,0,L|440:232,1,50
228,376,37114,2,0,L|284:368,1,50
292,200,37244,5,0,0:0:0:0:
267,195,37309,1,0,0:0:0:0:
242,194,37374,1,0,0:0:0:0:
217,196,37439,1,0,0:0:0:0:
193,203,37504,1,0,0:0:0:0:
169,211,37570,1,0,0:0:0:0:
144,213,37635,1,0,0:0:0:0:
119,211,37700,1,0,0:0:0:0:
95,207,37765,5,0,0:0:0:0:
208,20,37896,1,0,0:0:0:0:
224,280,38027,1,0,0:0:0:0:
208,20,38157,1,0,0:0:0:0:
324,128,38287,6,0,P|384:164|428:168,1,100
512,52,38548,2,0,L|408:64,1,100
164,116,38809,5,0,0:0:0:0:
412,168,38940,1,0,0:0:0:0:
236,204,39070,1,0,0:0:0:0:
320,16,39200,1,0,0:0:0:0:
328,192,39331,6,0,B|320:244|320:244|336:304,1,100
512,288,39592,2,0,B|470:255|470:255|411:238,1,100
186,196,39853,6,0,L|262:208,1,50
332,289,39983,2,0,L|282:296,1,50
136,336,40114,6,0,L|124:260,1,50
72,112,40244,2,0,L|64:161,1,50
208,120,40374,5,0,0:0:0:0:
256,108,40440,1,0,0:0:0:0:
304,108,40505,1,0,0:0:0:0:
352,120,40570,1,0,0:0:0:0:
400,120,40635,1,0,0:0:0:0:
440,92,40700,1,0,0:0:0:0:
444,40,40766,1,0,0:0:0:0:
404,12,40831,1,0,0:0:0:0:
356,20,40896,6,0,L|364:76,1,50
456,216,41027,2,0,L|463:166,1,50
252,204,41157,6,0,L|308:212,1,50
448,304,41288,2,0,L|398:311,1,50
188,244,41418,5,0,0:0:0:0:
148,272,41483,1,0,0:0:0:0:
148,320,41548,1,0,0:0:0:0:
188,352,41614,1,0,0:0:0:0:
236,344,41679,1,0,0:0:0:0:
264,300,41744,1,0,0:0:0:0:
252,252,41809,1,0,0:0:0:0:
252,204,41874,1,0,0:0:0:0:
276,160,41940,5,0,0:0:0:0:
512,208,42070,1,0,0:0:0:0:
352,236,42200,1,0,0:0:0:0:
392,28,42331,5,0,0:0:0:0:
424,172,42461,1,0,0:0:0:0:
184,40,42592,1,0,0:0:0:0:
401,19,42853,5,0,0:0:0:0:
439,187,42983,1,0,0:0:0:0:
158,33,43114,1,0,0:0:0:0:
136,184,43244,1,0,0:0:0:0:
128,232,43309,1,0,0:0:0:0:
136,280,43374,1,0,0:0:0:0:
340,104,43505,5,0,0:0:0:0:
44,188,43635,1,0,0:0:0:0:
239,362,44027,6,0,B|275:370|311:334|314:305|314:305|367:314|444:252|436:181|411:110|311:98,1,400
90,188,44809,2,0,B|154:172|246:224|246:224|182:156|182:156|234:192|339:206|339:206|237:198|204:110|225:17|297:-34|392:-2|419:40,1,800
340,104,46114,5,0,0:0:0:0:
276,264,46244,1,0,0:0:0:0:
436,328,46374,1,0,0:0:0:0:
500,168,46505,1,0,0:0:0:0:
289,111,46635,5,0,0:0:0:0:
283,314,46765,1,0,0:0:0:0:
486,320,46895,1,0,0:0:0:0:
492,117,47026,1,0,0:0:0:0:
144,192,47157,5,0,0:0:0:0:
384,240,47287,1,0,0:0:0:0:
160,320,47418,1,0,0:0:0:0:
240,96,47548,1,0,0:0:0:0:
61,148,47679,2,0,P|61:228|77:244,2,66.6666666666667
119,51,47940,2,0,P|171:6|212:0,1,100
398,71,48200,6,0,B|343:135|274:117|274:117|301:147|300:193,1,200
303,221,48527,1,0,0:0:0:0:
297,270,48592,1,0,0:0:0:0:
276,315,48657,1,0,0:0:0:0:
237,347,48722,1,0,0:0:0:0:
141,231,48853,1,0,0:0:0:0:
395,241,48983,2,0,P|386:316|346:370,1,100
141,231,49244,6,0,B|43:168|57:62|57:62|114:78|174:44,1,300
299,4,49766,1,0,0:0:0:0:
270,154,49896,2,0,L|158:145,1,100
299,4,50157,1,0,0:0:0:0:
232,252,50287,5,0,0:0:0:0:
223,275,50352,1,0,0:0:0:0:
227,299,50417,1,0,0:0:0:0:
243,318,50482,1,0,0:0:0:0:
266,326,50547,1,0,0:0:0:0:
290,322,50613,1,0,0:0:0:0:
309,306,50678,1,0,0:0:0:0:
317,282,50743,1,0,0:0:0:0:
312,258,50809,5,0,0:0:0:0:
328,277,50874,1,0,0:0:0:0:
351,286,50939,1,0,0:0:0:0:
375,282,51004,1,0,0:0:0:0:
394,266,51069,1,0,0:0:0:0:
402,242,51135,1,0,0:0:0:0:
398,218,51200,1,0,0:0:0:0:
381,200,51265,1,0,0:0:0:0:
360,188,51331,5,0,0:0:0:0:
326,152,51396,1,0,0:0:0:0:
322,103,51461,1,0,0:0:0:0:
351,64,51526,1,0,0:0:0:0:
398,51,51592,2,0,L|396:144,1,50
312,258,51722,5,0,0:0:0:0:
262,253,51787,1,0,0:0:0:0:
212,249,51852,1,0,0:0:0:0:
162,244,51917,1,0,0:0:0:0:
112,240,51983,2,0,L|120:172,1,50
56,44,52114,1,0,0:0:0:0:
28,192,52244,1,0,0:0:0:0:
59,340,52374,6,0,B|131:336|163:272|164:244|164:244|163:272|183:332|237:341|237:341|264:272|319:256,1,400
443,203,53027,2,0,P|395:67|327:263,1,500
356,268,53766,1,0,0:0:0:0:
400,284,53853,1,0,0:0:0:0:
436,316,53940,2,0,P|388:352|332:360,1,100
204,312,54200,6,0,B|112:280|48:312|48:312|72:348|140:368|140:368|112:336|104:276|147:233|192:228|192:228|146:222|84:198|69:120|91:23|196:24|235:34|286:73|302:143|253:206,1,900
284,279,55505,6,0,P|291:318|287:342,2,50
192,140,55766,2,0,P|262:98|303:104,1,100
440,173,56027,1,0,0:0:0:0:
266,184,56157,1,0,0:0:0:0:
490,273,56287,1,0,0:0:0:0:
266,184,56418,1,0,0:0:0:0:
449,24,56548,5,0,0:0:0:0:
366,246,56679,1,0,0:0:0:0:
345,63,56809,1,0,0:0:0:0:
366,246,56940,1,0,0:0:0:0:
507,113,57070,1,0,0:0:0:0:
230,102,57200,6,0,B|155:99|111:26|111:26|58:66|68:128|140:188|103:252|103:252|130:282|199:280,1,450
231,224,57853,6,0,P|247:270|245:297,2,66.6666666666667
155,277,58114,1,0,0:0:0:0:
168,328,58200,1,0,0:0:0:0:
207,364,58287,1,0,0:0:0:0:
258,376,58374,1,0,0:0:0:0:
309,361,58461,1,0,0:0:0:0:
358,341,58548,1,0,0:0:0:0:
408,341,58635,6,0,B|390:253|448:219|415:141,1,179.999994506836
409,120,58896,1,0,0:0:0:0:
269,118,59157,2,0,P|222:174|346:182,1,262.500010013581
269,118,59679,5,0,0:0:0:0:
219,121,59744,1,0,0:0:0:0:
169,124,59809,1,0,0:0:0:0:
119,127,59874,1,0,0:0:0:0:
69,130,59940,2,0,L|64:198,1,50
58,307,60070,5,0,0:0:0:0:
50,354,60135,1,0,0:0:0:0:
87,384,60200,1,0,0:0:0:0:
132,368,60265,1,0,0:0:0:0:
141,321,60331,2,0,L|139:271,1,50
90,47,60461,5,0,0:0:0:0:
