osu file format v14

[General]
AudioFilename: audio.mp3
AudioLeadIn: 0
PreviewTime: 23486
Countdown: 0
SampleSet: Soft
StackLeniency: 0.4
Mode: 0
LetterboxInBreaks: 0
WidescreenStoryboard: 0

[Editor]
Bookmarks: 57368,102545
DistanceSpacing: 2.1
BeatDivisor: 4
GridSize: 32
TimelineZoom: 1.8

[Metadata]
Title:Der Wald (kors k Remix)
TitleUnicode:Der Wald (kors k Remix)
Artist:Eleharmonica remixed by kors k
ArtistUnicode:エレハモニカ remixed by kors k
Creator:Reol
Version:XtrA
Source:pop'n music 20 fantasia
Tags:
BeatmapID:1581453
BeatmapSetID:751119

[Difficulty]
HPDrainRate:6
CircleSize:5
OverallDifficulty:8.8
ApproachRate:9.5
SliderMultiplier:1.8
SliderTickRate:1

[Events]
//Background and Video events
0,0,"bg.png",0,0
//Break Periods
//Storyboard Layer 0 (Background)
//Storyboard Layer 1 (Fail)
//Storyboard Layer 2 (Pass)
//Storyboard Layer 3 (Foreground)
//Storyboard Sound Samples

[TimingPoints]
898,352.941176470588,4,2,2,30,1,0
1250,-133.333333333333,4,2,2,30,0,0
23486,-66.6666666666667,4,2,2,60,0,0
23839,-100,4,2,2,60,0,0
44662,-200,4,2,2,60,0,0
44927,-200,4,2,2,5,0,0
45015,-133.333333333333,4,2,2,60,0,0
45280,-133.333333333333,4,2,2,5,0,0
45368,-100,4,2,2,60,0,0
45633,-100,4,2,2,5,0,0
45721,-83.3333333333333,4,2,2,60,0,0
45986,-83.3333333333333,4,2,2,5,0,0
46074,-66.6666666666667,4,2,2,60,0,1
46427,-100,4,2,2,60,0,1
67250,-66.6666666666667,4,2,2,60,0,0
67603,-100,4,2,2,60,0,0
67956,-133.333333333333,4,2,2,60,0,0
68309,-66.6666666666667,4,2,2,60,0,0
68662,-83.3333333333333,4,2,2,60,0,0
74309,-83.3333333333333,4,2,2,60,0,0
77133,-200,4,2,2,60,0,0
77486,-50,4,2,2,60,0,0
77839,-200,4,2,2,60,0,0
78192,-50,4,2,2,60,0,0
78545,-66.6666666666667,4,2,2,60,0,0
79956,-83.3333333333333,4,2,2,60,0,0
83133,-100,4,2,2,60,0,0
84545,-133.333333333333,4,2,2,60,0,0
85603,-66.6666666666667,4,2,2,60,0,0
88427,-100,4,2,2,60,0,0
89839,-200,4,2,2,60,0,0
91250,-83.3333333333333,4,2,2,60,0,1
112427,-83.3333333333333,4,1,2,60,0,1
113839,-74.0740740740741,4,1,2,60,0,1
118780,-74.0740740740741,4,1,2,60,0,0

[Colours]
Combo1 : 70,163,255
Combo2 : 128,255,255
Combo3 : 255,142,199
Combo4 : 255,255,155

[HitObjects]
70,60,897,5,0,3:0:0:0:
70,60,1250,1,0,0:0:0:0:
172,26,1427,1,0,0:0:0:0:
66,46,1603,2,0,L|73:186,2,135.000005149842,0|0|0,1:0|3:0|3:0,0:0:0:0:
66,46,2662,5,0,3:0:0:0:
40,123,2839,1,0,0:0:0:0:
81,192,3015,2,0,P|96:228|92:271,1,67.5000025749208,0|0,1:0|0:0,0:0:0:0:
170,287,3368,2,0,P|155:323|159:366,1,67.5000025749208,0|0,3:0|0:0,0:0:0:0:
234,333,3721,6,0,B|286:326|286:326|310:337|310:337|372:329,1,135.000005149842,0|0,3:0|0:0,0:0:0:0:
446,322,4250,1,0,0:0:0:0:
297,298,4427,2,0,P|274:264|314:166,1,135.000005149842,0|0,1:0|0:0,0:0:0:0:
355,145,4956,1,0,0:0:0:0:
296,298,5133,6,0,L|217:290,1,67.5000025749208,0|0,3:0|0:0,0:0:0:0:
146,183,5486,2,0,L|178:255,1,67.5000025749208,0|0,3:0|0:0,0:0:0:0:
121,369,5839,1,0,1:0:0:0:
160,314,6015,1,0,0:0:0:0:
168,324,6103,1,0,0:0:0:0:
180,329,6192,1,0,1:0:0:0:
247,332,6368,1,0,0:0:0:0:
312,187,6545,6,0,L|303:107,1,67.5000025749208,0|0,3:0|0:0,0:0:0:0:
296,53,6897,1,0,0:0:0:0:
383,142,7074,1,0,0:0:0:0:
299,33,7250,2,0,B|263:57|263:57|156:41,1,135.000005149842,0|0,1:0|0:0,0:0:0:0:
162,49,7956,5,0,3:0:0:0:
171,129,8133,1,0,0:0:0:0:
36,176,8309,1,0,3:0:0:0:
45,96,8486,1,0,0:0:0:0:
149,208,8662,2,0,B|157:262|157:262|174:280|174:280|180:346,1,135.000005149842,0|0,1:0|3:0,0:0:0:0:
179,335,9192,1,0,0:0:0:0:
317,211,9368,6,0,P|322:261|257:328,2,135.000005149842,0|0|0,3:0|0:0|1:0,0:0:0:0:
281,52,10427,1,0,0:0:0:0:
299,130,10603,1,0,3:0:0:0:
317,209,10780,6,0,L|408:195,1,67.5000025749208,0|0,3:0|0:0,0:0:0:0:
443,314,11133,2,0,L|376:303,1,67.5000025749208,0|0,3:0|0:0,0:0:0:0:
262,289,11486,1,8,0:0:0:0:
139,218,11662,1,8,0:0:0:0:
123,240,11750,1,8,0:0:0:0:
119,267,11839,1,8,0:0:0:0:
261,147,12015,1,8,0:0:0:0:
259,297,12192,6,0,B|326:307|326:307|409:268,2,135.000005149842,0|0|8,3:0|0:0|0:0,0:0:0:0:
93,262,13250,2,0,L|171:257,1,67.5000025749208,0|0,1:0|0:0,0:0:0:0:
209,116,13603,6,0,L|214:194,1,67.5000025749208,0|0,1:0|0:0,0:0:0:0:
330,84,13956,2,0,L|295:154,1,67.5000025749208,0|0,1:0|0:0,0:0:0:0:
371,313,14309,2,0,P|309:294|287:233,1,135.000005149842,8|0,0:0|3:0,0:0:0:0:
287,232,14839,1,0,0:0:0:0:
367,233,15015,6,0,L|402:230,2,33.7500012874604,0|0|0,3:0|0:0|0:0,0:0:0:0:
388,154,15368,2,0,L|418:132,2,33.7500012874604,0|0|0,0:0|0:0|0:0,0:0:0:0:
360,77,15721,2,0,L|368:41,2,33.7500012874604,8|0|0,0:0|0:0|0:0,0:0:0:0:
286,42,16074,2,0,L|270:9,2,33.7500012874604,0|0|0,0:0|0:0|0:0,0:0:0:0:
208,67,16427,6,0,B|151:61|151:61|136:71|136:71|71:64,1,135.000005149842,0|0,3:0|3:0,0:0:0:0:
76,64,16956,1,0,0:0:0:0:
112,166,17133,1,0,1:0:0:0:
216,191,17309,5,0,0:0:0:0:
223,209,17397,1,0,0:0:0:0:
224,229,17486,1,0,1:0:0:0:
97,183,17662,1,0,0:0:0:0:
66,50,17839,6,0,L|219:38,2,135.000005149842,0|0|0,3:0|0:0|1:0,0:0:0:0:
66,50,18721,1,0,0:0:0:0:
143,125,18897,2,0,P|160:152|163:191,1,67.5000025749208,0|0,0:0|0:0,0:0:0:0:
61,296,19250,6,0,P|75:267|108:245,1,67.5000025749208,0|0,3:0|0:0,0:0:0:0:
257,281,19603,2,0,P|225:282|189:265,1,67.5000025749208,0|0,3:0|0:0,0:0:0:0:
249,175,19956,2,0,L|298:167,2,33.7500012874604,0|0|0,1:0|0:0|0:0,0:0:0:0:
239,67,20309,2,0,L|190:59,2,33.7500012874604,0|0|0,3:0|0:0|0:0,0:0:0:0:
345,87,20662,6,0,B|407:100|407:100|357:42,1,135.000005149842,0|0,3:0|0:0,0:0:0:0:
360,45,21192,1,0,0:0:0:0:
306,154,21368,2,0,P|293:189|310:228,1,67.5000025749208,0|0,1:0|0:0,0:0:0:0:
371,257,21721,1,0,0:0:0:0:
448,234,21897,1,0,0:0:0:0:
301,216,22074,5,0,0:0:0:0:
297,135,22250,1,0,0:0:0:0:
142,165,22427,5,0,0:0:0:0:
146,246,22603,1,0,0:0:0:0:
305,297,22780,5,0,0:0:0:0:
301,216,22956,1,0,0:0:0:0:
146,246,23133,5,0,0:0:0:0:
150,327,23309,1,0,0:0:0:0:
305,297,23486,6,0,L|452:280,1,135.000005149842,0|0,1:0|0:0,0:0:0:0:
439,281,23839,5,8,0:0:0:0:
254,240,24015,1,2,0:2:0:0:
247,223,24103,1,0,0:0:0:0:
240,206,24192,2,0,L|248:137,1,45,2|0,0:2|0:0,0:0:0:0:
254,90,24368,1,2,1:2:0:0:
254,90,24545,2,0,L|246:21,1,45,8|0,0:0|0:0,0:0:0:0:
132,20,24721,2,0,L|137:64,1,45,0|0,0:0|0:0,0:0:0:0:
119,134,24897,6,0,L|132:243,1,90,0|0,1:0|0:0,0:0:0:0:
117,295,25162,1,0,0:0:0:0:
117,295,25250,2,0,B|161:307|161:307|203:289,1,90,8|2,0:0|0:2,0:0:0:0:
303,232,25515,1,0,0:0:0:0:
303,232,25603,2,0,L|288:304,1,45,2|0,0:2|0:0,0:0:0:0:
315,305,25780,2,0,L|338:191,1,90,2|8,1:2|0:0,0:0:0:0:
345,145,26045,1,0,0:0:0:0:
354,159,26133,1,0,0:0:0:0:
363,173,26221,1,0,0:0:0:0:
372,187,26309,5,0,1:0:0:0:
478,165,26486,1,0,0:0:0:0:
285,102,26662,1,8,0:0:0:0:
391,80,26839,1,2,0:2:0:0:
391,80,26927,1,0,0:0:0:0:
391,80,27015,1,2,0:2:0:0:
471,6,27192,1,2,1:2:0:0:
391,80,27368,2,0,P|366:73|336:57,1,45,8|0,0:0|0:0,0:0:0:0:
285,102,27545,2,0,P|264:111|242:117,1,45,0|0,0:0|0:0,0:0:0:0:
176,89,27721,5,0,1:0:0:0:
186,160,27897,1,0,0:0:0:0:
197,231,28074,1,8,0:0:0:0:
114,132,28250,1,2,0:2:0:0:
96,127,28339,1,0,0:0:0:0:
78,128,28427,1,2,0:2:0:0:
256,184,28603,1,2,1:2:0:0:
114,132,28780,6,0,B|25:99|25:99|75:83,1,135,8|0,0:0|0:0,0:0:0:0:
131,62,29133,1,0,1:0:0:0:
94,200,29309,2,0,L|103:247,1,45,0|0,0:0|0:0,0:0:0:0:
117,267,29486,1,8,0:0:0:0:
260,254,29662,1,2,0:2:0:0:
260,254,29750,1,0,0:0:0:0:
260,254,29839,1,2,0:2:0:0:
183,207,30015,1,2,1:2:0:0:
336,298,30192,2,0,L|389:288,1,45,8|0,0:0|0:0,0:0:0:0:
272,359,30368,2,0,L|227:367,1,45,0|0,0:0|0:0,0:0:0:0:
336,298,30545,6,0,B|394:288|394:288|425:257|424:192|365:144,1,180,0|8,1:0|0:0,0:0:0:0:
336,107,31074,1,2,0:2:0:0:
252,74,31250,2,0,L|169:78,1,45,2|0,0:2|0:0,0:0:0:0:
321,19,31427,1,2,1:2:0:0:
336,107,31603,1,8,0:0:0:0:
351,195,31780,1,0,0:0:0:0:
225,196,31956,5,0,1:0:0:0:
368,179,32133,1,0,0:0:0:0:
243,340,32309,1,8,0:0:0:0:
386,322,32486,1,2,0:2:0:0:
243,200,32662,2,0,P|197:205|137:188,1,90,2|2,0:2|1:2,0:0:0:0:
160,49,32927,1,0,0:0:0:0:
160,49,33015,2,0,P|148:93|112:144,1,90,8|0,0:0|0:0,0:0:0:0:
53,202,33368,6,0,B|46:268|46:268|76:302|76:302|66:374,1,180,0|8,1:0|1:0,0:0:0:0:
207,298,33897,1,2,0:2:0:0:
242,292,33986,1,0,0:0:0:0:
277,286,34074,2,0,L|326:308,1,45,2|0,0:2|0:0,0:0:0:0:
392,335,34250,1,2,1:2:0:0:
272,254,34427,2,0,L|268:153,1,90,8|0,0:0|0:0,0:0:0:0:
301,99,34780,6,0,P|259:138|176:113,1,135,0|0,1:0|0:0,0:0:0:0:
139,70,35133,2,0,P|92:61|52:85,1,90,0|2,1:0|0:2,0:0:0:0:
32,147,35397,1,0,0:0:0:0:
32,147,35486,2,0,L|43:246,1,90,2|0,1:2|0:0,0:0:0:0:
143,338,35839,2,0,P|129:304|136:243,1,90,2|0,1:2|0:2,0:0:0:0:
272,285,36192,6,0,B|342:272|342:272|378:290|378:290|464:277,1,180,0|2,1:0|1:2,0:0:0:0:
375,161,36721,1,2,0:2:0:0:
375,161,36809,1,0,0:0:0:0:
375,161,36897,2,0,P|376:210|343:254,1,90,2|0,1:2|0:0,0:0:0:0:
194,188,37250,2,0,P|210:141|257:112,1,90,2|0,1:2|0:0,0:0:0:0:
288,188,37603,5,0,1:0:0:0:
260,254,37780,1,2,0:2:0:0:
233,320,37956,1,0,1:2:0:0:
122,239,38133,1,2,0:2:0:0:
122,239,38221,1,0,0:0:0:0:
122,239,38309,2,0,L|135:148,1,90,2|0,1:2|0:0,0:0:0:0:
128,71,38662,2,0,L|115:160,1,90,2|0,1:2|0:0,0:0:0:0:
84,301,39015,5,0,1:0:0:0:
161,347,39192,1,2,0:2:0:0:
243,310,39368,1,0,1:0:0:0:
251,220,39545,1,2,0:2:0:0:
185,158,39721,2,0,B|172:102|172:102|182:78|182:78|174:24,1,135,2|0,1:2|0:0,0:0:0:0:
166,23,40074,2,0,P|218:36|264:13,1,90,2|0,1:2|0:0,0:0:0:0:
413,91,40427,6,0,P|359:91|320:126,1,90,0|0,1:0|1:0,0:0:0:0:
305,198,40780,1,0,1:0:0:0:
330,284,40956,1,0,1:0:0:0:
344,295,41045,1,0,0:0:0:0:
361,300,41133,1,0,1:0:0:0:
447,275,41309,1,0,1:0:0:0:
312,286,41486,2,0,P|284:282|256:273,1,45,0|0,1:0|0:0,0:0:0:0:
216,327,41662,2,0,P|194:332|171:335,1,45,0|0,1:0|0:0,0:0:0:0:
108,300,41839,5,0,1:0:0:0:
70,160,42015,1,0,1:0:0:0:
209,123,42192,1,0,1:0:0:0:
247,262,42368,1,0,1:0:0:0:
263,269,42456,1,0,0:0:0:0:
279,276,42545,2,0,L|349:268,1,45,0|0,1:0|1:0,0:0:0:0:
396,260,42721,1,0,1:0:0:0:
337,122,42897,2,0,P|328:166|346:207,1,90,0|0,1:0|1:0,0:0:0:0:
396,260,43162,1,0,0:0:0:0:
396,260,43250,6,0,L|466:250,1,45,0|0,1:0|1:0,0:0:0:0:
316,280,43427,2,0,L|360:286,1,45,0|0,1:0|1:0,0:0:0:0:
205,263,43603,2,0,L|249:256,1,45,0|0,1:0|1:0,0:0:0:0:
66,290,43780,2,0,L|110:296,1,45,0|0,1:0|1:0,0:0:0:0:
160,354,43956,5,0,1:0:0:0:
157,336,44044,1,0,1:0:0:0:
154,318,44132,1,0,1:0:0:0:
151,300,44220,1,0,1:0:0:0:
149,282,44308,1,0,1:0:0:0:
146,265,44397,1,0,1:0:0:0:
143,247,44485,1,0,1:0:0:0:
141,229,44573,1,0,1:0:0:0:
138,211,44662,6,0,L|155:131,1,67.5,2|0,1:1|0:0,0:0:0:0:
143,126,45015,6,0,L|115:256,1,101.250003862381,0|0,0:0|0:0,0:0:0:0:
100,235,45368,6,0,L|132:82,1,135,0|0,0:0|0:0,0:0:0:0:
113,85,45721,6,0,L|70:284,1,161.999995056153,0|0,0:0|0:0,0:0:0:0:
30,312,46074,6,0,P|77:272|167:309,1,135.000005149842,4|2,1:0|0:2,0:0:0:0:
193,349,46339,1,2,0:2:0:0:
193,349,46427,2,0,L|260:338,1,45,8|0,0:0|0:0,0:0:0:0:
311,235,46603,2,0,L|287:298,1,45,2|0,0:2|0:0,0:0:0:0:
214,258,46780,6,0,L|170:205,1,45,0|0,0:0|0:0,0:0:0:0:
100,128,46956,1,2,1:2:0:0:
100,128,47045,1,2,0:2:0:0:
100,128,47133,2,0,L|166:117,1,45,8|0,0:0|0:0,0:0:0:0:
269,88,47309,2,0,L|245:150,1,45,2|0,0:2|0:0,0:0:0:0:
214,258,47486,5,0,1:0:0:0:
217,275,47574,1,0,0:0:0:0:
220,292,47662,1,2,0:2:0:0:
223,309,47750,1,2,0:2:0:0:
226,326,47839,1,8,0:0:0:0:
254,348,47927,1,0,0:0:0:0:
289,354,48015,1,2,0:2:0:0:
323,344,48103,1,0,0:0:0:0:
348,318,48192,2,0,P|351:269|371:225,1,90,0|2,0:0|1:2,0:0:0:0:
396,212,48456,1,2,0:2:0:0:
422,187,48545,2,0,P|435:139|432:91,1,90,8|2,0:0|0:2,0:0:0:0:
294,21,48897,6,0,L|304:78,1,45,0|0,1:0|0:0,0:0:0:0:
272,142,49074,1,2,0:2:0:0:
272,142,49162,1,2,0:2:0:0:
212,32,49250,6,0,L|222:89,1,45,8|0,0:0|0:0,0:0:0:0:
190,153,49427,1,2,0:2:0:0:
190,153,49515,1,0,0:0:0:0:
128,45,49603,6,0,L|138:102,1,45,0|0,0:0|0:0,0:0:0:0:
106,166,49780,1,2,1:2:0:0:
106,166,49868,1,2,0:2:0:0:
43,56,49956,6,0,L|53:113,1,45,8|0,0:0|0:0,0:0:0:0:
21,177,50133,1,2,0:2:0:0:
21,177,50221,1,0,0:0:0:0:
21,177,50309,6,0,B|28:230|28:230|53:250|53:250|62:319,1,135,0|2,1:0|0:2,0:0:0:0:
65,368,50662,2,0,L|118:368,1,45,8|0,0:0|0:0,0:0:0:0:
173,287,50839,2,0,L|156:244,1,45,2|0,0:2|0:0,0:0:0:0:
128,156,51015,1,0,0:0:0:0:
154,179,51103,1,0,0:0:0:0:
188,191,51192,1,2,1:2:0:0:
223,193,51280,1,2,0:2:0:0:
257,184,51368,2,0,P|280:169|303:164,1,45,8|0,0:0|0:0,0:0:0:0:
310,64,51545,2,0,P|334:76|350:93,1,45,2|0,0:2|0:0,0:0:0:0:
437,108,51721,6,0,P|438:135|402:198,1,90,4|2,1:0|0:2,0:0:0:0:
381,211,51986,1,2,0:2:0:0:
355,236,52074,2,0,P|346:252|340:281,1,45,8|0,0:0|0:0,0:0:0:0:
420,376,52250,2,0,P|410:360|388:340,1,45,2|0,0:2|0:0,0:0:0:0:
262,364,52427,1,0,0:0:0:0:
262,364,52515,1,0,0:0:0:0:
262,364,52603,2,0,P|280:363|308:354,1,45,2|0,1:2|0:0,0:0:0:0:
248,250,52780,2,0,L|205:285,1,45,8|0,0:0|0:0,0:0:0:0:
119,241,52956,2,0,L|127:185,1,45,2|0,0:2|0:0,0:0:0:0:
99,76,53133,6,0,B|147:90|147:90|191:74,1,90,0|2,1:0|0:2,0:0:0:0:
251,50,53397,1,2,0:2:0:0:
266,40,53486,2,0,L|246:104,1,45,8|0,0:0|0:0,0:0:0:0:
269,217,53662,2,0,L|282:174,1,45,2|0,0:2|0:0,0:0:0:0:
282,31,53839,6,0,L|262:95,1,45,0|0,0:0|0:0,0:0:0:0:
289,143,54015,1,2,1:2:0:0:
289,143,54103,1,0,0:0:0:0:
302,214,54192,2,0,L|282:278,1,45,8|0,0:0|0:0,0:0:0:0:
309,326,54368,1,2,0:2:0:0:
309,326,54456,1,0,0:0:0:0:
309,326,54545,6,0,B|367:314|367:314|394:328|394:328|454:315,1,135,0|2,1:0|0:2,0:0:0:0:
499,280,54897,2,0,L|436:289,1,45,8|0,0:0|0:0,0:0:0:0:
341,208,55074,2,0,L|385:201,1,45,2|0,0:2|0:0,0:0:0:0:
510,104,55250,2,0,L|465:110,1,45,0|0,0:0|0:0,0:0:0:0:
285,58,55427,1,2,1:2:0:0:
232,218,55603,2,0,L|250:310,1,90,8|2,0:0|0:2,0:0:0:0:
275,332,55868,1,0,0:0:0:0:
275,332,55956,6,0,B|248:338|248:338|182:312,1,90,0|2,1:0|0:2,0:0:0:0:
119,301,56221,1,2,0:2:0:0:
119,301,56309,2,0,P|96:269|110:207,1,90,8|2,0:0|0:2,0:0:0:0:
143,162,56574,1,0,0:0:0:0:
208,132,56662,6,0,P|217:153|214:183,1,45,0|0,0:0|0:0,0:0:0:0:
220,292,56839,2,0,P|199:301|169:298,1,45,2|2,1:2|0:2,0:0:0:0:
60,310,57015,2,0,P|51:289|54:259,1,45,8|0,0:0|0:0,0:0:0:0:
49,149,57192,2,0,P|70:140|100:143,1,45,2|0,0:2|0:0,0:0:0:0:
217,177,57368,5,4,1:0:0:0:
285,293,57545,1,2,0:2:0:0:
281,310,57633,1,2,0:2:0:0:
277,327,57721,1,8,0:0:0:0:
273,344,57809,1,0,0:0:0:0:
269,361,57897,1,2,0:2:0:0:
408,287,58074,1,0,0:2:0:0:
312,182,58250,2,0,L|342:138,1,45,2|2,1:2|0:2,0:0:0:0:
418,100,58427,2,0,L|463:104,1,45,8|0,0:0|0:0,0:0:0:0:
313,14,58603,2,0,L|336:61,1,45,2|0,0:2|0:0,0:0:0:0:
400,171,58780,6,0,B|384:202|384:202|400:266,1,90,0|2,1:0|0:2,0:0:0:0:
453,301,59045,1,2,0:2:0:0:
395,344,59133,2,0,L|284:328,1,90,8|2,0:0|0:2,0:0:0:0:
128,304,59486,1,0,0:0:0:0:
128,340,59574,1,0,0:0:0:0:
163,352,59662,1,2,1:2:0:0:
184,322,59750,1,0,0:0:0:0:
163,293,59839,2,0,L|154:199,1,90,8|2,0:0|0:2,0:0:0:0:
173,134,60103,1,0,0:0:0:0:
173,134,60192,6,0,L|168:89,1,45,0|0,1:0|0:0,0:0:0:0:
75,54,60368,2,0,L|79:98,1,45,2|2,0:2|0:2,0:0:0:0:
331,178,60545,2,0,L|286:182,1,45,8|0,0:0|0:0,0:0:0:0:
73,280,60721,2,0,L|117:275,1,45,2|0,0:2|0:0,0:0:0:0:
381,256,60897,1,0,0:0:0:0:
403,305,60986,1,0,0:0:0:0:
363,342,61074,1,2,1:2:0:0:
317,315,61162,1,2,0:2:0:0:
328,262,61250,2,0,P|334:224|313:168,1,90,8|2,0:0|0:2,0:0:0:0:
208,30,61603,6,0,P|255:60|351:38,1,135,0|2,1:0|0:2,0:0:0:0:
387,6,61956,2,0,L|364:65,1,45,8|0,0:0|0:0,0:0:0:0:
323,210,62133,1,2,0:2:0:0:
432,94,62309,1,0,0:0:0:0:
316,225,62486,1,2,1:2:0:0:
310,241,62574,1,2,0:2:0:0:
304,257,62662,2,0,L|252:263,1,45,8|0,0:0|0:0,0:0:0:0:
139,230,62839,2,0,L|87:236,1,45,2|0,0:2|0:0,0:0:0:0:
26,122,63015,6,0,L|132:132,1,90,4|2,1:0|0:2,0:0:0:0:
163,76,63280,1,0,0:0:0:0:
220,111,63368,2,0,L|347:94,1,90,8|2,0:0|0:2,0:0:0:0:
402,232,63721,1,0,0:0:0:0:
470,254,63809,1,0,0:0:0:0:
470,326,63898,1,2,1:2:0:0:
402,349,63986,1,0,0:0:0:0:
360,291,64074,2,0,P|331:293|293:286,1,45,8|0,0:0|0:0,0:0:0:0:
235,352,64250,2,0,P|212:350|190:352,1,45,2|0,0:2|0:0,0:0:0:0:
62,208,64427,6,0,P|67:234|69:262,1,45,0|0,1:0|0:0,0:0:0:0:
209,99,64603,2,0,P|203:76|203:54,1,45,2|2,0:2|0:2,0:0:0:0:
188,229,64780,2,0,L|298:217,1,90,8|2,0:0|0:2,0:0:0:0:
335,175,65045,1,0,0:0:0:0:
347,208,65133,1,0,0:0:0:0:
374,230,65221,1,0,0:0:0:0:
409,237,65309,2,0,L|458:227,1,45,2|0,1:2|0:0,0:0:0:0:
387,317,65486,2,0,B|331:328|331:328|359:292,1,90,8|2,0:0|0:2,0:0:0:0:
411,82,65839,6,0,B|466:69|466:69|408:147,1,135,0|2,1:0|0:2,0:0:0:0:
393,194,66192,2,0,L|422:153,1,45,8|0,1:0|0:0,0:0:0:0:
295,70,66368,1,2,0:2:0:0:
295,70,66456,1,0,0:0:0:0:
295,70,66545,2,0,L|290:133,1,45,0|0,1:0|0:0,0:0:0:0:
189,172,66721,2,0,L|166:123,1,45,2|2,0:2|0:2,0:0:0:0:
74,26,66897,2,0,L|44:19,7,22.5,8|0|0|0|2|0|0|0,1:0|0:0|0:0|0:0|0:2|0:0|0:0|0:0,0:0:0:0:
87,18,67250,6,0,B|76:87|76:87|107:136|107:136|86:225,1,202.500007724762,4|0,3:1|0:0,0:0:0:0:
97,230,67603,6,0,L|127:98,1,135,0|0,3:0|0:0,0:0:0:0:
140,60,67956,6,0,P|166:86|250:78,1,101.250003862381,4|0,3:3|0:0,0:0:0:0:
277,22,68309,6,0,B|298:57|271:96|271:96|293:131|293:131|258:169|281:225,1,202.500007724762,4|0,3:3|0:0,0:0:0:0:
351,183,68662,6,0,B|381:194|381:194|378:146,2,71.9999978027344,2|2|2,3:2|3:2|3:2,0:0:0:0:
256,121,69015,1,2,3:2:0:0:
241,124,69133,1,2,3:2:0:0:
227,127,69250,1,2,3:2:0:0:
141,147,69368,6,0,P|130:182|188:262,1,107.999996704102,10|0,3:2|1:0,0:0:0:0:
345,210,69721,2,0,P|353:157|325:112,1,107.999996704102,0|0,3:0|0:0,0:0:0:0:
239,211,70074,5,2,3:2:0:0:
276,189,70192,1,2,3:2:0:0:
239,167,70309,1,2,3:2:0:0:
221,279,70427,2,0,L|231:352,2,71.9999978027344,2|2|2,3:2|3:2|3:2,0:0:0:0:
194,108,70780,5,10,3:2:0:0:
194,108,70956,1,0,1:0:0:0:
332,32,71133,2,0,B|322:106|322:106|354:80,1,107.999996704102,0|0,3:0|1:0,0:0:0:0:
472,30,71486,2,0,B|462:89|462:89|477:126|477:126|460:224,1,161.999995056153,0|0,1:0|0:0,0:0:0:0:
466,186,71839,1,0,3:0:0:0:
365,223,72015,1,0,1:0:0:0:
270,169,72192,1,8,0:0:0:0:
265,184,72280,1,0,0:0:0:0:
260,199,72368,2,0,L|268:253,1,53.9999983520508,0|0,0:0|0:0,0:0:0:0:
175,204,72545,2,0,L|158:91,1,107.999996704102,0|0,1:0|3:0,0:0:0:0:
145,24,72897,5,0,1:0:0:0:
221,85,73074,1,2,0:2:0:0:
343,25,73250,1,2,0:2:0:0:
342,197,73427,1,2,1:2:0:0:
354,238,73515,1,0,1:0:0:0:
390,261,73603,2,0,B|451:271|451:271|412:233,1,107.999996704102,8|0,1:2|1:0,0:0:0:0:
265,180,73956,2,0,L|280:119,2,53.9999983520508,4|0|0,3:2|0:0|1:0,0:0:0:0:
237,341,74309,6,0,L|333:335,2,71.9999978027344,2|2|2,3:2|3:2|3:2,0:0:0:0:
155,314,74662,1,2,3:2:0:0:
288,271,74780,1,2,3:2:0:0:
155,228,74897,1,2,3:2:0:0:
237,201,75015,6,0,P|246:163|195:91,1,107.999996704102,10|0,3:2|1:0,0:0:0:0:
146,73,75280,1,0,0:0:0:0:
146,73,75368,1,0,3:0:0:0:
288,125,75545,1,0,0:0:0:0:
288,125,75721,6,0,B|327:133|327:133|309:84,2,71.9999978027344,2|2|2,3:2|3:2|3:2,0:0:0:0:
293,196,76074,1,2,3:2:0:0:
299,267,76192,1,2,3:2:0:0:
361,231,76309,1,2,3:2:0:0:
423,194,76427,5,10,3:2:0:0:
299,267,76603,2,0,L|228:260,1,53.9999983520508,0|0,1:0|0:0,0:0:0:0:
149,273,76780,2,0,B|200:288|200:288|260:269,1,107.999996704102,0|0,3:0|1:0,0:0:0:0:
373,131,77133,6,0,L|296:124,1,67.5,0|0,3:1|1:1,0:0:0:0:
249,108,77486,6,0,P|286:112|341:90,1,90,2|0,0:3|0:0,0:0:0:0:
121,210,77662,2,0,P|162:193|206:196,1,90,2|0,1:2|0:0,0:0:0:0:
244,248,77839,6,0,P|217:228|206:196,1,67.5,0|0,3:1|0:1,0:0:0:0:
282,187,78192,6,0,L|265:295,1,90,2|0,1:3|0:0,0:0:0:0:
364,21,78368,2,0,L|381:129,1,90,2|0,0:2|0:0,0:0:0:0:
393,203,78545,5,0,1:0:0:0:
364,306,78721,1,0,1:0:0:0:
392,324,78809,1,0,1:0:0:0:
425,326,78897,1,2,1:0:0:0:
287,243,79074,1,0,1:0:0:0:
185,277,79250,2,0,P|172:310|171:348,1,67.5000025749208,10|0,1:0|0:0,0:0:0:0:
94,229,79427,1,0,1:0:0:0:
83,121,79603,1,10,1:0:0:0:
82,114,79692,1,0,1:0:0:0:
81,107,79780,1,0,1:0:0:0:
80,100,79868,1,0,1:0:0:0:
79,94,79956,6,0,P|60:78|10:84,2,71.9999978027344,2|2|2,3:2|3:2|3:2,0:0:0:0:
94,164,80309,1,2,3:2:0:0:
109,234,80427,1,2,3:2:0:0:
125,304,80545,1,2,3:2:0:0:
178,256,80662,1,10,3:2:0:0:
231,207,80780,1,2,3:2:0:0:
162,185,80897,1,2,3:2:0:0:
94,164,81015,2,0,B|36:171|36:171|89:203,1,107.999996704102,0|0,3:0|0:0,0:0:0:0:
291,199,81368,5,2,3:2:0:0:
291,243,81486,1,2,3:2:0:0:
328,221,81603,1,2,3:2:0:0:
249,215,81721,5,2,3:2:0:0:
324,258,81839,1,2,3:2:0:0:
324,172,81956,1,2,3:2:0:0:
257,289,82074,5,10,3:2:0:0:
257,130,82192,1,2,3:2:0:0:
394,209,82309,1,2,3:2:0:0:
171,219,82427,6,0,B|106:229|106:229|66:204,1,107.999996704102,0|0,3:0|1:0,0:0:0:0:
44,146,82692,1,0,0:0:0:0:
44,146,82780,2,0,P|69:198|34:303,1,161.999995056153,0|0,1:0|0:0,0:0:0:0:
131,284,83133,6,0,L|42:294,1,90,0|0,3:0|1:0,0:0:0:0:
320,295,83486,2,0,B|264:302|264:302|247:327|247:327|199:332,1,135,8|0,0:0|0:0,0:0:0:0:
158,210,83839,2,0,P|222:225|252:284,1,135,0|0,1:0|0:0,0:0:0:0:
158,210,84192,6,0,B|150:157|150:157|163:134|163:134|154:70,1,135,4|0,1:3|0:0,0:0:0:0:
106,44,84545,6,0,P|153:52|222:26,1,101.250003862381,8|0,0:3|1:0,0:0:0:0:
269,17,84897,2,0,P|238:53|226:126,1,101.250003862381,8|0,1:2|0:0,0:0:0:0:
211,177,85250,2,0,P|194:132|137:85,1,101.250003862381,4|0,0:3|0:0,0:0:0:0:
122,29,85603,6,0,B|49:29|49:29|105:89|105:89|207:88|207:88|276:137|276:137|192:143,1,405.000015449525,2|0,1:1|0:1,0:0:0:0:
212,141,86221,1,0,0:0:0:0:
212,141,86309,1,4,0:2:0:0:
65,200,86486,2,0,L|38:194,6,16.8750006437302,0|0|0|0|0|0|0,1:0|0:0|0:0|0:0|0:0|0:0|0:0,0:0:0:0:
76,219,86662,2,0,L|148:209,1,67.5000025749208,2|2,0:0|0:0,0:0:0:0:
155,219,86839,2,0,L|227:209,1,67.5000025749208,2|2,0:0|0:0,0:0:0:0:
337,196,87015,6,0,B|343:246|343:246|371:212,2,90.0000034332277,2|2|2,3:2|3:2|3:2,0:0:0:0:
332,123,87368,1,2,3:2:0:0:
326,50,87486,1,2,3:2:0:0:
392,76,87603,1,2,3:2:0:0:
265,92,87721,6,0,P|229:88|195:79,1,67.5000025749208,10|0,3:2|0:0,0:0:0:0:
80,31,87897,2,0,P|94:64|103:98,1,67.5000025749208,0|0,1:0|0:0,0:0:0:0:
121,217,88074,1,0,0:0:0:0:
118,230,88162,1,0,0:0:0:0:
115,243,88250,1,0,1:0:0:0:
112,256,88339,1,0,0:0:0:0:
109,269,88427,5,0,3:0:0:0:
119,359,88603,1,0,3:0:0:0:
208,349,88780,1,0,3:0:0:0:
199,260,88956,1,0,3:0:0:0:
131,202,89133,5,0,1:0:0:0:
369,160,89309,1,0,1:0:0:0:
229,61,89486,1,0,1:0:0:0:
271,300,89662,1,0,1:0:0:0:
229,61,89839,5,0,3:0:0:0:
253,187,90192,2,0,P|232:198|254:177,1,90,0|4,3:0|3:3,0:0:0:0:
271,300,90897,1,4,3:3:0:0:
281,308,91250,6,0,P|235:338|177:326,1,107.999996704102,6|2,1:1|0:2,0:0:0:0:
42,224,91515,2,0,P|96:215|144:249,1,107.999996704102,2|0,0:2|0:0,0:0:0:0:
83,353,91780,2,0,L|83:294,1,53.9999983520508,2|0,0:1|0:0,0:0:0:0:
128,157,91956,2,0,L|128:98,1,53.9999983520508,0|2,1:0|0:2,0:0:0:0:
296,14,92133,2,0,L|215:20,1,53.9999983520508,0|2,0:0|0:2,0:0:0:0:
222,147,92309,2,0,L|347:134,1,107.999996704102,8|2,1:0|0:2,0:0:0:0:
406,84,92574,1,0,0:0:0:0:
406,84,92662,6,0,P|376:129|402:192,1,107.999996704102,2|2,1:1|0:2,0:0:0:0:
439,234,92927,1,2,0:2:0:0:
439,234,93015,2,0,L|502:223,1,53.9999983520508,8|0,1:0|0:0,0:0:0:0:
433,322,93192,2,0,B|365:307|365:307|397:339,1,107.999996704102,2|0,0:1|1:0,0:0:0:0:
286,346,93456,1,2,0:2:0:0:
286,346,93545,2,0,P|256:338|219:337,1,53.9999983520508,0|2,0:0|0:2,0:0:0:0:
101,351,93721,2,0,P|134:318|160:245,1,107.999996704102,8|2,1:0|0:2,0:0:0:0:
84,241,93986,1,0,0:0:0:0:
141,187,94074,6,0,P|120:153|56:121,1,107.999996704102,2|0,1:1|0:0,0:0:0:0:
180,74,94339,2,0,P|219:72|279:33,1,107.999996704102,2|0,0:2|0:0,0:0:0:0:
263,155,94603,2,0,P|247:182|243:216,1,53.9999983520508,2|0,0:1|0:0,0:0:0:0:
244,280,94780,2,0,P|250:308|267:332,1,53.9999983520508,4|2,1:2|0:2,0:0:0:0:
461,244,94956,2,0,P|449:217|427:197,1,53.9999983520508,0|2,0:0|0:2,0:0:0:0:
355,268,95133,1,8,1:0:0:0:
279,39,95309,1,2,0:2:0:0:
275,60,95397,1,0,0:0:0:0:
271,82,95486,6,0,B|277:162|277:162|247:138,1,107.999996704102,2|2,1:1|0:2,0:0:0:0:
189,107,95750,1,2,0:2:0:0:
189,107,95839,2,0,P|163:99|135:95,1,53.9999983520508,8|0,1:0|0:0,0:0:0:0:
29,213,96015,2,0,P|59:198|81:195,1,53.9999983520508,2|0,0:1|0:0,0:0:0:0:
297,273,96192,6,0,L|293:343,1,53.9999983520508,4|2,1:2|0:2,0:0:0:0:
411,130,96368,2,0,L|414:76,1,53.9999983520508,0|2,0:0|0:2,0:0:0:0:
274,139,96545,2,0,L|191:134,1,53.9999983520508,8|0,1:0|0:0,0:0:0:0:
441,272,96721,2,0,L|504:275,1,53.9999983520508,2|0,0:2|0:0,0:0:0:0:
411,130,96897,6,0,B|416:50|416:50|371:80,1,107.999996704102,6|2,1:1|0:2,0:0:0:0:
220,135,97162,2,0,P|264:152|326:121,1,107.999996704102,2|0,0:2|0:0,0:0:0:0:
233,31,97427,2,0,L|173:22,1,53.9999983520508,2|0,0:1|0:0,0:0:0:0:
40,27,97603,2,0,P|19:64|44:137,1,107.999996704102,0|0,1:0|0:0,0:0:0:0:
98,163,97868,1,2,0:2:0:0:
98,163,97956,2,0,L|160:158,1,53.9999983520508,8|0,1:0|0:0,0:0:0:0:
324,116,98133,1,2,0:2:0:0:
324,116,98221,1,0,0:0:0:0:
324,116,98309,6,0,B|326:168|326:168|380:207,1,107.999996704102,2|2,1:1|0:2,0:0:0:0:
445,219,98574,1,2,0:2:0:0:
473,149,98662,2,0,L|465:214,1,53.9999983520508,8|0,1:0|0:0,0:0:0:0:
345,293,98839,2,0,B|296:258|296:258|235:270,1,107.999996704102,2|0,0:1|1:0,0:0:0:0:
180,298,99103,1,2,0:2:0:0:
180,298,99192,2,0,L|101:294,1,53.9999983520508,0|2,0:0|0:2,0:0:0:0:
52,141,99368,2,0,L|67:247,1,107.999996704102,8|2,1:0|0:2,0:0:0:0:
296,361,99721,6,0,L|158:349,1,107.999996704102,2|0,1:1|0:0,0:0:0:0:
112,361,99986,1,2,0:2:0:0:
96,287,100074,2,0,L|108:352,1,53.9999983520508,8|0,1:0|0:0,0:0:0:0:
199,186,100250,2,0,P|161:148|82:149,1,107.999996704102,2|4,0:1|1:2,0:0:0:0:
196,263,100515,1,2,0:2:0:0:
196,263,100603,2,0,P|226:273|256:273,1,53.9999983520508,0|0,0:0|0:0,0:0:0:0:
374,315,100780,2,0,P|350:335|335:361,1,53.9999983520508,8|0,1:0|0:0,0:0:0:0:
337,185,100956,1,2,1:2:0:0:
337,185,101045,1,0,0:0:0:0:
337,185,101133,5,2,1:1:0:0:
328,34,101309,2,0,L|400:21,1,53.9999983520508,2|2,0:2|0:2,0:0:0:0:
449,57,101486,1,8,1:0:0:0:
246,17,101662,1,2,0:1:0:0:
246,17,101750,1,0,0:0:0:0:
246,17,101839,2,0,P|216:38|199:63,1,53.9999983520508,4|2,1:2|0:2,0:0:0:0:
130,61,102015,2,0,P|120:97|122:125,1,53.9999983520508,0|2,0:0|1:2,0:0:0:0:
77,176,102192,2,0,P|76:211|125:278,1,107.999996704102,8|2,1:0|1:2,0:0:0:0:
182,302,102456,1,0,0:0:0:0:
182,302,102545,6,0,L|323:288,1,107.999996704102,6|2,1:1|0:2,0:0:0:0:
394,165,102809,2,0,P|342:176|309:218,1,107.999996704102,2|0,0:2|0:0,0:0:0:0:
369,264,103074,2,0,L|422:258,1,53.9999983520508,2|0,0:1|0:0,0:0:0:0:
376,30,103250,2,0,L|381:83,1,53.9999983520508,0|2,1:0|0:2,0:0:0:0:
213,122,103427,2,0,L|159:127,1,53.9999983520508,0|2,0:0|0:2,0:0:0:0:
67,316,103603,2,0,L|61:262,1,53.9999983520508,8|0,1:0|0:0,0:0:0:0:
41,73,103780,1,2,0:2:0:0:
44,83,103868,1,0,0:0:0:0:
47,93,103956,6,0,B|98:108|98:108|153:88,1,107.999996704102,2|0,1:1|0:0,0:0:0:0:
215,51,104221,1,2,0:2:0:0:
215,51,104309,2,0,L|190:109,1,53.9999983520508,8|0,1:0|0:0,0:0:0:0:
178,269,104486,2,0,P|192:212|242:193,1,107.999996704102,2|0,0:1|1:0,0:0:0:0:
316,207,104750,1,2,0:2:0:0:
312,217,104839,1,0,0:0:0:0:
308,227,104927,1,2,0:2:0:0:
305,237,105015,2,0,L|329:314,1,53.9999983520508,8|0,1:0|0:0,0:0:0:0:
416,77,105192,2,0,L|399:128,1,53.9999983520508,2|0,0:2|0:0,0:0:0:0:
300,247,105368,6,0,B|323:322|323:322|342:289,1,107.999996704102,2|2,1:1|0:2,0:0:0:0:
321,143,105633,2,0,B|271:122|271:122|208:138,1,107.999996704102,2|0,0:2|0:0,0:0:0:0:
173,259,105897,2,0,P|198:235|205:212,1,53.9999983520508,2|0,0:1|0:0,0:0:0:0:
111,81,106074,2,0,P|96:132|131:194,1,107.999996704102,4|0,1:2|0:0,0:0:0:0:
219,311,106339,1,2,0:2:0:0:
225,323,106427,2,0,P|186:285|115:288,1,107.999996704102,8|2,1:0|0:2,0:0:0:0:
69,319,106692,1,0,0:0:0:0:
69,319,106780,6,0,L|76:375,1,53.9999983520508,2|0,1:1|0:0,0:0:0:0:
185,215,106956,1,0,0:0:0:0:
185,215,107045,1,2,0:2:0:0:
185,215,107133,2,0,L|178:161,1,53.9999983520508,8|0,1:0|0:0,0:0:0:0:
129,97,107309,2,0,B|177:117|177:117|241:99,1,107.999996704102,2|4,0:1|1:2,0:0:0:0:
302,75,107574,1,2,0:2:0:0:
334,76,107662,1,0,0:0:0:0:
362,90,107750,1,0,0:0:0:0:
385,112,107839,2,0,L|367:229,1,107.999996704102,8|2,1:0|0:2,0:0:0:0:
347,360,108192,5,6,1:1:0:0:
283,266,108368,1,2,1:2:0:0:
128,341,108545,1,8,1:0:0:0:
157,135,108721,1,2,1:1:0:0:
361,101,108897,1,0,1:0:0:0:
364,116,108986,1,2,0:0:0:0:
367,131,109074,1,0,1:0:0:0:
370,146,109162,1,2,0:0:0:0:
373,161,109250,2,0,L|482:143,1,107.999996704102,12|2,1:2|1:2,0:0:0:0:
299,78,109603,5,6,1:1:0:0:
299,78,109780,1,2,1:2:0:0:
438,42,109956,1,8,1:0:0:0:
170,106,110133,1,2,1:1:0:0:
358,217,110309,1,0,1:0:0:0:
361,232,110397,1,2,0:0:0:0:
364,247,110486,1,0,1:0:0:0:
367,262,110574,1,2,0:0:0:0:
370,277,110662,2,0,P|319:256|243:273,1,107.999996704102,12|2,1:2|1:2,0:0:0:0:
152,310,111015,5,6,1:1:0:0:
132,318,111103,1,0,1:0:0:0:
112,310,111192,1,0,1:0:0:0:
103,290,111280,1,0,1:0:0:0:
112,270,111368,1,8,1:0:0:0:
132,261,111456,1,0,1:0:0:0:
152,270,111545,1,2,1:1:0:0:
160,290,111633,1,0,1:0:0:0:
145,330,111721,5,0,1:0:0:0:
102,321,111809,1,0,1:0:0:0:
78,286,111897,1,0,1:0:0:0:
85,243,111986,1,0,1:0:0:0:
121,219,112074,1,8,1:0:0:0:
164,226,112162,1,0,1:0:0:0:
188,263,112250,1,0,1:0:0:0:
180,305,112339,1,0,1:0:0:0:
145,330,112427,6,0,L|77:343,1,53.9999983520508,6|0,0:1|0:0,0:0:0:0:
102,191,112603,2,0,L|79:256,1,53.9999983520508,0|0,0:0|0:0,0:0:0:0:
236,302,112780,6,0,L|161:316,1,53.9999983520508,0|0,0:0|0:0,0:0:0:0:
189,149,112956,2,0,L|163:220,1,53.9999983520508,2|0,0:1|0:0,0:0:0:0:
324,255,113133,6,0,L|241:270,1,53.9999983520508,0|0,0:0|0:0,0:0:0:0:
272,87,113309,2,0,L|244:166,1,53.9999983520508,0|0,0:0|0:0,0:0:0:0:
408,192,113486,6,0,L|317:209,1,53.9999983520508,0|0,0:0|0:0,0:0:0:0:
350,14,113662,2,0,L|319:101,1,53.9999983520508,0|0,0:0|0:0,0:0:0:0:
271,266,113839,5,4,1:0:0:0:
271,266,114192,1,0,0:0:0:0:
92,249,114368,1,0,0:0:0:0:
397,114,114545,1,4,0:0:0:0:
397,114,114897,5,0,0:0:0:0:
397,114,115074,1,0,0:0:0:0:
142,28,115250,1,4,0:0:0:0:
142,28,115603,5,0,0:0:0:0:
155,135,115780,1,0,0:0:0:0:
168,241,115956,2,0,B|150:373|150:373|211:281,2,243.000000926971,4|4|4,0:0|0:0|0:0,0:0:0:0:
168,241,117015,5,0,0:0:0:0:
418,190,117192,1,0,0:0:0:0:
139,220,117368,1,4,0:0:0:0:
400,315,117721,5,0,0:0:0:0:
199,267,117897,1,0,0:0:0:0:
127,72,118074,1,4,0:0:0:0:
96,32,118427,5,0,0:0:0:0:
179,272,118603,1,0,0:0:0:0:
433,299,118780,1,4,0:0:0:0:
