osu file format v14

[General]
AudioFilename: audio.mp3
AudioLeadIn: 0
PreviewTime: 23397
Countdown: 0
SampleSet: Soft
StackLeniency: 0.4
Mode: 0
LetterboxInBreaks: 0
EpilepsyWarning: 1
WidescreenStoryboard: 1

[Editor]
DistanceSpacing: 1.2
BeatDivisor: 4
GridSize: 4
TimelineZoom: 1.6

[Metadata]
Title:Der Wald (kors k Remix)
TitleUnicode:Der Wald (kors k Remix)
Artist:Eleharmonica remixed by kors k
ArtistUnicode:エレハモニカ remixed by kors k
Creator:Cheesecake
Version:xChorse's Hard
Source:pop'n music 20 fantasia
Tags:darky1 xchorse mithew jace rlc lasse hareimu spectator ascendance popn twenty mzd taku sakakibara seiya murai kosuke saito dark opera ダークオペラ the forest
BeatmapID:1403838
BeatmapSetID:581787

[Difficulty]
HPDrainRate:3.5
CircleSize:3.5
OverallDifficulty:5
ApproachRate:7
SliderMultiplier:1.5
SliderTickRate:1

[Events]
//Background and Video events
0,0,"der wald.jpg",0,0
//Break Periods
//Storyboard Layer 0 (Background)
//Storyboard Layer 1 (Fail)
//Storyboard Layer 2 (Pass)
//Storyboard Layer 3 (Foreground)
Sprite,Foreground,Centre,"sb\Naxess_3.png",0,0 M,0,43603,,453,156 C,0,43603,,191,255,0 S,30,43603,43780,0,1 P,0,43603,45724,A F,0,44662,45724,1,0
Sprite,Foreground,Centre,"sb\Naxess_3.png",0,0 M,0,43956,,477,173 C,0,43956,,212,255,0 S,30,43956,44133,0,1 P,0,43956,45724,A F,0,44662,45724,1,0
Sprite,Foreground,Centre,"sb\Naxess_3.png",0,0 M,0,44309,,496,199 C,0,44309,,233,255,0 S,30,44309,44486,0,1 P,0,44309,45724,A F,0,44662,45724,1,0
Sprite,Foreground,Centre,"sb\Circle.png",550,263 F,0,92661,93723,1,0 S,7,92661,93723,0.5,4 P,0,92661,93723,A
Sprite,Foreground,Centre,"sb\Circle.png",421,184 F,0,94073,95135,1,0 S,7,94073,95135,0.5,4 P,0,94073,95135,A
Sprite,Foreground,Centre,"sb\Circle.png",194,97 F,0,95485,96547,1,0 S,7,95485,96547,0.5,4 P,0,95485,96547,A
Sprite,Foreground,Centre,"sb\Circle.png",409,355 F,0,96897,97959,1,0 S,7,96897,97959,0.5,4 P,0,96897,97959,A
Sprite,Foreground,Centre,"sb\Circle.png",442,278 F,0,98308,99370,1,0 S,7,98308,99370,0.5,4 P,0,98308,99370,A
Sprite,Foreground,Centre,"sb\Circle.png",383,132 F,0,99720,100782,1,0 S,7,99720,100782,0.5,4 P,0,99720,100782,A
Sprite,Foreground,Centre,"sb\Circle.png",188,288 F,0,101132,102194,1,0 S,7,101132,102194,0.5,4 P,0,101132,102194,A
Sprite,Foreground,Centre,"sb\Circle.png",454,313 F,0,102544,103606,1,0 S,7,102544,103606,0.5,4 P,0,102544,103606,A
Sprite,Foreground,Centre,"sb\Circle.png",118,188 F,0,103955,105017,1,0 S,7,103955,105017,0.5,4 P,0,103955,105017,A
Sprite,Foreground,Centre,"sb\Circle.png",248,239 F,0,105367,106429,1,0 S,7,105367,106429,0.5,4 P,0,105367,106429,A
Sprite,Foreground,Centre,"sb\Circle.png",471,417 F,0,106779,107841,1,0 S,7,106779,107841,0.5,4 P,0,106779,107841,A
Sprite,Foreground,Centre,"sb\Circle.png",283,167 F,0,108191,109253,1,0 S,7,108191,109253,0.5,4 P,0,108191,109253,A
Sprite,Foreground,Centre,"sb\Circle.png",328,285 F,0,109603,110665,1,0 S,7,109603,110665,0.5,4 P,0,109603,110665,A
Sprite,Foreground,Centre,"sb\Circle.png",356,156 F,0,111015,112077,1,0 S,7,111015,112077,0.5,4 P,0,111015,112077,A
Sprite,Foreground,Centre,"sb\Circle.png",328,208 F,0,111721,112783,1,0 S,7,111721,112783,0.5,4 P,0,111721,112783,A
Sprite,Foreground,Centre,"sb\Circle.png",268,239 F,0,112427,113489,1,0 S,7,112427,113489,0.5,4 P,0,112427,113489,A
Sprite,Foreground,Centre,"sb\Circle.png",249,263 F,0,112780,113842,1,0 S,7,112780,113842,0.5,4 P,0,112780,113842,A
Sprite,Foreground,Centre,"sb\Circle.png",237,290 F,0,113133,114195,1,0 S,7,113133,114195,0.5,4 P,0,113133,114195,A
Sprite,Foreground,Centre,"sb\Circle.png",233,322 F,0,113486,114548,1,0 S,7,113486,114548,0.5,4 P,0,113486,114548,A
Sprite,Foreground,Centre,"sb\Naxess_3.png",224,345 C,0,113839,,147,34,221 S,30,113839,114191,0,1.5 F,2,113839,114544,1,0
Sprite,Foreground,Centre,"sb\Naxess_3.png",387,302 C,0,114192,,147,34,221 S,30,114192,114544,0,1.5 F,2,114192,114897,1,0
Sprite,Foreground,Centre,"sb\Naxess_3.png",387,302 C,0,114368,,147,34,221 S,30,114368,114720,0,1.5 F,2,114368,115073,1,0
Sprite,Foreground,Centre,"sb\Naxess_3.png",325,226 C,0,114545,,147,34,221 S,30,114545,114897,0,1.5 F,2,114545,115250,1,0
Sprite,Foreground,Centre,"sb\Naxess_3.png",392,83 C,0,114897,,147,34,221 S,30,114897,115249,0,1.5 F,2,114897,115602,1,0
Sprite,Foreground,Centre,"sb\Naxess_3.png",392,83 C,0,115074,,147,34,221 S,30,115074,115426,0,1.5 F,2,115074,115779,1,0
Sprite,Foreground,Centre,"sb\Naxess_3.png",455,156 C,0,115250,,239,104,14 S,30,115250,115602,0,1.5 F,2,115250,115955,1,0
Sprite,Foreground,Centre,"sb\Naxess_3.png",387,302 C,0,115603,,239,104,14 S,30,115603,115955,0,1.5 F,2,115603,116308,1,0
Sprite,Foreground,Centre,"sb\Naxess_3.png",387,302 C,0,115780,,239,104,14 S,30,115780,116132,0,1.5 F,2,115780,116485,1,0
Sprite,Foreground,Centre,"sb\Naxess_3.png",305,355 C,0,115956,,239,104,14 S,30,115956,116308,0,1.5 F,2,115956,116661,1,0
Sprite,Foreground,Centre,"sb\Naxess_3.png",181,274 C,0,116309,,239,104,14 S,30,116309,116661,0,1.5 F,2,116309,117014,1,0
Sprite,Foreground,Centre,"sb\Naxess_3.png",282,175 C,0,116662,,105,47,225 S,30,116662,117014,0,1.5 F,2,116662,117367,1,0
Sprite,Foreground,Centre,"sb\Naxess_3.png",130,118 C,0,117015,,105,47,225 S,30,117015,117367,0,1.5 F,2,117015,117720,1,0
Sprite,Foreground,Centre,"sb\Naxess_3.png",130,118 C,0,117192,,105,47,225 S,30,117192,117544,0,1.5 F,2,117192,117897,1,0
Sprite,Foreground,Centre,"sb\Naxess_3.png",87,205 C,0,117368,,105,47,225 S,30,117368,117720,0,1.5 F,2,117368,118073,1,0
Sprite,Foreground,Centre,"sb\Naxess_3.png",130,365 C,0,117721,,105,47,225 S,30,117721,118073,0,1.5 F,2,117721,118426,1,0
Sprite,Foreground,Centre,"sb\Naxess_3.png",130,365 C,0,117897,,105,47,225 S,30,117897,118249,0,1.5 F,2,117897,118602,1,0
Sprite,Foreground,Centre,"sb\Naxess_3.png",222,397 C,0,118074,,221,52,28 S,30,118074,118426,0,1.5 F,2,118074,118779,1,0
Sprite,Foreground,Centre,"sb\Naxess_3.png",0,334 C,0,118427,,221,52,28 MX,0,118427,,371 S,30,118427,118779,0,1.5 F,2,118427,119132,1,0 MX,0,118780,,-300
Sprite,Foreground,Centre,"sb\Naxess_3.png",0,229 C,0,118603,,221,52,28 MX,0,118603,,370 S,30,118603,118955,0,1.5 F,2,118603,119308,1,0 MX,0,118780,,-300
Sprite,Foreground,Centre,"sb\Circle.png",326,119 F,0,89133,89841,1,0 S,22,89133,89841,0,4
Sprite,Foreground,Centre,"sb\Circle.png",178,167 F,0,89486,90194,1,0 S,22,89486,90194,0,4
Sprite,Foreground,Centre,"sb\Circle.png",233,309 F,0,89839,90547,1,0 S,22,89839,90547,0,4
Sprite,Foreground,TopLeft,"sb\pixel.png",0,130 V,4,12198,12375,0,0.2,14.6,0.2 MX,0,12198,15022,100,130 F,0,15022,15199,0.5,0 MX,4,15022,15199,130,276 V,4,15022,15199,14.6,0.2,0,0.2
Sprite,Foreground,BottomLeft,"sb\MapxChorse.png",0,130 MX,0,12198,15022,125,140 V,0,12286,12375,0.5,0,0.5,0.5 F,0,14491,15022,0.5,0
//Storyboard Sound Samples

[TimingPoints]
898,352.941176470588,4,2,1,40,1,0
898,-100,4,2,1,40,0,0
12192,-100,4,2,1,50,0,0
23486,-100,4,2,1,60,0,0
44662,-100,4,2,1,70,0,0
46074,-100,4,2,1,70,0,1
68662,-100,4,2,1,70,0,0
71486,-100,4,2,1,70,0,0
74309,-100,4,2,1,70,0,0
82780,-100,4,2,1,70,0,0
85603,-100,4,2,1,70,0,0
89839,-100,4,2,1,70,0,0
90545,-100,4,2,1,70,0,0
91250,-100,4,2,1,70,0,1
99721,-100,4,2,1,70,0,1
102545,-100,4,2,1,70,0,1
113839,-100,4,2,1,70,0,0

[Colours]
Combo1 : 147,34,221
Combo2 : 239,104,14
Combo3 : 105,47,225
Combo4 : 221,52,28

[HitObjects]
71,91,898,5,0,0:0:0:0:
43,167,1074,1,0,0:0:0:0:
79,240,1250,2,0,P|128:245|181:225,1,75,0|0,0:0|0:0,0:0:0:0:
215,185,1603,2,0,L|222:86,1,75,2|0,0:0|0:0,0:0:0:0:
303,107,1956,2,0,L|309:182,1,75,2|0,0:0|0:0,0:0:0:0:
371,236,2309,5,0,0:0:0:0:
435,183,2486,1,0,0:0:0:0:
485,247,2662,2,0,P|490:283|484:320,1,75,0|0,0:0|0:0,0:0:0:0:
409,356,3015,2,0,L|310:349,1,75,2|0,0:0|0:0,0:0:0:0:
301,274,3368,2,0,L|375:268,1,75,2|0,0:0|0:0,0:0:0:0:
409,193,3721,5,0,0:0:0:0:
334,157,3897,1,0,0:0:0:0:
392,98,4074,2,0,P|428:91|465:97,1,75,0|0,0:0|0:0,0:0:0:0:
500,172,4427,2,0,L|494:246,1,75,2|0,0:0|0:0,0:0:0:0:
414,267,4780,2,0,L|408:192,1,75,2|0,0:0|0:0,0:0:0:0:
334,157,5133,5,0,0:0:0:0:
264,200,5309,1,0,0:0:0:0:
201,145,5486,2,0,P|164:138|127:144,1,75,0|0,0:0|0:0,0:0:0:0:
53,181,5839,1,0,0:0:0:0:
38,261,6015,2,0,L|40:298,2,37.5,2|2|2,0:0|0:0|0:0,0:0:0:0:
118,241,6368,1,0,0:0:0:0:
177,298,6545,6,0,P|213:304|250:298,1,75,0|0,0:0|0:0,0:0:0:0:
301,234,6897,2,0,P|337:228|374:234,1,75,0|0,0:0|0:0,0:0:0:0:
454,213,7250,2,0,P|448:176|454:139,1,75,2|0,0:0|0:0,0:0:0:0:
374,117,7603,2,0,P|337:123|301:118,1,75,2|0,0:0|0:0,0:0:0:0:
250,53,7956,6,0,P|213:47|177:54,1,75,0|0,0:0|0:0,0:0:0:0:
111,105,8309,2,0,L|105:179,1,75,0|0,0:0|0:0,0:0:0:0:
188,178,8662,2,0,L|193:252,1,75,2|0,0:0|0:0,0:0:0:0:
275,251,9015,2,0,L|269:325,1,75,2|0,0:0|0:0,0:0:0:0:
347,352,9368,6,0,P|411:349|441:328,1,75,0|0,0:0|0:0,0:0:0:0:
461,273,9721,2,0,P|426:219|393:203,1,75,0|0,0:0|0:0,0:0:0:0:
335,213,10074,2,0,P|305:269|308:306,1,75,2|0,0:0|0:0,0:0:0:0:
260,348,10427,1,2,0:0:0:0:
193,300,10603,1,0,0:0:0:0:
125,347,10780,6,0,P|61:344|31:323,1,75,0|0,0:0|0:0,0:0:0:0:
15,268,11133,2,0,P|49:214|82:198,1,75,0|0,0:0|0:0,0:0:0:0:
133,175,11486,1,0,0:0:0:0:
192,118,11662,2,0,L|189:80,2,37.5,2|2|2,0:0|0:0|0:0,0:0:0:0:
263,160,12015,1,0,0:0:0:0:
334,201,12192,6,0,P|398:198|428:177,1,75,0|0,0:0|0:0,0:0:0:0:
458,257,12545,2,0,P|428:313|431:350,1,75,0|0,0:0|0:0,0:0:0:0:
347,336,12897,2,0,P|312:282|279:266,1,75,2|0,0:0|0:0,0:0:0:0:
256,208,13250,2,0,L|256:124,1,75,2|0,0:0|0:0,0:0:0:0:
198,73,13603,6,0,P|134:70|104:49,1,75,0|0,0:0|0:0,0:0:0:0:
74,129,13956,2,0,P|103:185|100:222,1,75,0|0,0:0|0:0,0:0:0:0:
185,208,14309,2,0,P|219:154|252:138,1,75,2|0,0:0|0:0,0:0:0:0:
309,161,14662,1,2,0:0:0:0:
337,237,14839,1,0,0:0:0:0:
301,310,15015,6,0,P|252:315|199:295,1,75,0|0,0:0|0:0,0:0:0:0:
167,252,15368,2,0,L|160:153,1,75,0|0,0:0|0:0,0:0:0:0:
66,177,15721,2,0,L|60:251,1,75,2|0,0:0|0:0,0:0:0:0:
31,329,16074,1,2,0:0:0:0:
96,367,16250,1,0,0:0:0:0:
166,325,16427,6,0,P|172:288|166:251,1,75,0|0,0:0|0:0,0:0:0:0:
154,169,16780,2,0,L|228:174,1,75,0|0,0:0|0:0,0:0:0:0:
288,117,17133,1,0,0:0:0:0:
346,174,17309,2,0,L|348:211,2,37.5,2|2|2,0:0|0:0|0:0,0:0:0:0:
407,118,17662,1,0,0:0:0:0:
471,169,17839,6,0,L|465:243,1,75,0|0,0:0|0:0,0:0:0:0:
395,273,18192,2,0,L|400:347,1,75,0|0,0:0|0:0,0:0:0:0:
325,338,18545,2,0,P|276:333|223:353,1,75,2|0,0:0|0:0,0:0:0:0:
178,359,18897,1,2,0:0:0:0:
108,331,19074,1,0,0:0:0:0:
128,257,19250,6,0,P|149:226|158:190,1,75,0|0,0:0|0:0,0:0:0:0:
116,118,19603,2,0,P|78:114|43:125,1,75,0|0,0:0|0:0,0:0:0:0:
3,197,19956,2,0,P|18:231|45:256,1,75,2|0,0:0|0:0,0:0:0:0:
128,257,20309,2,0,L|202:251,1,75,2|0,0:0|0:0,0:0:0:0:
283,266,20662,6,0,P|347:269|377:290,1,75,2|0,0:0|0:0,0:0:0:0:
407,210,21015,2,0,P|377:153|380:116,1,75,0|0,0:0|0:0,0:0:0:0:
296,131,21368,2,0,P|261:184|228:200,1,75,2|0,0:0|0:0,0:0:0:0:
174,216,21721,2,0,P|110:213|80:192,1,75,0|0,0:0|0:0,0:0:0:0:
50,272,22074,6,0,P|79:328|76:365,1,75,2|0,0:0|0:0,0:0:0:0:
161,351,22427,2,0,P|195:297|228:281,1,75,0|0,0:0|0:0,0:0:0:0:
286,301,22780,2,0,L|360:295,1,75,2|0,0:0|0:0,0:0:0:0:
391,219,23133,2,0,L|316:213,1,75,2|0,0:0|0:0,0:0:0:0:
241,177,23486,6,0,P|222:148|220:92,1,75,2|0,0:1|0:0,0:0:0:0:
238,28,23839,1,8,0:0:0:0:
238,28,24015,1,0,0:0:0:0:
155,33,24192,2,0,B|108:47|52:42|52:42|56:78|44:118,1,150,0|8,0:0|0:0,0:0:0:0:
33,168,24721,1,0,0:0:0:0:
46,249,24897,6,0,B|60:292|57:313|57:313|93:276|162:260,1,150,2|8,0:1|0:0,0:0:0:0:
202,230,25427,1,0,0:0:0:0:
276,264,25603,2,0,B|311:270|347:307|347:307|344:286|358:243,1,150,0|8,0:0|0:0,0:0:0:0:
390,167,26133,1,0,0:0:0:0:
356,91,26309,6,0,P|321:70|273:66,1,75,2|0,0:1|0:0,0:0:0:0:
205,70,26662,1,8,0:0:0:0:
205,70,26839,1,0,0:0:0:0:
148,129,27015,2,0,B|136:240|136:240|174:211,1,150,0|8,0:0|0:0,0:0:0:0:
245,188,27545,1,0,0:0:0:0:
292,255,27721,6,0,P|327:276|375:280,1,75,2|0,0:1|0:0,0:0:0:0:
393,205,28074,2,0,P|358:184|310:180,1,75,8|0,0:0|0:0,0:0:0:0:
245,188,28427,2,0,B|134:200|134:200|157:169,1,150,0|8,0:0|0:0,0:0:0:0:
182,90,28956,1,0,0:0:0:0:
118,36,29133,6,0,L|43:41,1,75,2|0,0:1|0:0,0:0:0:0:
20,120,29486,2,0,L|94:114,1,75,8|0,0:0|0:0,0:0:0:0:
160,164,29839,2,0,B|174:211|169:267|169:267|205:263|245:275,1,150,0|8,0:0|0:0,0:0:0:0:
296,280,30368,1,0,0:0:0:0:
369,317,30545,6,0,P|433:308|433:223,2,150,2|8|0,0:1|0:0|0:0,0:0:0:0:
296,280,31427,1,2,0:1:0:0:
327,203,31603,1,8,0:0:0:0:
245,215,31780,1,0,0:0:0:0:
182,265,31956,6,0,P|145:258|113:238,1,75,2|0,0:1|0:0,0:0:0:0:
170,185,32309,2,0,P|141:160|123:128,1,75,8|0,0:0|0:0,0:0:0:0:
199,109,32662,2,0,P|186:73|187:36,1,75,0|2,0:0|0:1,0:0:0:0:
269,61,33015,2,0,L|343:55,1,75,8|0,0:0|0:0,0:0:0:0:
424,71,33368,6,0,B|418:100|401:117|401:117|428:168|398:232,1,150,2|8,0:1|0:0,0:0:0:0:
358,279,33897,1,0,0:0:0:0:
278,256,34074,2,0,B|167:244|167:244|190:274,1,150,0|8,0:0|0:0,0:0:0:0:
216,353,34603,1,0,0:0:0:0:
134,338,34780,6,0,L|59:332,3,75,2|0|2|0,0:1|0:0|0:1|0:0,0:0:0:0:
81,252,35486,2,0,L|155:246,3,75,2|0|2|0,0:1|0:0|0:1|0:0,0:0:0:0:
134,166,36192,6,0,L|59:160,3,75,2|0|2|0,0:1|0:0|0:1|0:0,0:0:0:0:
84,82,36897,2,0,P|120:75|157:81,1,75,2|0,0:1|0:0,0:0:0:0:
228,125,37250,2,0,P|264:130|301:124,1,75,2|0,0:1|0:0,0:0:0:0:
377,92,37603,6,0,L|451:86,3,75,2|0|8|0,0:1|0:0|0:0|0:0,0:0:0:0:
473,178,38309,2,0,L|398:172,3,75,2|0|8|0,0:1|0:1|0:0|0:0,0:0:0:0:
377,264,39015,6,0,L|451:258,3,75,2|0|8|0,0:1|0:0|0:0|0:0,0:0:0:0:
429,338,39721,2,0,P|392:344|355:338,1,75,2|0,0:1|0:0,0:0:0:0:
273,349,40074,2,0,P|236:343|199:349,1,75,8|0,0:0|0:0,0:0:0:0:
116,355,40427,5,2,0:1:0:0:
54,299,40603,1,2,0:1:0:0:
119,248,40780,2,0,P|155:241|187:221,1,75,2|2,0:1|0:1,0:0:0:0:
206,141,41133,2,0,P|223:108|252:84,1,75,2|2,0:1|0:1,0:0:0:0:
334,84,41486,2,0,P|362:108|380:140,1,75,2|2,0:1|0:1,0:0:0:0:
420,213,41839,6,0,B|416:239|418:258|418:258|360:241|312:259,1,150,2|2,0:1|0:1,0:0:0:0:
239,287,42368,1,2,0:1:0:0:
187,221,42545,2,0,B|175:110|175:110|205:133,1,150,2|2,0:1|0:1,0:0:0:0:
287,124,43074,1,2,0:1:0:0:
361,89,43250,6,0,P|361:73|358:51,3,37.5,0|0|0|0,0:0|0:0|0:0|0:0,0:0:0:0:
389,100,43603,2,0,P|394:83|397:64,3,37.5,0|0|0|0,0:0|0:0|0:0|0:0,0:0:0:0:
413,117,43956,2,0,P|422:102|429:83,3,37.5,0|0|0|0,0:0|0:0|0:0|0:0,0:0:0:0:
432,143,44309,2,0,P|443:130|456:114,3,37.5,0|0|0|0,0:0|0:0|0:0|0:0,0:0:0:0:
444,169,44662,6,0,P|448:258|401:307,1,150,2|0,0:0|0:0,0:0:0:0:
278,267,45368,2,0,P|268:194|311:134,1,150,0|0,0:0|0:0,0:0:0:0:
360,218,46074,6,0,L|322:376,2,150,6|8|0,0:1|0:0|0:0,0:0:0:0:
314,140,46956,1,2,0:1:0:0:
230,174,47133,2,0,P|172:184|142:176,1,75,10|2,0:0|0:0,0:0:0:0:
89,121,47486,6,0,B|68:81|68:81|74:138|60:209,1,150,2|10,0:1|0:0,0:0:0:0:
44,273,48015,1,2,0:0:0:0:
123,315,48192,2,0,P|192:311|243:238,1,150,0|8,0:1|0:0,0:0:0:0:
328,197,48721,1,0,0:0:0:0:
328,197,48809,1,0,0:0:0:0:
328,197,48897,6,0,B|352:199|380:181|380:181|390:252|435:293,2,150,2|10|2,0:0|0:0|0:0,0:0:0:0:
247,161,49780,1,2,0:1:0:0:
168,117,49956,2,0,P|128:108|66:122,1,75,10|0,0:0|0:0,0:0:0:0:
35,179,50309,6,0,B|-5:200|-5:200|52:194|123:208,1,150,2|8,0:1|0:0,0:0:0:0:
184,235,50839,1,0,0:0:0:0:
246,299,51015,2,0,P|296:302|338:281,1,75,2|2,0:0|0:1,0:0:0:0:
345,207,51368,2,0,P|380:197|417:201,1,75,10|0,0:0|0:0,0:0:0:0:
484,268,51721,6,0,B|472:232|472:232|483:96,1,150,2|8,0:1|0:0,0:0:0:0:
421,48,52250,1,0,0:0:0:0:
345,104,52427,2,0,P|309:113|206:33,1,150,0|8,0:0|0:0,0:0:0:0:
131,32,52956,1,0,0:0:0:0:
63,91,53133,6,0,L|57:165,1,75,2|0,0:1|0:0,0:0:0:0:
146,172,53486,2,0,L|152:246,1,75,8|0,0:0|0:0,0:0:0:0:
227,295,53839,2,0,P|265:304|323:291,1,75,0|2,0:0|0:1,0:0:0:0:
373,246,54192,1,10,0:0:0:0:
314,177,54368,1,2,0:0:0:0:
314,177,54456,1,0,0:0:0:0:
314,177,54545,6,0,B|266:174|266:174|314:135|317:62,1,150,2|8,0:1|0:0,0:0:0:0:
396,48,55074,1,0,0:0:0:0:
459,110,55250,6,0,P|465:194|421:245,2,150,0|8|2,0:0|0:0|0:1,0:0:0:0:
396,48,56133,1,0,0:0:0:0:
314,87,56309,2,0,P|276:89|240:81,1,75,8|0,0:0|0:0,0:0:0:0:
162,126,56662,2,0,P|183:156|193:192,1,75,2|2,0:0|0:0,0:0:0:0:
272,239,57015,2,0,P|288:205|313:178,1,75,10|2,0:0|0:0,0:0:0:0:
314,87,57368,6,0,P|257:86|177:30,2,150,6|8|0,0:1|0:0|0:0,0:0:0:0:
402,88,58250,1,2,0:1:0:0:
450,164,58427,2,0,L|456:238,1,75,10|2,0:0|0:0,0:0:0:0:
458,257,58692,1,0,0:0:0:0:
460,275,58780,6,0,P|387:289|318:262,1,150,2|10,0:0|0:0,0:0:0:0:
241,214,59309,1,0,0:0:0:0:
153,235,59486,2,0,P|148:198|158:162,1,75,2|2,0:0|0:1,0:0:0:0:
240,125,59839,2,0,P|269:102|305:92,1,75,10|0,0:0|0:0,0:0:0:0:
376,148,60192,6,0,P|439:186|468:253,2,150,2|8|0,0:1|0:0|0:0,0:0:0:0:
305,92,61074,1,2,0:1:0:0:
234,147,61250,2,0,L|240:221,1,75,10|2,0:0|0:0,0:0:0:0:
187,295,61603,6,0,P|114:309|45:282,1,150,2|8,0:1|0:0,0:0:0:0:
30,193,62133,1,0,0:0:0:0:
100,137,62309,2,0,L|106:63,1,75,2|2,0:0|0:1,0:0:0:0:
187,24,62662,2,0,L|261:30,1,75,8|0,0:0|0:0,0:0:0:0:
337,79,63015,6,0,B|334:127|334:127|356:189|317:249,1,150,2|8,0:1|0:0,0:0:0:0:
269,294,63545,1,0,0:0:0:0:
178,319,63721,2,0,B|150:326|118:312|118:312|97:325|97:325|62:313|4:332,2,150,0|8|2,0:0|0:0|0:1,0:0:0:0:
269,294,64603,1,0,0:0:0:0:
329,226,64780,2,0,P|375:217|428:229,1,75,8|0,0:0|0:0,0:0:0:0:
414,130,65133,2,0,P|368:139|315:127,1,75,2|2,0:0|0:1,0:0:0:0:
266,83,65486,1,10,0:0:0:0:
252,171,65662,1,0,0:0:0:0:
256,181,65750,1,0,0:0:0:0:
261,192,65839,6,0,P|249:264|200:320,1,150,2|2,0:1|0:1,0:0:0:0:
110,314,66368,1,0,0:0:0:0:
101,308,66456,1,0,0:0:0:0:
92,301,66545,2,0,P|66:232|80:159,1,150,2|2,0:1|0:1,0:0:0:0:
139,91,67074,1,2,0:0:0:0:
227,105,67250,6,0,B|246:159|216:196|216:196|249:209|274:247,1,150,2|2,0:1|0:1,0:0:0:0:
185,281,67780,1,0,0:0:0:0:
269,319,67956,2,0,B|309:314|334:282|334:282|375:320|425:313,1,150,4|4,0:3|0:3,0:0:0:0:
329,134,68662,6,0,B|319:190|330:237|330:237|307:209|262:200,1,150,2|2,0:0|0:0,0:0:0:0:
231,143,69192,1,0,0:0:0:0:
168,205,69368,2,0,P|130:214|72:201,1,75,2|0,0:0|0:0,0:0:0:0:
99,300,69721,2,0,P|137:291|195:304,1,75,0|0,0:0|0:0,0:0:0:0:
257,323,70074,5,2,0:0:0:0:
339,287,70250,1,0,0:0:0:0:
353,197,70427,2,0,L|359:123,1,75,2|0,0:0|0:0,0:0:0:0:
281,76,70780,2,0,P|243:79|207:70,1,75,2|0,0:0|0:0,0:0:0:0:
140,133,71133,2,0,P|102:129|66:138,1,75,0|0,0:0|0:0,0:0:0:0:
25,218,71486,6,0,B|64:235|108:219|108:219|137:232|137:232|157:231|181:220,1,150,2|0,0:1|0:0,0:0:0:0:
250,185,72015,1,2,0:1:0:0:
330,225,72192,2,0,P|367:218|399:198,1,75,8|0,0:0|0:0,0:0:0:0:
331,138,72545,2,0,P|360:113|378:81,1,75,0|0,0:0|0:0,0:0:0:0:
304,30,72897,6,0,L|229:35,1,75,2|0,0:1|0:0,0:0:0:0:
161,94,73250,1,0,0:0:0:0:
75,64,73427,2,0,L|73:27,2,37.5,0|2|8,0:0|0:1|0:0,0:0:0:0:
93,153,73780,1,2,0:1:0:0:
179,183,73956,2,0,L|216:185,2,37.5,0|2|8,0:0|0:1|0:0,0:0:0:0:
116,248,74309,6,0,P|132:317|220:335,1,150,2|2,0:0|0:0,0:0:0:0:
288,318,74839,1,0,0:0:0:0:
376,329,75015,2,0,B|404:338|418:349|418:349|423:236,1,150,2|0,0:0|0:0,0:0:0:0:
385,162,75545,1,0,0:0:0:0:
313,215,75721,5,2,0:0:0:0:
244,157,75897,2,0,P|207:148|170:151,1,75,0|2,0:0|0:0,0:0:0:0:
95,202,76250,2,0,P|58:210|21:207,2,75,0|2|0,0:0|0:0|0:0,0:0:0:0:
168,255,76780,2,0,L|243:260,1,75,2|2,0:0|0:0,0:0:0:0:
327,230,77133,6,0,B|332:193|356:172|356:172|321:136|333:71,1,150,2|10,0:1|0:0,0:0:0:0:
184,228,77839,2,0,B|180:193|156:172|156:172|191:136|181:95,1,150,2|10,0:1|0:0,0:0:0:0:
256,264,78545,5,2,0:1:0:0:
188,324,78721,2,0,L|151:326,2,37.5,2|2|2,0:1|0:1|0:1,0:0:0:0:
274,349,79074,1,2,0:1:0:0:
342,290,79250,2,0,L|337:215,1,75,10|2,0:0|0:1,0:0:0:0:
401,151,79603,2,0,P|421:150|438:153,3,37.5,2|2|2|2,0:1|0:1|0:1|0:1,0:0:0:0:
401,127,79956,6,0,B|371:122|334:141|334:141|292:115|238:122,1,150,6|2,0:0|0:0,0:0:0:0:
170,147,80486,1,0,0:0:0:0:
108,212,80662,2,0,B|80:221|66:232|66:232|61:119,1,150,2|0,0:0|0:0,0:0:0:0:
127,67,81192,1,0,0:0:0:0:
170,147,81368,5,2,0:0:0:0:
255,173,81545,2,0,P|291:181|328:178,1,75,0|2,0:0|0:0,0:0:0:0:
401,127,81897,2,0,P|438:123|474:132,2,75,0|2|0,0:0|0:0|0:0,0:0:0:0:
338,61,82427,2,0,L|263:56,1,75,0|0,0:0|0:0,0:0:0:0:
181,95,82780,6,0,B|191:136|156:172|156:172|180:193|184:228,1,150,2|0,0:1|0:0,0:0:0:0:
330,95,83486,2,0,B|321:136|356:172|356:172|332:193|327:228,1,150,8|0,0:0|0:0,0:0:0:0:
244,72,84192,6,0,P|243:57|228:28,3,37.5,2|0|0|0,0:1|0:0|0:0|0:0,0:0:0:0:
213,86,84545,2,0,P|199:71|177:55,3,37.5,2|0|0|2,0:0|0:0|0:0|0:1,0:0:0:0:
193,113,84897,2,0,P|177:107|146:104,3,37.5,8|0|2|0,0:0|0:0|0:1|0:0,0:0:0:0:
189,146,85250,2,0,P|171:150|144:162,3,37.5,0|2|8|0,0:0|0:1|0:0|0:0,0:0:0:0:
202,176,85603,6,0,B|181:225|202:274|202:274|184:268|184:268|208:324|191:386,1,225,2|0,0:1|0:0,0:0:0:0:
106,372,86309,2,0,L|101:297,1,75,8|2,0:0|0:1,0:0:0:0:
56,218,86662,2,0,P|41:217|12:202,3,37.5,2|2|2|2,0:0|0:0|0:0|0:0,0:0:0:0:
72,196,87015,6,0,L|77:121,1,75,2|0,0:0|0:0,0:0:0:0:
165,101,87368,2,0,P|201:109|238:106,1,75,2|0,0:0|0:0,0:0:0:0:
311,55,87721,2,0,P|348:51|384:60,1,75,2|0,0:0|0:0,0:0:0:0:
472,80,88074,2,0,L|477:155,1,75,2|2,0:0|0:0,0:0:0:0:
437,235,88427,6,0,P|400:243|363:240,1,75,2|2,0:1|0:1,0:0:0:0:
278,208,88780,1,2,0:1:0:0:
323,130,88956,1,2,0:1:0:0:
262,63,89133,2,0,B|242:56|233:63|231:69|223:51|209:55|197:62|187:58,1,75,2|2,0:0|0:0,0:0:0:0:
114,111,89486,2,0,B|107:131|114:140|120:142|102:150|106:164|113:176|109:186,1,75,2|2,0:0|0:0,0:0:0:0:
169,253,89839,5,2,0:1:0:0:
329,287,90192,1,2,0:1:0:0:
363,127,90545,1,4,0:3:0:0:
203,93,90897,1,4,0:3:0:0:
169,253,91250,6,0,B|148:293|148:293|154:236|140:165,1,150,6|2,0:1|0:1,0:0:0:0:
113,103,91780,1,2,0:0:0:0:
203,93,91956,2,0,P|239:101|276:98,1,75,2|0,0:1|0:0,0:0:0:0:
363,127,92309,2,0,P|400:123|436:132,1,75,2|2,0:1|0:0,0:0:0:0:
486,207,92662,6,0,B|495:247|460:283|460:283|484:304|488:340,1,150,2|2,0:1|0:1,0:0:0:0:
402,369,93192,1,2,0:0:0:0:
353,293,93368,2,0,L|278:288,1,75,2|0,0:1|0:0,0:0:0:0:
233,209,93721,2,0,L|308:204,1,75,2|2,0:1|0:0,0:0:0:0:
357,128,94074,5,2,0:1:0:0:
357,128,94250,1,0,0:0:0:0:
289,69,94427,2,0,P|251:65|215:74,1,75,2|2,0:1|0:0,0:0:0:0:
145,131,94780,6,0,B|155:159|143:194|143:194|156:215|156:215|142:247|149:275,2,150,2|2|2,0:1|0:1|0:1,0:0:0:0:
130,41,95662,1,0,0:0:0:0:
215,74,95839,2,0,L|290:69,1,75,2|2,0:1|0:0,0:0:0:0:
320,154,96192,2,0,L|245:149,1,75,2|2,0:1|0:0,0:0:0:0:
215,234,96545,2,0,L|290:229,1,75,2|2,0:1|0:0,0:0:0:0:
345,299,96897,6,0,P|407:287|443:189,1,150,2|2,0:1|0:1,0:0:0:0:
428,126,97427,1,2,0:0:0:0:
364,64,97603,2,0,L|289:69,1,75,2|0,0:1|0:0,0:0:0:0:
245,149,97956,2,0,L|320:154,1,75,2|2,0:1|0:0,0:0:0:0:
378,222,98309,6,0,B|342:241|342:241|198:231,1,150,2|2,0:1|0:1,0:0:0:0:
157,283,98839,1,2,0:0:0:0:
84,230,99015,2,0,P|80:192|89:156,1,75,2|0,0:1|0:0,0:0:0:0:
162,103,99368,2,0,P|198:111|235:108,1,75,2|2,0:1|0:0,0:0:0:0:
319,76,99721,6,0,B|336:67|352:38|352:38|346:103|369:166,1,150,2|2,0:1|0:1,0:0:0:0:
321,218,100250,2,0,B|304:209|288:180|288:180|294:245|271:308,1,150,2|0,0:0|0:0,0:0:0:0:
232,355,100780,1,2,0:1:0:0:
149,319,100956,1,2,0:0:0:0:
124,232,101133,6,0,B|137:197|128:148|128:148|159:178|212:185,1,150,2|2,0:1|0:1,0:0:0:0:
272,159,101662,2,0,B|297:160|328:190|328:190|319:141|332:106,1,150,2|2,0:0|0:0,0:0:0:0:
422,100,102192,2,0,L|427:175,1,75,2|2,0:1|0:0,0:0:0:0:
390,257,102545,6,0,P|320:316|246:298,1,150,6|2,0:1|0:1,0:0:0:0:
192,258,103074,1,2,0:0:0:0:
235,179,103250,2,0,P|243:142|240:105,1,75,2|0,0:1|0:0,0:0:0:0:
171,47,103603,2,0,P|133:43|97:52,1,75,2|2,0:1|0:0,0:0:0:0:
54,132,103956,6,0,B|63:172|28:208|28:208|52:229|56:265,1,150,2|2,0:1|0:1,0:0:0:0:
121,329,104486,1,2,0:0:0:0:
210,330,104662,2,0,L|285:325,1,75,2|0,0:1|0:0,0:0:0:0:
328,246,105015,2,0,L|253:241,1,75,2|2,0:1|0:0,0:0:0:0:
184,183,105368,6,0,B|173:164|153:152|153:152|270:157,1,150,2|2,0:1|0:1,0:0:0:0:
334,107,105897,1,2,0:0:0:0:
411,153,106074,2,0,P|423:208|406:250,1,75,2|0,0:1|0:0,0:0:0:0:
501,261,106427,2,0,P|489:316|506:358,1,75,2|2,0:1|0:0,0:0:0:0:
407,361,106780,6,0,B|372:370|333:358|333:358|286:344|229:362,1,150,2|2,0:1|0:1,0:0:0:0:
168,361,107309,1,2,0:0:0:0:
107,293,107486,2,0,B|115:262|101:228|101:228|110:213|110:213|97:180|109:143,1,150,2|2,0:1|0:1,0:0:0:0:
142,65,108015,1,2,0:0:0:0:
219,111,108192,6,0,P|258:125|317:118,1,75,6|2,0:1|0:1,0:0:0:0:
380,109,108545,1,2,0:1:0:0:
380,109,108721,1,2,0:1:0:0:
437,178,108897,2,0,L|442:253,1,75,2|2,0:1|0:1,0:0:0:0:
358,285,109250,2,0,L|353:210,1,75,2|2,0:1|0:1,0:0:0:0:
264,229,109603,6,0,P|225:243|166:236,1,75,6|2,0:1|0:1,0:0:0:0:
104,221,109956,1,2,0:1:0:0:
104,221,110133,1,2,0:1:0:0:
55,144,110309,2,0,P|51:106|60:70,1,75,2|2,0:1|0:1,0:0:0:0:
146,44,110662,2,0,P|182:52|219:49,1,75,2|2,0:1|0:1,0:0:0:0:
292,100,111015,6,0,P|308:100|330:97,3,37.5,4|0|0|0,3:1|3:0|3:0|3:0,0:0:0:0:
281,128,111368,2,0,P|298:133|317:136,3,37.5,0|0|0|0,3:0|3:0|3:0|3:0,0:0:0:0:
264,152,111721,2,0,P|279:161|298:168,3,37.5,4|0|0|0,3:1|3:0|3:0|3:0,0:0:0:0:
238,171,112074,2,0,P|251:182|267:195,3,37.5,0|0|0|0,3:0|3:0|3:0|3:0,0:0:0:0:
204,183,112427,6,0,P|196:169|187:148,3,37.5,4|0|0|0,3:1|3:0|3:0|3:0,0:0:0:0:
185,207,112780,2,0,P|172:194|160:179,3,37.5,4|0|0|0,3:1|3:0|3:0|3:0,0:0:0:0:
173,234,113133,2,0,P|157:225|142:212,3,37.5,4|0|0|0,3:1|3:0|3:0|3:0,0:0:0:0:
169,266,113486,2,0,P|152:260|133:252,3,37.5,4|0|0|0,3:1|3:0|3:0|3:0,0:0:0:0:
160,289,113839,6,0,P|227:289|268:278,1,75,6|0,0:1|0:0,0:0:0:0:
323,246,114192,1,2,0:1:0:0:
323,246,114368,1,2,0:1:0:0:
261,170,114545,2,0,P|256:132|259:95,1,75,6|0,0:1|0:0,0:0:0:0:
328,27,114897,1,2,0:1:0:0:
328,27,115074,1,2,0:1:0:0:
391,100,115250,6,0,P|393:137|389:174,1,75,6|0,0:1|0:0,0:0:0:0:
323,246,115603,1,2,0:1:0:0:
323,246,115780,1,2,0:1:0:0:
241,299,115956,2,0,L|155:304,1,75,6|0,0:1|0:0,0:0:0:0:
117,218,116309,2,0,L|191:214,1,75,6|0,0:1|0:0,0:0:0:0:
218,119,116662,6,0,L|143:124,1,75,6|0,0:1|0:0,0:0:0:0:
66,62,117015,1,2,0:1:0:0:
66,62,117192,1,2,0:1:0:0:
23,149,117368,2,0,P|18:186|21:223,1,75,6|0,0:1|0:0,0:0:0:0:
66,309,117721,1,2,0:1:0:0:
66,309,117897,1,2,0:1:0:0:
158,341,118074,6,0,P|225:341|266:330,1,75,6|0,0:1|0:0,0:0:0:0:
307,278,118427,1,2,0:1:0:0:
306,173,118603,1,2,0:1:0:0:
215,226,118780,1,6,0:1:0:0:
