osu file format v14

[General]
AudioFilename: audio.mp3
AudioLeadIn: 0
PreviewTime: 23397
Countdown: 0
SampleSet: Soft
StackLeniency: 0.4
Mode: 0
LetterboxInBreaks: 0
EpilepsyWarning: 1
WidescreenStoryboard: 1

[Editor]
Bookmarks: 91250,102545,108192
DistanceSpacing: 0.5
BeatDivisor: 4
GridSize: 4
TimelineZoom: 1.9

[Metadata]
Title:Der Wald (kors k Remix)
TitleUnicode:Der Wald (kors k Remix)
Artist:Eleharmonica remixed by kors k
ArtistUnicode:エレハモニカ remixed by kors k
Creator:Cheesecake
Version:mithew's Light Insane
Source:pop'n music 20 fantasia
Tags:darky1 xchorse mithew jace rlc lasse hareimu spectator ascendance popn twenty mzd taku sakakibara seiya murai kosuke saito dark opera ダークオペラ the forest
BeatmapID:1478254
BeatmapSetID:581787

[Difficulty]
HPDrainRate:4
CircleSize:4
OverallDifficulty:7.6
ApproachRate:8.5
SliderMultiplier:1.5
SliderTickRate:1

[Events]
//Background and Video events
0,0,"der wald.jpg",0,0
//Break Periods
//Storyboard Layer 0 (Background)
//Storyboard Layer 1 (Fail)
//Storyboard Layer 2 (Pass)
//Storyboard Layer 3 (Foreground)
Sprite,Foreground,Centre,"sb\Naxess_3.png",0,0 M,0,43603,,93,184 C,0,43603,,191,255,0 S,30,43603,43780,0,1 P,0,43603,45724,A F,0,44662,45724,1,0
Sprite,Foreground,Centre,"sb\Naxess_3.png",0,0 M,0,43956,,167,222 C,0,43956,,212,255,0 S,30,43956,44133,0,1 P,0,43956,45724,A F,0,44662,45724,1,0
Sprite,Foreground,Centre,"sb\Naxess_3.png",0,0 M,0,44309,,91,303 C,0,44309,,233,255,0 S,30,44309,44486,0,1 P,0,44309,45724,A F,0,44662,45724,1,0
Sprite,Foreground,Centre,"sb\Circle.png",293,229 F,0,92661,93723,1,0 S,7,92661,93723,0.5,4 P,0,92661,93723,A
Sprite,Foreground,Centre,"sb\Circle.png",217,257 F,0,94073,95135,1,0 S,7,94073,95135,0.5,4 P,0,94073,95135,A
Sprite,Foreground,Centre,"sb\Circle.png",481,416 F,0,95485,96547,1,0 S,7,95485,96547,0.5,4 P,0,95485,96547,A
Sprite,Foreground,Centre,"sb\Circle.png",259,289 F,0,96897,97959,1,0 S,7,96897,97959,0.5,4 P,0,96897,97959,A
Sprite,Foreground,Centre,"sb\Circle.png",460,385 F,0,98308,99370,1,0 S,7,98308,99370,0.5,4 P,0,98308,99370,A
Sprite,Foreground,Centre,"sb\Circle.png",462,97 F,0,99720,100782,1,0 S,7,99720,100782,0.5,4 P,0,99720,100782,A
Sprite,Foreground,Centre,"sb\Circle.png",104,203 F,0,101132,102194,1,0 S,7,101132,102194,0.5,4 P,0,101132,102194,A
Sprite,Foreground,Centre,"sb\Circle.png",402,407 F,0,102544,103606,1,0 S,7,102544,103606,0.5,4 P,0,102544,103606,A
Sprite,Foreground,Centre,"sb\Circle.png",536,195 F,0,103955,105017,1,0 S,7,103955,105017,0.5,4 P,0,103955,105017,A
Sprite,Foreground,Centre,"sb\Circle.png",233,91 F,0,105367,106429,1,0 S,7,105367,106429,0.5,4 P,0,105367,106429,A
Sprite,Foreground,Centre,"sb\Circle.png",275,414 F,0,106779,107841,1,0 S,7,106779,107841,0.5,4 P,0,106779,107841,A
Sprite,Foreground,Centre,"sb\Circle.png",509,228 F,0,108191,109253,1,0 S,7,108191,109253,0.5,4 P,0,108191,109253,A
Sprite,Foreground,Centre,"sb\Circle.png",433,371 F,0,109603,110665,1,0 S,7,109603,110665,0.5,4 P,0,109603,110665,A
Sprite,Foreground,Centre,"sb\Circle.png",142,413 F,0,111015,112077,1,0 S,7,111015,112077,0.5,4 P,0,111015,112077,A
Sprite,Foreground,Centre,"sb\Circle.png",125,252 F,0,111721,112783,1,0 S,7,111721,112783,0.5,4 P,0,111721,112783,A
Sprite,Foreground,Centre,"sb\Circle.png",320,200 F,0,112427,113489,1,0 S,7,112427,113489,0.5,4 P,0,112427,113489,A
Sprite,Foreground,Centre,"sb\Circle.png",320,169 F,0,112780,113842,1,0 S,7,112780,113842,0.5,4 P,0,112780,113842,A
Sprite,Foreground,Centre,"sb\Circle.png",320,137 F,0,113133,114195,1,0 S,7,113133,114195,0.5,4 P,0,113133,114195,A
Sprite,Foreground,Centre,"sb\Circle.png",320,106 F,0,113486,114548,1,0 S,7,113486,114548,0.5,4 P,0,113486,114548,A
Sprite,Foreground,Centre,"sb\Naxess_3.png",414,119 C,0,113839,,239,104,14 S,30,113839,114191,0,1.5 F,2,113839,114544,1,0
Sprite,Foreground,Centre,"sb\Naxess_3.png",226,119 C,0,114192,,105,47,225 S,30,114192,114544,0,1.5 F,2,114192,114897,1,0
Sprite,Foreground,Centre,"sb\Naxess_3.png",226,119 C,0,114368,,105,47,225 S,30,114368,114720,0,1.5 F,2,114368,115073,1,0
Sprite,Foreground,Centre,"sb\Naxess_3.png",201,217 C,0,114545,,105,47,225 S,30,114545,114897,0,1.5 F,2,114545,115250,1,0
Sprite,Foreground,Centre,"sb\Naxess_3.png",414,119 C,0,114897,,221,52,28 S,30,114897,115249,0,1.5 F,2,114897,115602,1,0
Sprite,Foreground,Centre,"sb\Naxess_3.png",414,119 C,0,115074,,221,52,28 S,30,115074,115426,0,1.5 F,2,115074,115779,1,0
Sprite,Foreground,Centre,"sb\Naxess_3.png",439,217 C,0,115250,,221,52,28 S,30,115250,115602,0,1.5 F,2,115250,115955,1,0
Sprite,Foreground,Centre,"sb\Naxess_3.png",320,59 C,0,115603,,221,52,28 S,30,115603,115955,0,1.5 F,2,115603,116308,1,0
Sprite,Foreground,Centre,"sb\Naxess_3.png",320,59 C,0,115780,,221,52,28 S,30,115780,116132,0,1.5 F,2,115780,116485,1,0
Sprite,Foreground,Centre,"sb\Naxess_3.png",320,59 C,0,115956,,147,34,221 S,30,115956,116308,0,1.5 F,2,115956,116661,1,0
Sprite,Foreground,Centre,"sb\Naxess_3.png",320,248 C,0,116309,,147,34,221 S,30,116309,116661,0,1.5 F,2,116309,117014,1,0
Sprite,Foreground,Centre,"sb\Naxess_3.png",226,377 C,0,116662,,239,104,14 S,30,116662,117014,0,1.5 F,2,116662,117367,1,0
Sprite,Foreground,Centre,"sb\Naxess_3.png",414,377 C,0,117015,,105,47,225 S,30,117015,117367,0,1.5 F,2,117015,117720,1,0
Sprite,Foreground,Centre,"sb\Naxess_3.png",414,377 C,0,117192,,105,47,225 S,30,117192,117544,0,1.5 F,2,117192,117897,1,0
Sprite,Foreground,Centre,"sb\Naxess_3.png",439,279 C,0,117368,,105,47,225 S,30,117368,117720,0,1.5 F,2,117368,118073,1,0
Sprite,Foreground,Centre,"sb\Naxess_3.png",226,377 C,0,117721,,221,52,28 S,30,117721,118073,0,1.5 F,2,117721,118426,1,0
Sprite,Foreground,Centre,"sb\Naxess_3.png",226,377 C,0,117897,,221,52,28 S,30,117897,118249,0,1.5 F,2,117897,118602,1,0
Sprite,Foreground,Centre,"sb\Naxess_3.png",201,279 C,0,118074,,221,52,28 S,30,118074,118426,0,1.5 F,2,118074,118779,1,0
Sprite,Foreground,Centre,"sb\Naxess_3.png",0,152 C,0,118427,,147,34,221 MX,0,118427,,320 S,30,118427,118779,0,1.5 F,2,118427,119132,1,0 MX,0,118780,,-300
Sprite,Foreground,Centre,"sb\Naxess_3.png",0,248 C,0,118603,,147,34,221 MX,0,118603,,320 S,30,118603,118955,0,1.5 F,2,118603,119308,1,0 MX,0,118780,,-300
Sprite,Foreground,Centre,"sb\Circle.png",121,241 F,0,89133,89841,1,0 S,22,89133,89841,0,4
Sprite,Foreground,Centre,"sb\Circle.png",208,193 F,0,89486,90194,1,0 S,22,89486,90194,0,4
Sprite,Foreground,Centre,"sb\Circle.png",219,284 F,0,89839,90547,1,0 S,22,89839,90547,0,4
Sprite,Foreground,Centre,"sb\Circle.png",320,248 F,0,89927,90635,1,0 S,22,89927,90635,0,4
Sprite,Foreground,TopLeft,"sb\pixel.png",0,130 V,4,12198,12375,0,0.2,14.2,0.2 MX,0,12198,15022,100,130 F,0,15022,15199,0.5,0 MX,4,15022,15199,130,272 V,4,15022,15199,14.2,0.2,0,0.2
Sprite,Foreground,BottomLeft,"sb\Mapmithew.png",0,130 MX,0,12198,15022,125,140 V,0,12286,12375,0.5,0,0.5,0.5 F,0,14491,15022,0.5,0
//Storyboard Sound Samples

[TimingPoints]
898,352.941176470588,4,2,2,40,1,0
898,-133.333333333333,4,2,2,40,0,0
9368,-125,4,2,2,50,0,0
15015,-133.333333333333,4,2,2,50,0,0
23486,-100,4,2,2,60,0,0
46074,-80,4,2,2,70,0,1
68662,-100,4,2,2,70,0,0
72192,-133.333333333333,4,2,2,70,0,0
72897,-166.666666666667,4,2,2,70,0,0
73780,-117.647058823529,4,2,2,70,0,0
74309,-100,4,2,2,70,0,0
77133,-76.9230769230769,4,2,2,70,0,0
79956,-100,4,2,2,70,0,0
82780,-86.9565217391304,4,2,2,70,0,0
83486,-100,4,2,2,70,0,0
84192,-76.9230769230769,4,2,2,70,0,0
85603,-66.6666666666667,4,2,2,70,0,0
87015,-100,4,2,2,70,0,0
91074,-100,4,2,2,5,0,0
91250,-80,4,2,2,70,0,1
113486,-100,4,2,2,70,0,1
113839,-80,4,2,2,70,0,0

[Colours]
Combo1 : 147,34,221
Combo2 : 239,104,14
Combo3 : 105,47,225
Combo4 : 221,52,28

[HitObjects]
508,283,898,5,4,3:2:0:0:
456,230,1074,1,0,0:0:0:0:
382,232,1250,2,0,P|356:242|334:261,1,56.2500021457673,0|0,0:0|0:0,0:0:0:0:
301,384,1603,2,0,P|311:358|313:330,1,56.2500021457673,0|0,1:0|0:0,0:0:0:0:
224,239,1956,2,0,P|241:261|264:276,1,56.2500021457673,0|0,3:0|0:0,0:0:0:0:
456,229,2309,6,0,P|478:212|493:189,1,56.2500021457673,0|0,3:0|0:0,0:0:0:0:
381,232,2662,2,0,P|385:259|398:284,1,56.2500021457673,0|0,3:0|0:0,0:0:0:0:
418,166,3015,2,0,P|422:139|417:111,1,56.2500021457673,0|0,1:0|0:0,0:0:0:0:
398,39,3368,1,0,3:0:0:0:
398,39,3721,6,0,B|334:28|357:64|271:33,1,112.500004291535,0|0,3:0|0:0,0:0:0:0:
214,33,4250,1,0,0:0:0:0:
141,40,4427,2,0,P|117:54|97:85,1,56.2500021457673,0|0,1:0|0:0,0:0:0:0:
132,194,4780,2,0,P|138:167|134:139,2,56.2500021457673,0|0|0,0:0|0:0|3:0,0:0:0:0:
63,219,5309,1,0,0:0:0:0:
63,219,5486,2,0,P|59:246|65:274,1,56.2500021457673,0|0,3:0|0:0,0:0:0:0:
88,343,5839,1,0,1:0:0:0:
155,301,6015,1,0,0:0:0:0:
155,301,6103,1,0,0:0:0:0:
155,301,6192,1,0,1:0:0:0:
210,352,6368,1,0,0:0:0:0:
290,353,6545,6,0,B|288:320|270:300|270:300|289:275|297:233,1,112.500004291535,4|0,3:2|0:0,0:0:0:0:
309,179,7074,1,0,0:0:0:0:
308,106,7250,2,0,L|305:39,1,56.2500021457673,0|0,1:0|0:0,0:0:0:0:
374,3,7603,2,0,L|377:60,1,56.2500021457673,0|0,0:0|0:0,0:0:0:0:
456,113,7956,6,0,P|418:125|400:159,1,56.2500021457673,0|0,3:0|0:0,0:0:0:0:
391,259,8309,2,0,P|407:236|409:209,1,56.2500021457673,0|0,3:0|0:0,0:0:0:0:
310,132,8662,2,0,P|321:157|345:172,1,56.2500021457673,0|0,1:0|0:0,0:0:0:0:
305,49,9015,1,0,3:0:0:0:
225,117,9192,1,0,0:0:0:0:
305,49,9368,6,0,B|215:37|215:37|245:14,1,120,0|0,3:0|0:0,0:0:0:0:
381,29,9897,1,0,0:0:0:0:
381,29,10074,2,0,L|376:96,1,60,0|0,1:0|0:0,0:0:0:0:
372,166,10427,1,0,0:0:0:0:
307,124,10603,1,0,3:0:0:0:
303,201,10780,2,0,P|310:241|294:283,2,60,0|0|0,3:0|0:0|3:0,0:0:0:0:
238,159,11309,1,0,0:0:0:0:
303,333,11486,5,8,0:0:0:0:
196,308,11662,1,8,0:0:0:0:
196,308,11750,1,8,0:0:0:0:
196,308,11839,1,8,0:0:0:0:
305,258,12015,1,8,0:0:0:0:
156,233,12192,6,0,P|113:283|130:349,2,120,4|0|8,3:2|0:0|0:0,0:0:0:0:
224,205,13074,1,0,0:0:0:0:
207,129,13250,2,0,L|213:58,1,60,0|0,1:0|0:0,0:0:0:0:
346,20,13603,2,0,L|340:97,1,60,0|0,1:0|0:0,0:0:0:0:
412,165,13956,2,0,L|416:105,1,60,0|0,1:0|0:0,0:0:0:0:
333,180,14309,2,0,L|327:257,1,60,8|0,0:0|0:0,0:0:0:0:
323,317,14662,1,0,3:0:0:0:
411,248,14839,1,0,0:0:0:0:
255,273,15015,6,0,L|128:294,2,112.500004291535,0|0|8,3:0|0:0|0:0,0:0:0:0:
323,317,15897,1,0,0:0:0:0:
328,239,16074,2,0,L|333:180,1,56.2500021457673,0|0,0:0|0:0,0:0:0:0:
340,90,16427,1,0,3:0:0:0:
340,90,16603,1,0,0:0:0:0:
258,128,16780,1,0,3:0:0:0:
258,128,16956,1,0,0:0:0:0:
176,90,17133,1,0,1:0:0:0:
258,52,17309,1,0,0:0:0:0:
258,52,17397,1,0,0:0:0:0:
258,52,17486,1,0,1:0:0:0:
340,90,17662,1,0,0:0:0:0:
176,90,17839,6,0,B|190:158|154:142|179:216,1,112.500004291535,4|0,3:2|0:0,0:0:0:0:
174,286,18368,1,0,0:0:0:0:
132,352,18545,2,0,P|188:333|245:357,2,112.500004291535,0|0|0,1:0|0:0|3:0,0:0:0:0:
55,335,19427,1,0,0:0:0:0:
55,335,19603,2,0,P|55:291|64:271,1,56.2500021457673,0|0,3:0|0:0,0:0:0:0:
102,210,19956,2,0,P|133:178|214:166,2,112.500004291535,0|0|0,1:0|3:0|3:0,0:0:0:0:
43,157,20839,5,0,0:0:0:0:
43,157,21015,2,0,L|50:87,1,56.2500021457673,0|0,0:0|0:0,0:0:0:0:
110,49,21368,2,0,L|164:4,1,56.2500021457673,0|0,1:0|0:0,0:0:0:0:
234,20,21721,2,0,L|304:27,1,56.2500021457673,0|0,3:0|0:0,0:0:0:0:
499,108,22074,6,0,P|465:105|429:114,1,56.2500021457673,0|0,3:0|0:0,0:0:0:0:
389,260,22427,2,0,P|415:238|434:206,1,56.2500021457673,0|0,3:0|0:0,0:0:0:0:
311,103,22780,2,0,P|325:133|351:160,1,56.2500021457673
499,108,23133,2,0,P|465:105|429:114,1,56.2500021457673
303,238,23486,6,0,B|309:305|283:286|299:360,1,112.5,4|0,1:0|0:0,0:0:0:0:
283,353,23839,2,0,L|180:348,1,75,8|2,0:0|0:2,0:0:0:0:
35,242,24192,1,2,0:2:0:0:
37,340,24368,1,2,1:2:0:0:
121,288,24545,2,0,P|133:239|85:166,1,112.5,8|0,0:0|0:0,0:0:0:0:
83,166,24897,6,0,L|92:73,1,75,0|0,1:0|0:0,0:0:0:0:
191,16,25250,2,0,L|184:91,1,75,8|2,0:0|0:2,0:0:0:0:
244,198,25603,2,0,P|186:165|88:205,1,150,2|8,0:2|0:0,0:0:0:0:
60,245,26133,1,0,0:0:0:0:
237,272,26309,6,0,L|244:188,2,75,0|0|8,1:0|0:0|0:0,0:0:0:0:
239,366,26839,1,2,0:2:0:0:
239,366,26927,1,0,0:0:0:0:
239,366,27015,2,0,L|404:375,1,150,2|8,0:2|0:0,0:0:0:0:
483,380,27545,1,0,0:0:0:0:
325,268,27721,6,0,L|332:111,1,150,0|8,1:0|0:0,0:0:0:0:
337,29,28250,1,2,0:2:0:0:
498,78,28427,2,0,L|493:181,1,75,2|2,0:2|1:2,0:0:0:0:
494,152,28692,1,0,0:0:0:0:
494,152,28780,1,8,0:0:0:0:
415,99,28956,1,0,0:0:0:0:
468,276,29133,6,0,P|515:226|488:148,1,150,0|8,1:0|0:0,0:0:0:0:
415,99,29662,1,2,0:2:0:0:
324,123,29839,2,0,L|249:118,2,75,2|2|8,0:2|1:2|0:0,0:0:0:0:
192,46,30368,1,0,0:0:0:0:
192,46,30545,6,0,P|157:107|183:186,1,150,0|8,1:0|0:0,0:0:0:0:
256,240,31074,1,2,0:2:0:0:
173,284,31250,2,0,L|23:290,1,150,2|8,0:2|0:0,0:0:0:0:
256,240,31956,5,0,1:0:0:0:
256,240,32133,1,0,0:0:0:0:
256,336,32309,1,8,0:0:0:0:
256,336,32486,1,2,0:2:0:0:
344,282,32662,2,0,L|500:289,1,150,2|8,0:2|0:0,0:0:0:0:
424,199,33192,1,0,0:0:0:0:
424,199,33368,2,0,L|427:100,1,75,0|0,1:0|0:0,0:0:0:0:
338,28,33721,1,8,1:0:0:0:
431,35,33897,1,2,0:2:0:0:
333,177,34074,2,0,L|338:28,1,150,2|8,0:2|0:0,0:0:0:0:
430,274,34780,6,0,L|529:283,1,75,0|0,1:0|0:0,0:0:0:0:
370,349,35133,2,0,L|271:358,1,75,0|2,1:0|0:2,0:0:0:0:
465,364,35486,1,2,1:2:0:0:
465,364,35574,1,0,0:0:0:0:
465,364,35662,1,0,0:0:0:0:
335,259,35839,1,2,1:2:0:0:
82,274,36192,6,0,L|-17:283,1,75,0|0,1:0|0:0,0:0:0:0:
142,349,36545,2,0,L|241:358,1,75,2|2,1:2|0:2,0:0:0:0:
47,364,36897,1,2,1:2:0:0:
47,364,36986,1,0,0:0:0:0:
47,364,37074,1,0,0:0:0:0:
177,259,37250,1,2,1:2:0:0:
82,110,37603,6,0,L|-17:101,1,75,0|2,1:0|0:2,0:0:0:0:
142,35,37956,2,0,L|241:26,1,75,0|2,1:2|0:2,0:0:0:0:
106,197,38309,2,0,L|7:188,1,75,2|0,1:2|0:0,0:0:0:0:
166,122,38662,1,2,1:2:0:0:
328,106,39015,6,0,L|321:11,1,75,0|2,1:0|0:2,0:0:0:0:
415,157,39368,2,0,L|422:62,1,75,0|2,1:0|0:2,0:0:0:0:
336,189,39721,2,0,L|347:338,1,150,2|2,1:2|1:2,0:0:0:0:
73,317,40427,5,0,1:0:0:0:
73,317,40603,1,0,1:0:0:0:
164,334,40780,2,0,L|242:348,1,75,0|0,1:0|1:0,0:0:0:0:
134,247,41133,1,0,1:0:0:0:
134,247,41221,1,0,1:0:0:0:
134,247,41309,1,0,1:0:0:0:
64,186,41486,1,0,1:0:0:0:
64,186,41662,1,0,1:0:0:0:
298,216,41839,5,0,1:0:0:0:
298,216,42015,1,0,1:0:0:0:
207,233,42192,2,0,L|129:247,1,75,0|0,1:0|1:0,0:0:0:0:
237,146,42545,1,0,1:0:0:0:
237,146,42633,1,0,1:0:0:0:
237,146,42721,1,0,1:0:0:0:
307,85,42897,1,0,1:0:0:0:
307,85,43074,1,0,1:0:0:0:
105,47,43250,6,0,L|93:109,3,37.5,0|0|0|0,1:0|1:0|1:0|1:0,0:0:0:0:
29,128,43603,2,0,L|17:65,3,37.5,0|0|0|0,1:0|1:0|1:0|1:0,0:0:0:0:
103,166,43956,2,0,L|91:228,3,37.5,0|0|0|0,1:0|1:0|1:0|1:0,0:0:0:0:
27,247,44309,2,0,L|15:184,3,37.5,0|0|0|0,1:0|1:0|1:0|1:0,0:0:0:0:
46,326,44662,5,2,1:1:0:0:
256,192,44750,12,0,45897,0:0:0:0:
412,358,46074,6,0,L|416:312,3,46.875,4|0|0|0,1:0|0:0|0:2|0:2,0:0:0:0:
389,272,46427,2,0,L|393:226,3,46.875,8|0|0|0,0:0|0:0|0:2|0:0,0:0:0:0:
366,186,46780,2,0,L|370:140,3,46.875,0|0|0|0,0:0|0:0|1:2|0:2,0:0:0:0:
370,116,47133,5,10,0:0:0:0:
362,94,47221,1,0,0:0:0:0:
346,77,47309,1,2,0:2:0:0:
324,68,47397,1,0,0:0:0:0:
301,69,47486,2,0,P|273:79|249:108,3,46.875,0|0|0|0,1:0|0:0|0:2|0:2,0:0:0:0:
242,105,47839,1,10,0:0:0:0:
221,115,47927,1,0,0:0:0:0:
197,117,48015,1,2,0:2:0:0:
174,113,48103,1,0,0:0:0:0:
154,103,48192,2,0,L|94:107,3,46.875,0|0|0|0,0:0|0:0|1:2|0:2,0:0:0:0:
85,148,48545,2,0,L|25:152,3,46.875,8|0|0|0,0:0|0:0|0:2|0:0,0:0:0:0:
133,219,48897,6,0,P|126:241|127:264,3,46.875,2|2|2|2,1:2|0:0|0:2|0:2,0:0:0:0:
150,305,49250,2,0,P|161:325|178:341,3,46.875,10|2|2|2,0:0|0:0|0:2|0:0,0:0:0:0:
222,353,49603,2,0,P|244:359|267:358,3,46.875,2|2|2|2,0:0|0:0|1:2|0:2,0:0:0:0:
289,351,49956,5,8,0:0:0:0:
308,337,50045,1,0,0:0:0:0:
322,318,50133,1,2,0:2:0:0:
329,296,50221,1,0,0:0:0:0:
329,273,50309,2,0,P|330:231|343:206,3,46.875,0|0|0|0,1:0|0:0|0:2|0:2,0:0:0:0:
412,264,50662,2,0,P|410:305|398:331,3,46.875,10|0|0|0,0:0|0:0|0:2|0:0,0:0:0:0:
411,333,51015,1,2,0:0:0:0:
425,351,51103,1,0,0:0:0:0:
447,359,51192,1,0,1:2:0:0:
469,356,51280,1,0,0:2:0:0:
487,341,51368,2,0,L|493:236,1,93.75,10|0,0:0|0:2,0:0:0:0:
483,79,51721,5,4,1:0:0:0:
464,65,51809,1,0,0:0:0:0:
442,56,51897,1,0,0:2:0:0:
419,54,51986,1,0,0:2:0:0:
396,58,52074,1,8,0:0:0:0:
375,68,52162,1,0,0:0:0:0:
358,84,52250,2,0,P|348:117|351:141,1,46.875,2|0,0:2|0:0,0:0:0:0:
342,238,52427,2,0,L|340:295,3,46.875,2|0|0|0,0:0|0:0|1:2|0:0,0:0:0:0:
300,310,52780,2,0,L|298:367,3,46.875,8|0|0|0,0:0|0:0|0:2|0:0,0:0:0:0:
215,268,53133,6,0,P|208:246|209:223,3,46.875,2|2|2|2,1:2|0:0|0:2|0:2,0:0:0:0:
232,182,53486,2,0,P|243:162|260:146,3,46.875,10|2|2|2,0:0|0:0|0:2|0:0,0:0:0:0:
304,134,53839,2,0,P|326:128|349:129,3,46.875,2|2|2|2,0:0|0:0|1:2|0:0,0:0:0:0:
372,133,54192,1,8,0:0:0:0:
394,126,54280,1,0,0:0:0:0:
411,109,54368,1,0,0:2:0:0:
418,87,54456,1,0,0:0:0:0:
415,65,54545,6,0,P|410:36|388:7,3,46.875,2|0|2|0,1:2|0:0|0:2|0:2,0:0:0:0:
316,89,54897,2,0,P|305:109|303:133,3,46.875,10|0|0|0,0:0|0:0|0:2|0:0,0:0:0:0:
304,156,55250,1,2,0:0:0:0:
298,178,55339,1,0,0:0:0:0:
285,197,55427,1,0,1:2:0:0:
265,211,55515,1,0,0:2:0:0:
243,217,55603,1,8,0:0:0:0:
220,215,55692,1,0,0:0:0:0:
199,205,55780,1,0,0:2:0:0:
182,189,55868,1,0,0:0:0:0:
172,168,55956,6,0,L|172:102,3,46.875,0|0|0|0,1:0|0:0|0:2|0:2,0:0:0:0:
145,82,56309,2,0,L|145:16,3,46.875,8|0|0|0,0:0|0:0|0:2|0:0,0:0:0:0:
129,17,56662,1,2,0:0:0:0:
108,8,56750,1,0,0:0:0:0:
84,9,56839,1,0,1:2:0:0:
64,20,56927,1,0,0:2:0:0:
50,38,57015,2,0,L|46:149,1,93.75,10|0,0:0|0:2,0:0:0:0:
172,121,57368,6,0,L|176:167,3,46.875,4|0|0|0,1:0|0:0|0:2|0:2,0:0:0:0:
149,207,57721,2,0,L|153:253,3,46.875,8|0|0|0,0:0|0:0|0:2|0:0,0:0:0:0:
126,293,58074,2,0,L|130:339,3,46.875,0|0|0|0,0:2|0:0|1:2|0:2,0:0:0:0:
116,357,58427,5,10,0:0:0:0:
95,367,58515,1,0,0:0:0:0:
72,365,58603,1,2,0:2:0:0:
53,353,58692,1,0,0:0:0:0:
42,332,58780,2,0,P|37:297|45:273,3,46.875,0|0|0|0,1:0|0:0|0:2|0:2,0:0:0:0:
51,266,59133,1,10,0:0:0:0:
59,244,59221,1,0,0:0:0:0:
61,219,59309,1,2,0:2:0:0:
57,197,59397,1,0,0:0:0:0:
49,175,59486,2,0,P|48:145|61:109,3,46.875,0|0|0|0,0:0|0:0|1:2|0:0,0:0:0:0:
79,90,59839,2,0,P|99:68|134:51,3,46.875,8|0|0|0,0:0|0:0|0:2|0:0,0:0:0:0:
133,47,60192,5,0,1:0:0:0:
156,43,60280,1,0,0:0:0:0:
179,47,60368,1,0,0:2:0:0:
199,59,60456,1,0,0:2:0:0:
213,76,60545,2,0,P|235:87|258:89,3,46.875,8|0|0|0,0:0|0:0|0:2|0:0,0:0:0:0:
302,75,60897,2,0,P|325:67|342:52,3,46.875,0|0|0|0,0:0|0:0|1:2|0:2,0:0:0:0:
361,40,61250,5,10,0:0:0:0:
384,35,61339,1,0,0:0:0:0:
407,39,61427,1,2,0:2:0:0:
427,50,61515,1,0,0:0:0:0:
442,68,61603,2,0,L|442:141,3,46.875,0|0|0|0,1:0|0:0|0:2|0:2,0:0:0:0:
371,150,61956,2,0,L|371:196,3,46.875,10|0|0|0,0:0|0:0|0:2|0:0,0:0:0:0:
371,219,62309,1,2,0:0:0:0:
371,242,62397,1,0,0:0:0:0:
371,266,62486,1,0,1:2:0:0:
371,289,62574,1,0,0:2:0:0:
371,313,62662,2,2,L|277:323,1,93.75,10|2,0:0|0:2,0:0:0:0:
107,372,63015,5,4,1:0:0:0:
91,354,63103,1,0,0:0:0:0:
83,332,63192,1,0,0:2:0:0:
82,309,63280,1,0,0:0:0:0:
89,287,63368,1,8,0:0:0:0:
103,268,63456,1,0,0:0:0:0:
122,255,63545,2,0,L|197:251,1,46.875,2|0,0:2|0:0,0:0:0:0:
266,244,63721,6,0,P|284:230|295:208,3,46.875,2|0|0|0,0:0|0:0|1:2|0:0,0:0:0:0:
244,149,64074,2,0,P|246:126|239:103,3,46.875,8|0|0|0,0:0|0:0|0:2|0:0,0:0:0:0:
161,97,64427,2,0,P|147:79|125:67,3,46.875,0|0|0|0,1:0|0:0|0:2|0:0,0:0:0:0:
65,118,64780,2,0,P|42:115|19:122,3,46.875,8|0|0|0,0:0|0:0|0:2|0:0,0:0:0:0:
125,185,65133,5,2,0:0:0:0:
124,208,65221,1,0,0:0:0:0:
123,232,65309,1,0,1:2:0:0:
122,255,65397,1,0,0:0:0:0:
121,279,65486,2,0,L|119:325,3,46.875,10|0|0|0,0:0|0:0|0:2|0:0,0:0:0:0:
124,348,65839,5,0,1:0:0:0:
138,367,65927,1,0,0:0:0:0:
158,378,66015,1,0,0:2:0:0:
182,381,66103,1,0,0:2:0:0:
204,375,66192,1,8,1:0:0:0:
222,360,66280,1,0,0:0:0:0:
232,339,66368,1,0,0:2:0:0:
245,320,66456,1,0,0:0:0:0:
266,308,66545,6,0,P|299:297|331:310,3,46.875,0|0|0|0,1:0|0:0|0:2|0:2,0:0:0:0:
355,311,66897,2,0,P|386:326|399:358,3,46.875,8|0|0|0,1:0|0:0|0:2|0:0,0:0:0:0:
256,192,67250,12,4,68309,3:3:0:0:
75,51,68662,6,0,P|92:97|82:145,1,100,2|2,3:2|3:2,3:3:0:0:
54,178,69015,2,0,P|45:206|49:243,2,50,2|2|2,3:2|3:2|3:2,0:0:0:0:
111,278,69368,2,0,P|118:254|119:229,2,50,10|0|0,3:2|0:0|0:0,0:0:0:0:
27,320,69721,2,0,P|84:313|135:342,1,100,0|0,3:0|0:0,0:0:0:0:
208,301,70074,6,0,L|203:351,2,50,2|2|2,3:2|3:2|3:2,3:3:0:0:
219,222,70427,2,0,P|230:190|250:173,2,50,2|2|2,3:2|3:2|3:2,0:0:0:0:
294,253,70780,2,0,P|324:238|350:240,2,50,10|0|0,3:2|0:0|0:0,0:0:0:0:
317,337,71133,2,0,L|395:340,1,75,0|0,3:0|1:0,0:0:0:0:
512,346,71486,5,0,1:0:0:0:
512,346,71839,1,0,3:0:0:0:
391,339,72015,1,0,1:0:0:0:
490,258,72192,6,0,L|496:133,1,112.500004291535,8|0,0:0|1:0,0:0:0:0:
501,66,72721,1,0,3:0:0:0:
406,214,72897,6,0,B|330:191|343:232|261:203,1,134.999995880127,0|2,1:0|1:2,0:0:0:0:
273,206,73515,1,0,1:0:0:0:
273,206,73603,1,8,1:2:0:0:
425,101,73780,2,0,P|391:153|405:213,1,127.50000243187,0|0,1:0|1:0,0:0:0:0:
435,281,74309,6,0,P|442:309|433:360,2,50,2|2|2,3:2|3:2|3:2,3:3:0:0:
358,318,74662,2,0,P|337:338|288:355,2,50,2|2|2,3:2|3:2|3:2,0:0:0:0:
287,269,75015,2,0,P|259:261|219:227,2,50,10|0|0,3:2|0:0|0:0,0:0:0:0:
233,346,75368,2,0,L|97:343,1,100,0|0,3:0|0:0,0:0:0:0:
62,291,75721,6,0,L|58:341,2,50,2|2|2,3:2|3:2|3:2,3:3:0:0:
72,213,76074,2,0,P|57:176|32:158,2,50,2|2|2,3:2|3:2|3:2,0:0:0:0:
152,174,76427,2,0,L|226:171,1,75,10|0,3:2|1:0,0:0:0:0:
226,171,76692,1,0,0:0:0:0:
226,171,76780,1,0,3:0:0:0:
353,166,76956,1,0,1:0:0:0:
168,51,77133,6,0,B|143:96|143:96|152:174|152:174|170:107,1,194.999991073609,0|2,3:1|0:3,0:0:0:0:
65,186,77662,1,2,1:2:0:0:
210,294,77839,2,0,B|235:249|235:249|226:171|226:171|209:233,1,194.999991073609,0|2,3:1|1:3,0:0:0:0:
313,159,78368,1,2,0:2:0:0:
325,286,78545,5,0,1:0:0:0:
216,241,78721,1,0,1:0:0:0:
216,241,78809,1,0,1:0:0:0:
216,241,78897,2,0,L|109:245,1,97.4999955368044,2|0,1:0|1:0,0:0:0:0:
39,249,79250,2,0,L|39:305,1,48.7499977684022,10|0,1:0|0:0,0:0:0:0:
119,368,79427,2,0,L|119:319,1,48.7499977684022,0|0,1:0|0:0,0:0:0:0:
118,211,79603,1,10,1:0:0:0:
118,198,79692,1,0,1:0:0:0:
118,186,79780,1,0,1:0:0:0:
118,174,79868,1,0,1:0:0:0:
119,161,79956,6,0,L|120:86,2,50,2|2|2,3:2|3:2|3:2,3:3:0:0:
204,220,80309,2,0,L|205:295,2,50,2|2|2,3:2|3:2|3:2,0:0:0:0:
345,136,80662,2,0,L|402:122,2,50,10|2|2,3:2|3:2|3:2,0:0:0:0:
289,192,81015,2,0,L|289:299,1,100,0|0,3:0|0:0,0:0:0:0:
362,345,81368,6,0,P|387:343|411:350,2,50,2|2|2,3:2|3:2|3:2,3:3:0:0:
453,279,81721,2,0,P|471:295|483:317,2,50,2|2|2,3:2|3:2|3:2,0:0:0:0:
423,191,82074,5,10,3:2:0:0:
424,178,82162,1,0,0:0:0:0:
425,166,82250,1,0,0:0:0:0:
426,153,82339,1,0,0:0:0:0:
427,140,82427,1,0,3:0:0:0:
434,61,82603,1,0,1:0:0:0:
341,153,82780,6,0,P|291:127|284:182,1,129.375002467632,0|0,1:0|0:0,0:0:0:0:
291,223,83133,2,0,P|283:277|234:252,1,129.375002467632,0|0,3:0|0:0,0:0:0:0:
201,213,83486,2,0,B|120:195|137:236|47:206,1,150,8|0,0:0|1:0,0:0:0:0:
102,124,84015,1,0,3:0:0:0:
86,331,84192,6,0,P|164:361|163:278,1,194.999991073609,4|8,1:3|0:3,0:0:0:0:
56,163,84721,1,0,2:0:0:0:
56,163,84809,1,0,1:0:0:0:
57,163,84897,2,0,B|12:181|12:181|53:208,1,97.4999955368044,8|0,1:2|1:0,0:0:0:0:
171,286,85250,1,4,0:3:0:0:
171,286,85339,1,0,1:0:0:0:
171,286,85427,1,0,1:0:0:0:
218,145,85603,6,2,B|247:145|264:132|264:132|368:179|300:267|197:224|264:132|264:132|281:136|312:120,1,337.500012874604,6|0,1:1|0:1,1:0:0:0:
310,120,86221,1,0,0:0:0:0:
310,120,86309,1,4,0:2:0:0:
244,45,86486,1,0,1:0:0:0:
397,38,86662,1,2,3:0:0:0:
395,52,86750,1,2,3:0:0:0:
394,66,86839,1,2,3:0:0:0:
393,80,86927,1,2,3:0:0:0:
392,94,87015,6,0,P|390:117|410:152,2,50,2|2|2,3:2|3:2|3:2,3:3:0:0:
334,194,87368,2,0,P|350:211|389:221,2,50,2|2|2,3:2|3:2|3:2,0:0:0:0:
242,218,87721,2,0,L|237:292,1,75,10|0,3:2|1:0,0:0:0:0:
237,292,87986,1,0,0:0:0:0:
237,292,88074,1,0,0:0:0:0:
231,383,88250,1,0,1:0:0:0:
68,384,88427,5,2,3:0:0:0:
155,332,88603,1,2,3:0:0:0:
68,280,88780,1,2,3:0:0:0:
155,228,88956,1,2,3:0:0:0:
57,185,89133,6,0,B|49:217|63:214|46:207|44:229|53:237|52:253|48:268,1,75,8|8,1:3|1:3,0:0:0:0:
144,137,89486,2,0,B|141:130|140:114|149:106|147:84|130:91|144:94|136:62,1,75,0|0,1:0|1:0,0:0:0:0:
155,228,89839,1,2,3:0:0:0:
256,192,89927,12,0,91074,0:0:0:0:
463,189,91250,6,0,P|468:219|460:258,3,46.875,4|0|0|0,1:1|0:0|0:2|0:2,0:0:0:0:
461,258,91603,1,8,1:0:0:0:
448,277,91692,1,0,0:0:0:0:
429,290,91780,1,2,0:2:0:0:
406,296,91868,1,0,0:0:0:0:
383,293,91956,2,0,P|355:293|326:311,3,46.875,0|0|0|0,1:0|0:2|0:0|0:2,0:0:0:0:
298,325,92309,2,0,L|302:384,1,46.875,8|0,1:0|0:0,0:0:0:0:
222,310,92486,2,0,L|226:251,1,46.875,2|0,0:2|0:0,0:0:0:0:
229,173,92662,6,0,P|217:155|180:137,3,46.875,0|0|0|0,1:1|0:0|0:2|0:2,0:0:0:0:
176,128,93015,1,8,1:0:0:0:
153,122,93103,1,0,0:0:0:0:
130,124,93192,1,2,0:2:0:0:
109,134,93280,1,0,0:0:0:0:
91,148,93368,2,0,P|66:150|40:141,3,46.875,0|0|0|0,1:0|0:2|0:0|0:2,0:0:0:0:
22,102,93721,2,0,L|27:49,1,46.875,8|0,1:0|0:0,0:0:0:0:
127,27,93897,2,0,L|132:80,1,46.875,2|0,0:2|0:0,0:0:0:0:
153,201,94074,6,0,P|140:229|145:269,3,46.875,0|0|0|0,1:1|0:0|0:0|0:2,0:0:0:0:
157,288,94427,2,0,P|174:313|211:328,3,46.875,8|0|0|0,1:0|0:0|0:2|0:0,0:0:0:0:
208,332,94780,1,4,1:2:0:0:
231,338,94868,1,0,0:2:0:0:
254,339,94956,1,0,0:0:0:0:
277,335,95045,1,0,0:2:0:0:
298,325,95133,2,0,P|331:318|356:329,3,46.875,8|0|2|0,1:0|0:0|0:2|0:0,0:0:0:0:
417,360,95486,1,2,1:2:0:0:
418,336,95574,1,0,0:0:0:0:
419,313,95662,1,0,0:2:0:0:
420,289,95750,1,0,0:2:0:0:
421,266,95839,2,0,L|423:215,3,46.875,8|0|0|0,1:0|0:0|0:1|0:0,0:0:0:0:
370,128,96192,6,0,L|309:133,3,46.875,6|0|0|0,1:2|0:2|0:0|0:2,0:0:0:0:
292,167,96545,2,0,L|231:172,3,46.875,10|0|0|0,1:2|0:0|0:2|0:0,0:0:0:0:
195,233,96897,5,4,1:1:0:0:
133,156,97074,1,2,0:2:0:0:
133,156,97162,1,2,0:2:0:0:
133,156,97250,1,8,1:0:0:0:
131,315,97427,1,0,0:1:0:0:
275,248,97603,6,0,L|333:257,2,46.875,0|0|0,1:0|0:2|0:0,0:0:0:0:
248,336,97956,2,0,L|201:343,2,46.875,8|0|0,1:0|0:0|0:2,0:0:0:0:
396,329,98309,5,0,1:1:0:0:
328,262,98486,1,2,0:2:0:0:
328,262,98574,1,2,0:2:0:0:
328,262,98662,1,8,1:0:0:0:
478,300,98839,1,0,0:1:0:0:
461,166,99015,6,0,L|461:114,2,46.875,0|0|0,1:0|0:2|0:0,0:0:0:0:
401,239,99368,2,0,L|401:291,2,46.875,8|0|0,1:0|0:0|0:2,0:0:0:0:
398,41,99721,6,0,P|379:31|344:26,3,46.875,0|0|0|0,1:1|0:0|0:0|0:2,0:0:0:0:
331,22,100074,1,8,1:0:0:0:
307,24,100162,1,0,0:0:0:0:
286,32,100250,1,2,0:0:0:0:
267,46,100339,1,0,0:0:0:0:
252,64,100427,2,0,P|219:68|179:50,3,46.875,4|0|0|0,1:2|0:2|0:0|0:0,0:0:0:0:
103,74,100780,1,8,1:0:0:0:
191,147,100956,1,0,1:2:0:0:
40,147,101133,1,0,1:2:0:0:
39,170,101221,1,0,0:0:0:0:
38,193,101309,1,0,0:2:0:0:
37,217,101397,1,0,0:2:0:0:
36,240,101486,2,0,L|32:310,3,46.875,8|0|2|0,1:0|0:0|0:2|0:0,0:0:0:0:
134,338,101839,6,0,P|164:338|199:353,3,46.875,6|0|0|0,1:2|0:2|0:0|1:2,0:0:0:0:
225,280,102192,2,0,P|246:301|260:336,3,46.875,8|0|0|0,1:0|0:0|1:2|0:0,0:0:0:0:
338,351,102545,5,4,1:1:0:0:
358,340,102633,1,0,0:0:0:0:
381,337,102721,1,0,0:2:0:0:
405,340,102809,1,0,0:2:0:0:
426,350,102897,2,0,P|455:362|497:358,3,46.875,8|0|2|0,1:0|0:0|0:2|0:0,0:0:0:0:
490,351,103250,1,0,1:2:0:0:
502,331,103339,1,0,0:2:0:0:
503,308,103427,1,0,0:0:0:0:
493,287,103515,1,0,0:2:0:0:
474,274,103603,2,0,L|470:207,3,46.875,8|0|2|0,1:0|0:0|0:2|0:0,0:0:0:0:
472,139,103956,5,0,1:1:0:0:
451,127,104045,1,0,0:0:0:0:
428,122,104133,1,0,0:0:0:0:
405,123,104221,1,0,0:2:0:0:
383,132,104309,2,0,P|356:147|337:173,3,46.875,8|0|2|0,1:0|0:0|0:2|0:0,0:0:0:0:
328,174,104662,1,0,1:0:0:0:
306,182,104750,1,0,0:0:0:0:
283,181,104839,1,0,0:1:0:0:
261,170,104927,1,0,0:0:0:0:
245,152,105015,2,0,P|234:128|234:103,3,46.875,8|0|2|0,1:0|0:0|0:2|0:0,0:0:0:0:
169,35,105368,6,0,P|142:31|100:39,3,46.875,0|0|0|0,1:1|0:0|0:2|0:2,0:0:0:0:
55,104,105721,2,0,P|82:108|124:100,3,46.875,8|0|2|0,1:0|0:0|0:2|0:0,0:0:0:0:
165,185,106074,2,0,P|138:181|96:189,3,46.875,4|0|0|0,1:2|0:2|0:0|0:2,0:0:0:0:
51,254,106427,2,0,P|78:258|120:250,3,46.875,8|0|2|0,1:0|0:0|0:2|0:0,0:0:0:0:
211,358,106780,6,0,L|213:312,3,46.875,0|0|0|0,1:1|0:0|0:0|0:2,0:0:0:0:
292,250,107133,2,0,L|293:296,3,46.875,8|0|2|0,1:0|0:0|0:2|0:0,0:0:0:0:
368,375,107486,2,0,L|369:328,3,46.875,4|0|0|0,1:2|0:2|0:0|0:0,0:0:0:0:
448,266,107839,2,0,L|449:312,3,46.875,8|0|2|0,1:0|0:0|0:2|0:0,0:0:0:0:
445,172,108192,5,4,1:1:0:0:
366,222,108368,1,0,1:2:0:0:
445,172,108545,2,0,L|441:73,1,93.75,10|0,1:0|1:1,0:0:0:0:
304,50,108897,1,0,1:1:0:0:
383,0,109074,1,0,1:2:0:0:
304,50,109250,2,0,L|308:149,1,93.75,10|0,1:0|1:1,0:0:0:0:
369,315,109603,5,4,1:1:0:0:
290,365,109780,1,0,1:2:0:0:
369,315,109956,2,0,L|365:216,1,93.75,10|0,1:0|1:1,0:0:0:0:
228,193,110309,1,0,1:1:0:0:
307,144,110486,1,0,1:2:0:0:
228,193,110662,2,0,L|232:292,1,93.75,10|0,1:0|1:1,0:0:0:0:
78,357,111015,6,0,L|23:362,3,46.875,4|0|0|0,1:1|1:0|1:0|1:0,0:0:0:0:
109,271,111368,2,0,L|164:276,3,46.875,8|0|0|0,1:0|1:0|1:1|1:0,0:0:0:0:
61,196,111721,2,0,L|6:201,3,46.875,4|0|0|0,1:0|1:0|1:0|1:0,0:0:0:0:
92,110,112074,2,0,L|147:115,3,46.875,8|0|0|0,1:0|1:0|1:0|1:0,0:0:0:0:
256,144,112427,5,4,1:1:0:0:
256,137,112515,1,0,1:0:0:0:
256,129,112603,1,0,1:0:0:0:
256,121,112692,1,0,1:0:0:0:
256,113,112780,1,4,1:0:0:0:
256,105,112868,1,0,1:0:0:0:
256,97,112956,1,0,1:1:0:0:
256,89,113045,1,0,1:0:0:0:
256,81,113133,1,4,1:0:0:0:
256,74,113221,1,0,1:0:0:0:
256,66,113309,1,0,1:0:0:0:
256,58,113397,1,0,1:0:0:0:
256,50,113486,2,0,L|256:12,3,37.5,4|0|0|0,1:0|1:0|1:0|1:0,1:0:0:0:
350,63,113839,5,6,1:0:0:0:
162,63,114192,5,0,1:0:0:0:
162,63,114368,1,0,1:0:0:0:
137,161,114545,1,6,1:0:0:0:
350,63,114897,5,0,1:0:0:0:
350,63,115074,1,0,1:0:0:0:
375,161,115250,1,6,1:0:0:0:
256,3,115603,1,0,1:0:0:0:
256,3,115780,1,0,1:0:0:0:
256,3,115956,5,6,1:0:0:0:
256,192,116309,1,6,1:0:0:0:
162,321,116662,5,2,1:0:0:0:
350,321,117015,5,0,1:0:0:0:
350,321,117192,1,0,1:0:0:0:
375,223,117368,1,6,1:0:0:0:
162,321,117721,5,0,1:0:0:0:
162,321,117897,1,0,1:0:0:0:
137,223,118074,1,6,1:0:0:0:
256,96,118427,5,0,1:0:0:0:
256,192,118603,1,0,1:0:0:0:
256,288,118780,1,6,1:0:0:0:
