osu file format v14

[General]
AudioFilename: audio.mp3
AudioLeadIn: 0
PreviewTime: 23397
Countdown: 0
SampleSet: Soft
StackLeniency: 0.4
Mode: 2
LetterboxInBreaks: 0
EpilepsyWarning: 1
WidescreenStoryboard: 1

[Editor]
DistanceSpacing: 1
BeatDivisor: 3
GridSize: 32
TimelineZoom: 2.3

[Metadata]
Title:Der Wald (kors k Remix)
TitleUnicode:Der Wald (kors k Remix)
Artist:Eleharmonica remixed by kors k
ArtistUnicode:エレハモニカ remixed by kors k
Creator:Cheesecake
Version:Spec's Overdose
Source:pop'n music 20 fantasia
Tags:darky1 xchorse mithew jace rlc lasse hareimu spectator ascendance popn twenty mzd taku sakakibara seiya murai kosuke saito dark opera ダークオペラ the forest
BeatmapID:1536964
BeatmapSetID:581787

[Difficulty]
HPDrainRate:6
CircleSize:4
OverallDifficulty:9.3
ApproachRate:9.3
SliderMultiplier:1.96
SliderTickRate:2

[Events]
//Background and Video events
0,0,"der wald.jpg",0,0
//Break Periods
//Storyboard Layer 0 (Background)
//Storyboard Layer 1 (Fail)
//Storyboard Layer 2 (Pass)
//Storyboard Layer 3 (Foreground)
Sprite,Foreground,Centre,"sb\Naxess_3.png",0,0 M,0,43427,,348,400 C,0,43427,,191,255,0 S,30,43427,43604,0,1 P,0,43427,45724,A F,0,44662,45724,1,0
Sprite,Foreground,Centre,"sb\Naxess_3.png",0,0 M,0,43603,,489,400 C,0,43603,,212,255,0 S,30,43603,43780,0,1 P,0,43603,45724,A F,0,44662,45724,1,0
Sprite,Foreground,Centre,"sb\Naxess_3.png",0,0 M,0,43780,,347,400 C,0,43780,,233,255,0 S,30,43780,43957,0,1 P,0,43780,45724,A F,0,44662,45724,1,0
Sprite,Foreground,Centre,"sb\Naxess_3.png",0,0 M,0,43956,,500,400 C,0,43956,,255,255,0 S,30,43956,44133,0,1 P,0,43956,45724,A F,0,44662,45724,1,0
Sprite,Foreground,Centre,"sb\Naxess_3.png",0,0 M,0,44045,,532,400 C,0,44045,,255,233,0 S,30,44045,44222,0,1 P,0,44045,45724,A F,0,44662,45724,1,0
Sprite,Foreground,Centre,"sb\Naxess_3.png",0,0 M,0,44133,,517,400 C,0,44133,,255,212,0 S,30,44133,44310,0,1 P,0,44133,45724,A F,0,44662,45724,1,0
Sprite,Foreground,Centre,"sb\Naxess_3.png",0,0 M,0,44221,,468,400 C,0,44221,,255,191,0 S,30,44221,44398,0,1 P,0,44221,45724,A F,0,44662,45724,1,0
Sprite,Foreground,Centre,"sb\Naxess_3.png",0,0 M,0,44309,,310,400 C,0,44309,,255,170,0 S,30,44309,44486,0,1 P,0,44309,45724,A F,0,44662,45724,1,0
Sprite,Foreground,Centre,"sb\Naxess_3.png",0,0 M,0,44397,,272,400 C,0,44397,,255,148,0 S,30,44397,44574,0,1 P,0,44397,45724,A F,0,44662,45724,1,0
Sprite,Foreground,Centre,"sb\Naxess_3.png",0,0 M,0,44486,,270,400 C,0,44486,,255,127,0 S,30,44486,44663,0,1 P,0,44486,45724,A F,0,44662,45724,1,0
Sprite,Foreground,Centre,"sb\Naxess_3.png",0,0 M,0,44574,,314,400 C,0,44574,,255,106,0 S,30,44574,44751,0,1 P,0,44574,45724,A F,0,44662,45724,1,0
Sprite,Foreground,Centre,"sb\CircleHalf.png",194,400 F,0,92661,93723,1,0 S,7,92661,93723,0.5,4 P,0,92661,93723,A
Sprite,Foreground,Centre,"sb\CircleHalf.png",378,400 F,0,94073,95135,1,0 S,7,94073,95135,0.5,4 P,0,94073,95135,A
Sprite,Foreground,Centre,"sb\CircleHalf.png",487,400 F,0,95485,96547,1,0 S,7,95485,96547,0.5,4 P,0,95485,96547,A
Sprite,Foreground,Centre,"sb\CircleHalf.png",230,400 F,0,96897,97959,1,0 S,7,96897,97959,0.5,4 P,0,96897,97959,A
Sprite,Foreground,Centre,"sb\CircleHalf.png",488,400 F,0,98308,99370,1,0 S,7,98308,99370,0.5,4 P,0,98308,99370,A
Sprite,Foreground,Centre,"sb\CircleHalf.png",471,400 F,0,99720,100782,1,0 S,7,99720,100782,0.5,4 P,0,99720,100782,A
Sprite,Foreground,Centre,"sb\CircleHalf.png",415,400 F,0,101132,102194,1,0 S,7,101132,102194,0.5,4 P,0,101132,102194,A
Sprite,Foreground,Centre,"sb\CircleHalf.png",454,400 F,0,102544,103606,1,0 S,7,102544,103606,0.5,4 P,0,102544,103606,A
Sprite,Foreground,Centre,"sb\CircleHalf.png",175,400 F,0,103955,105017,1,0 S,7,103955,105017,0.5,4 P,0,103955,105017,A
Sprite,Foreground,Centre,"sb\CircleHalf.png",406,400 F,0,105367,106429,1,0 S,7,105367,106429,0.5,4 P,0,105367,106429,A
Sprite,Foreground,Centre,"sb\CircleHalf.png",224,400 F,0,106779,107841,1,0 S,7,106779,107841,0.5,4 P,0,106779,107841,A
Sprite,Foreground,Centre,"sb\CircleHalf.png",315,400 F,0,108191,109253,1,0 S,7,108191,109253,0.5,4 P,0,108191,109253,A
Sprite,Foreground,Centre,"sb\CircleHalf.png",325,400 F,0,109603,110665,1,0 S,7,109603,110665,0.5,4 P,0,109603,110665,A
Sprite,Foreground,Centre,"sb\CircleHalf.png",157,400 F,0,111015,112077,1,0 S,7,111015,112077,0.5,4 P,0,111015,112077,A
Sprite,Foreground,Centre,"sb\CircleHalf.png",483,400 F,0,111721,112783,1,0 S,7,111721,112783,0.5,4 P,0,111721,112783,A
Sprite,Foreground,Centre,"sb\CircleHalf.png",257,400 F,0,112427,113489,1,0 S,7,112427,113489,0.5,4 P,0,112427,113489,A
Sprite,Foreground,Centre,"sb\CircleHalf.png",233,400 F,0,112780,113842,1,0 S,7,112780,113842,0.5,4 P,0,112780,113842,A
Sprite,Foreground,Centre,"sb\CircleHalf.png",214,400 F,0,113133,114195,1,0 S,7,113133,114195,0.5,4 P,0,113133,114195,A
Sprite,Foreground,Centre,"sb\CircleHalf.png",193,400 F,0,113486,114548,1,0 S,7,113486,114548,0.5,4 P,0,113486,114548,A
Sprite,Foreground,Centre,"sb\Naxess_3.png",226,400 C,0,113839,,105,47,225 S,30,113839,114191,0,1.5 F,2,113839,114544,1,0
Sprite,Foreground,Centre,"sb\Naxess_3.png",485,400 C,0,114192,,105,47,225 S,30,114192,114544,0,1.5 F,2,114192,114897,1,0
Sprite,Foreground,Centre,"sb\Naxess_3.png",366,400 C,0,114368,,105,47,225 S,30,114368,114720,0,1.5 F,2,114368,115073,1,0
Sprite,Foreground,Centre,"sb\Naxess_3.png",121,400 C,0,114545,,105,47,225 S,30,114545,114897,0,1.5 F,2,114545,115250,1,0
Sprite,Foreground,Centre,"sb\Naxess_3.png",155,400 C,0,114897,,105,47,225 S,30,114897,115249,0,1.5 F,2,114897,115602,1,0
Sprite,Foreground,Centre,"sb\Naxess_3.png",274,400 C,0,115074,,105,47,225 S,30,115074,115426,0,1.5 F,2,115074,115779,1,0
Sprite,Foreground,Centre,"sb\Naxess_3.png",519,400 C,0,115250,,221,52,28 S,30,115250,115602,0,1.5 F,2,115250,115955,1,0
Sprite,Foreground,Centre,"sb\Naxess_3.png",485,400 C,0,115603,,221,52,28 S,30,115603,115955,0,1.5 F,2,115603,116308,1,0
Sprite,Foreground,Centre,"sb\Naxess_3.png",366,400 C,0,115780,,221,52,28 S,30,115780,116132,0,1.5 F,2,115780,116485,1,0
Sprite,Foreground,Centre,"sb\Naxess_3.png",121,400 C,0,115956,,221,52,28 S,30,115956,116308,0,1.5 F,2,115956,116661,1,0
Sprite,Foreground,Centre,"sb\Naxess_3.png",536,400 C,0,116309,,221,52,28 S,30,116309,116661,0,1.5 F,2,116309,117014,1,0
Sprite,Foreground,Centre,"sb\Naxess_3.png",234,400 C,0,116662,,147,34,221 S,30,116662,117014,0,1.5 F,2,116662,117367,1,0
Sprite,Foreground,Centre,"sb\Naxess_3.png",395,400 C,0,117015,,147,34,221 S,30,117015,117367,0,1.5 F,2,117015,117720,1,0
Sprite,Foreground,Centre,"sb\Naxess_3.png",243,400 C,0,117192,,147,34,221 S,30,117192,117544,0,1.5 F,2,117192,117897,1,0
Sprite,Foreground,Centre,"sb\Naxess_3.png",502,400 C,0,117368,,147,34,221 S,30,117368,117720,0,1.5 F,2,117368,118073,1,0
Sprite,Foreground,Centre,"sb\Naxess_3.png",245,400 C,0,117721,,147,34,221 S,30,117721,118073,0,1.5 F,2,117721,118426,1,0
Sprite,Foreground,Centre,"sb\Naxess_3.png",397,400 C,0,117897,,147,34,221 S,30,117897,118249,0,1.5 F,2,117897,118602,1,0
Sprite,Foreground,Centre,"sb\Naxess_3.png",138,400 C,0,118074,,239,104,14 S,30,118074,118426,0,1.5 F,2,118074,118779,1,0
Sprite,Foreground,Centre,"sb\Naxess_3.png",0,400 C,0,118427,,239,104,14 MX,0,118427,,412 S,30,118427,118779,0,1.5 F,2,118427,119132,1,0 MX,0,118780,,-300
Sprite,Foreground,Centre,"sb\Naxess_3.png",0,400 C,0,118603,,239,104,14 MX,0,118603,,262 S,30,118603,118955,0,1.5 F,2,118603,119308,1,0 MX,0,118780,,-300
Sprite,Foreground,Centre,"sb\CircleHalf.png",163,400 F,0,89133,89841,1,0 S,22,89133,89841,0,4
Sprite,Foreground,Centre,"sb\CircleHalf.png",478,400 F,0,89309,90017,1,0 S,22,89309,90017,0,4
Sprite,Foreground,Centre,"sb\CircleHalf.png",238,400 F,0,89486,90194,1,0 S,22,89486,90194,0,4
Sprite,Foreground,Centre,"sb\CircleHalf.png",400,400 F,0,89662,90370,1,0 S,22,89662,90370,0,4
Sprite,Foreground,Centre,"sb\CircleHalf.png",238,400 F,0,89839,90547,1,0 S,22,89839,90547,0,4
Sprite,Foreground,TopLeft,"sb\pixel.png",0,130 V,4,12198,12375,0,0.2,16,0.2 MX,0,12198,15022,100,130 F,0,15022,15199,0.5,0 MX,4,15022,15199,130,290 V,4,15022,15199,16,0.2,0,0.2
Sprite,Foreground,BottomLeft,"sb\MapSpectator.png",0,130 MX,0,12198,15022,125,140 V,0,12286,12375,0.5,0,0.5,0.5 F,0,14491,15022,0.5,0
//Storyboard Sound Samples

[TimingPoints]
898,352.941176470588,4,2,1,40,1,0
898,-100,4,2,1,40,0,0
12192,-100,4,2,1,50,0,0
23486,-100,4,2,1,60,0,0
44662,-100,4,2,1,70,0,0
46074,-100,4,2,1,70,0,1
68662,-100,4,2,1,70,0,0
71486,-100,4,2,1,70,0,0
74309,-100,4,2,1,70,0,0
77133,-71.4285714285714,4,2,1,70,0,0
77486,-71.4285714285714,4,2,1,70,0,0
79250,-100,4,2,1,70,0,0
79603,-66.6666666666667,4,2,1,70,0,0
79956,-100,4,2,1,70,0,0
82780,-100,4,2,1,70,0,0
84545,-83.3333333333333,4,2,1,70,0,0
84897,-66.6666666666667,4,2,1,70,0,0
85250,-50,4,2,1,70,0,0
85603,-66.6666666666667,4,2,1,70,0,0
87015,-100,4,2,1,70,0,0
89133,-66.6666666666667,4,2,1,70,0,0
89839,-100,4,2,1,70,0,0
90545,-100,4,2,1,70,0,0
91250,-90.9090909090909,4,2,1,70,0,1
99721,-90.9090909090909,4,2,1,70,0,1
102545,-90.9090909090909,4,2,1,70,0,1
113839,-100,4,2,1,70,0,0

[Colours]
Combo1 : 147,34,221
Combo2 : 239,104,14
Combo3 : 105,47,225
Combo4 : 221,52,28

[HitObjects]
69,274,897,6,0,L|69:176,1,98,0|0,0:0|0:0,0:0:0:0:
207,112,1250,2,0,L|327:111,1,98,0|0,0:0|0:0,0:0:0:0:
443,274,1603,2,0,L|443:141,1,98,2|0,0:0|0:0,0:0:0:0:
304,111,1956,2,0,L|184:110,1,98,2|0,0:0|0:0,0:0:0:0:
327,187,2309,2,0,L|349:309,1,98,0|0,0:0|0:0,0:0:0:0:
185,187,2662,2,0,L|163:309,1,98,0|0,0:0|0:0,0:0:0:0:
340,287,3015,1,2,0:0:0:0:
172,287,3192,1,0,0:0:0:0:
340,287,3368,1,2,0:0:0:0:
172,287,3545,1,0,0:0:0:0:
449,286,3721,6,0,L|469:165,1,98,0|0,0:0|0:0,0:0:0:0:
303,131,4074,2,0,L|199:131,1,98,0|0,0:0|0:0,0:0:0:0:
63,286,4427,2,0,L|43:165,1,98,2|0,0:0|0:0,0:0:0:0:
209,131,4780,2,0,L|313:131,1,98,2|0,0:0|0:0,0:0:0:0:
184,228,5133,2,0,L|77:228,1,98,0|0,0:0|0:0,0:0:0:0:
209,131,5486,2,0,L|316:131,1,98,0|0,0:0|0:0,0:0:0:0:
163,45,5839,1,0,0:0:0:0:
331,41,6015,1,2,0:0:0:0:
272,43,6103,1,2,0:0:0:0:
213,46,6192,1,2,0:0:0:0:
391,40,6368,1,0,0:0:0:0:
87,318,6545,6,0,L|70:182,1,98,0|0,0:0|0:0,0:0:0:0:
242,183,6897,2,0,L|378:181,1,98,0|0,0:0|0:0,0:0:0:0:
224,68,7250,2,0,L|117:68,1,98,2|0,0:0|0:0,0:0:0:0:
425,318,7603,2,0,L|442:182,1,98,2|0,0:0|0:0,0:0:0:0:
270,183,7956,2,0,L|134:181,1,98,0|0,0:0|0:0,0:0:0:0:
288,68,8309,2,0,L|395:68,1,98,0|0,0:0|0:0,0:0:0:0:
95,240,8662,2,0,L|208:237,1,98,2|0,0:0|0:0,0:0:0:0:
345,239,9015,1,2,0:0:0:0:
194,237,9192,1,0,0:0:0:0:
466,240,9368,6,0,L|468:111,1,98,0|0,0:0|0:0,0:0:0:0:
305,123,9721,2,0,L|173:124,1,98,0|0,0:0|0:0,0:0:0:0:
46,240,10074,2,0,L|44:111,1,98,2|0,0:0|0:0,0:0:0:0:
207,123,10427,2,0,L|339:124,1,98,2|0,0:0|0:0,0:0:0:0:
135,216,10780,2,0,L|251:217,1,98,0|0,0:0|0:0,0:0:0:0:
379,216,11133,2,0,L|263:217,1,98,0|0,0:0|0:0,0:0:0:0:
436,216,11486,1,0,0:0:0:0:
246,307,11662,1,2,0:0:0:0:
304,305,11750,1,2,0:0:0:0:
363,303,11839,1,2,0:0:0:0:
178,216,12015,1,0,0:0:0:0:
470,212,12192,6,0,L|477:96,1,98,0|0,0:0|0:0,0:0:0:0:
328,271,12545,2,0,L|444:270,1,98,0|0,0:0|0:0,0:0:0:0:
281,133,12897,2,0,L|397:132,1,98,2|0,0:0|0:0,0:0:0:0:
42,212,13250,2,0,L|35:96,1,98,2|0,0:0|0:0,0:0:0:0:
184,271,13603,2,0,L|68:270,1,98,0|0,0:0|0:0,0:0:0:0:
231,133,13956,2,0,L|115:132,1,98,0|0,0:0|0:0,0:0:0:0:
281,133,14309,2,0,L|397:132,1,98,2|0,0:0|0:0,0:0:0:0:
229,135,14662,1,2,0:0:0:0:
380,132,14839,1,0,0:0:0:0:
52,298,15015,6,0,L|51:176,1,98,0|0,0:0|0:0,0:0:0:0:
209,216,15368,2,0,L|322:216,1,98,0|0,0:0|0:0,0:0:0:0:
460,298,15721,2,0,L|461:176,1,98,2|0,0:0|0:0,0:0:0:0:
303,216,16074,2,0,L|190:216,1,98,2|0,0:0|0:0,0:0:0:0:
350,130,16427,2,0,L|470:130,1,98,0|0,0:0|0:0,0:0:0:0:
301,35,16780,2,0,L|181:35,1,98,0|0,0:0|0:0,0:0:0:0:
351,211,17133,1,0,0:0:0:0:
192,309,17309,1,2,0:0:0:0:
250,310,17397,1,2,0:0:0:0:
309,311,17486,1,2,0:0:0:0:
453,312,17662,1,0,0:0:0:0:
102,333,17839,5,0,0:0:0:0:
45,222,18015,1,0,0:0:0:0:
232,327,18192,1,0,0:0:0:0:
175,216,18368,1,0,0:0:0:0:
364,326,18545,1,2,0:0:0:0:
307,215,18721,1,0,0:0:0:0:
494,320,18897,1,2,0:0:0:0:
437,209,19074,1,0,0:0:0:0:
250,326,19250,5,0,0:0:0:0:
307,215,19427,1,0,0:0:0:0:
128,320,19603,1,0,0:0:0:0:
185,209,19780,1,0,0:0:0:0:
325,199,19956,1,2,0:0:0:0:
268,86,20133,1,0,0:0:0:0:
447,191,20309,1,2,0:0:0:0:
390,80,20486,1,0,0:0:0:0:
258,178,20662,5,2,0:0:0:0:
130,179,20839,1,0,0:0:0:0:
258,178,21015,1,0,0:0:0:0:
381,179,21192,1,0,0:0:0:0:
258,180,21368,1,2,0:0:0:0:
144,181,21545,1,0,0:0:0:0:
258,180,21721,1,0,0:0:0:0:
368,181,21897,1,0,0:0:0:0:
188,56,22074,5,2,0:0:0:0:
167,159,22250,1,0,0:0:0:0:
324,328,22427,1,0,0:0:0:0:
345,225,22603,1,0,0:0:0:0:
188,56,22780,1,2,0:0:0:0:
167,159,22956,1,0,0:0:0:0:
324,328,23133,1,2,0:0:0:0:
345,225,23309,1,0,0:0:0:0:
76,300,23486,6,0,L|67:198,1,98,2|0,0:1|0:0,0:0:0:0:
246,238,23839,1,8,0:0:0:0:
286,202,23927,1,0,0:0:0:0:
296,149,24015,1,0,0:0:0:0:
271,101,24103,1,0,0:0:0:0:
221,77,24192,1,0,0:0:0:0:
61,75,24368,1,2,0:1:0:0:
331,151,24545,2,0,L|451:157,1,98,8|0,0:0|0:0,0:0:0:0:
181,298,24897,6,0,L|293:289,1,98,2|0,0:1|0:0,0:0:0:0:
432,346,25250,1,8,0:0:0:0:
281,277,25427,1,0,0:0:0:0:
276,233,25515,1,0,0:0:0:0:
271,189,25603,1,0,0:0:0:0:
400,111,25780,1,2,0:1:0:0:
103,169,25956,2,0,L|89:59,1,98,8|0,0:0|0:0,0:0:0:0:
423,189,26309,5,2,0:1:0:0:
306,243,26486,1,0,0:0:0:0:
73,177,26662,1,8,0:0:0:0:
330,103,26839,2,0,L|400:100,2,49,0|0|0,0:0|0:0|0:0,0:0:0:0:
166,50,27192,1,2,0:1:0:0:
428,263,27368,2,0,L|438:144,1,98,8|0,0:0|0:0,0:0:0:0:
363,113,27633,1,0,0:0:0:0:
154,176,27721,6,0,L|40:186,1,98,2|0,0:1|0:0,0:0:0:0:
320,288,28074,1,8,0:0:0:0:
284,262,28162,1,0,0:0:0:0:
271,219,28250,1,0,0:0:0:0:
285,176,28339,1,0,0:0:0:0:
323,155,28427,1,0,0:0:0:0:
160,148,28603,1,2,0:1:0:0:
456,145,28780,2,0,L|466:46,1,98,8|0,0:0|0:0,0:0:0:0:
154,253,29133,6,0,L|268:247,1,98,2|0,0:1|0:0,0:0:0:0:
409,273,29486,1,8,0:0:0:0:
247,232,29662,1,0,0:0:0:0:
245,188,29750,1,0,0:0:0:0:
243,143,29839,1,0,0:0:0:0:
371,72,30015,1,2,0:1:0:0:
68,193,30192,2,0,L|51:78,1,98,8|0,0:0|0:0,0:0:0:0:
288,217,30545,6,0,L|150:193,1,98,2|0,0:1|0:0,0:0:0:0:
448,96,30897,1,8,0:0:0:0:
309,95,31074,1,0,0:0:0:0:
55,243,31250,2,0,L|33:142,1,98,0|2,0:0|0:1,0:0:0:0:
322,113,31603,2,0,L|344:12,1,98,8|0,0:0|0:0,0:0:0:0:
196,125,31956,5,2,0:1:0:0:
370,127,32133,1,0,0:0:0:0:
187,261,32309,1,8,0:0:0:0:
150,236,32397,1,0,0:0:0:0:
134,194,32486,1,0,0:0:0:0:
153,154,32574,1,0,0:0:0:0:
192,135,32662,1,0,0:0:0:0:
366,140,32839,1,2,0:1:0:0:
72,191,33015,2,0,L|50:63,1,98,8|0,0:0|0:0,0:0:0:0:
370,302,33368,6,0,L|387:206,1,98,2|0,0:1|0:0,0:0:0:0:
124,200,33721,1,8,0:0:0:0:
256,192,33897,1,0,0:0:0:0:
94,95,34074,1,0,0:0:0:0:
39,94,34162,1,0,0:0:0:0:
94,95,34250,1,2,0:1:0:0:
350,193,34427,1,8,0:0:0:0:
477,193,34603,1,0,0:0:0:0:
71,325,34780,6,0,L|62:216,1,98,2|0,0:1|0:0,0:0:0:0:
215,173,35133,1,2,0:1:0:0:
91,126,35309,1,0,0:0:0:0:
245,265,35486,2,0,L|373:265,1,98,2|0,0:1|0:0,0:0:0:0:
172,160,35839,2,0,L|62:160,1,98,2|0,0:1|0:0,0:0:0:0:
346,221,36192,6,0,L|355:112,1,98,2|0,0:1|0:0,0:0:0:0:
192,64,36545,1,2,0:1:0:0:
326,21,36721,1,0,0:0:0:0:
172,160,36897,2,0,L|44:160,1,98,2|0,0:1|0:0,0:0:0:0:
352,192,37250,2,0,L|462:192,1,98,2|0,0:1|0:0,0:0:0:0:
182,344,37603,6,0,L|166:223,1,98,2|0,0:1|0:0,0:0:0:0:
309,248,37956,1,8,0:0:0:0:
171,239,38133,1,0,0:0:0:0:
423,87,38309,2,0,L|499:88,2,49,2|0|0,0:1|0:0|0:1,0:0:0:0:
274,212,38662,2,0,L|388:206,1,98,8|0,0:0|0:0,0:0:0:0:
65,178,39015,5,2,0:1:0:0:
206,176,39192,1,0,0:0:0:0:
65,178,39368,1,8,0:0:0:0:
206,176,39545,1,0,0:0:0:0:
469,183,39721,1,2,0:1:0:0:
478,130,39809,1,0,0:0:0:0:
461,79,39897,1,0,0:0:0:0:
418,44,39986,1,0,0:0:0:0:
251,40,40074,1,8,0:0:0:0:
212,78,40162,1,0,0:0:0:0:
212,131,40250,1,0,0:0:0:0:
253,166,40339,1,0,0:0:0:0:
443,316,40427,5,2,0:1:0:0:
316,294,40603,1,2,0:1:0:0:
449,219,40780,1,2,0:1:0:0:
322,197,40956,1,2,0:1:0:0:
453,130,41133,1,2,0:1:0:0:
326,108,41309,1,2,0:1:0:0:
459,33,41486,1,2,0:1:0:0:
332,11,41662,1,2,0:1:0:0:
84,317,41839,5,2,0:1:0:0:
224,288,42015,1,2,0:1:0:0:
78,220,42192,1,2,0:1:0:0:
218,191,42368,1,2,0:1:0:0:
74,131,42545,1,2,0:1:0:0:
214,102,42721,1,2,0:1:0:0:
68,34,42897,1,2,0:1:0:0:
208,5,43074,1,2,0:1:0:0:
441,318,43250,6,0,L|448:243,1,49,0|0,0:0|0:0,0:0:0:0:
284,231,43427,2,0,L|221:218,1,49,0|0,0:0|0:0,0:0:0:0:
425,142,43603,2,0,L|445:78,1,49,0|0,0:0|0:0,0:0:0:0:
283,61,43780,2,0,L|217:35,1,49,0|0,0:0|0:0,0:0:0:0:
436,293,43956,5,0,0:0:0:0:
468,249,44045,1,0,0:0:0:0:
453,197,44133,1,0,0:0:0:0:
404,173,44221,1,0,0:0:0:0:
246,167,44309,1,0,0:0:0:0:
208,128,44397,1,0,0:0:0:0:
206,73,44486,1,0,0:0:0:0:
250,42,44574,1,0,0:0:0:0:
420,46,44662,1,2,0:0:0:0:
256,192,44839,12,0,45721,0:0:0:0:
86,320,46074,6,0,L|73:247,1,49,6|0,0:1|0:0,0:0:0:0:
239,215,46250,2,0,L|252:142,1,49,0|0,0:0|0:0,0:0:0:0:
175,326,46427,2,0,L|162:253,1,49,8|0,0:0|0:0,0:0:0:0:
328,221,46603,2,0,L|341:148,1,49,0|0,0:0|0:0,0:0:0:0:
259,331,46780,2,0,L|246:258,1,49,0|0,0:0|0:0,0:0:0:0:
412,226,46956,2,0,L|425:153,1,49,2|0,0:1|0:0,0:0:0:0:
184,112,47133,2,0,L|66:111,1,98,10|2,0:0|0:0,0:0:0:0:
150,110,47397,1,0,0:0:0:0:
344,289,47486,6,0,L|351:152,1,98,2|0,0:1|0:0,0:0:0:0:
276,154,47750,1,0,0:0:0:0:
115,267,47839,1,10,0:0:0:0:
72,234,47927,1,0,0:0:0:0:
71,180,48015,1,2,0:0:0:0:
115,149,48103,1,0,0:0:0:0:
301,220,48192,2,0,L|383:221,1,49,0|0,0:1|0:0,0:0:0:0:
173,151,48368,2,0,L|163:62,1,49,2|0,0:1|0:0,0:0:0:0:
245,67,48545,2,0,L|252:0,1,49,8|0,0:0|0:0,0:0:0:0:
173,85,48721,2,0,L|163:-4,1,49,0|0,0:0|0:0,0:0:0:0:
405,218,48897,6,0,L|326:219,1,49,2|0,0:0|0:0,0:0:0:0:
200,295,49074,2,0,L|281:295,1,49,0|0,0:0|0:0,0:0:0:0:
317,219,49250,2,0,L|238:220,1,49,10|0,0:0|0:0,0:0:0:0:
112,296,49427,2,0,L|193:296,1,49,0|0,0:0|0:0,0:0:0:0:
231,221,49603,2,0,L|152:222,1,49,2|0,0:0|0:0,0:0:0:0:
26,298,49780,2,0,L|107:298,1,49,2|0,0:1|0:0,0:0:0:0:
270,167,49956,2,0,L|139:168,1,98,10|0,0:0|0:0,0:0:0:0:
233,168,50221,1,0,0:0:0:0:
77,228,50309,6,0,P|51:179|95:128,1,98,2|0,0:1|0:0,0:0:0:0:
131,122,50574,1,0,0:0:0:0:
352,256,50662,1,8,0:0:0:0:
301,236,50750,1,0,0:0:0:0:
265,194,50839,1,0,0:0:0:0:
251,142,50927,1,0,0:0:0:0:
413,297,51015,2,0,L|490:293,1,49,2|0,0:0|0:0,0:0:0:0:
237,106,51192,2,0,L|170:101,1,49,2|0,0:1|0:0,0:0:0:0:
418,189,51368,1,10,0:0:0:0:
462,159,51456,1,0,0:0:0:0:
463,104,51545,1,0,0:0:0:0:
420,71,51633,1,0,0:0:0:0:
168,258,51721,5,2,0:1:0:0:
144,215,51809,1,0,0:0:0:0:
163,170,51897,1,0,0:0:0:0:
209,154,51986,1,0,0:0:0:0:
369,220,52074,2,0,L|362:158,1,49,8|0,0:0|0:0,0:0:0:0:
293,107,52250,2,0,L|233:99,1,49,0|0,0:0|0:0,0:0:0:0:
417,146,52427,1,0,0:0:0:0:
441,103,52515,1,0,0:0:0:0:
422,58,52603,1,2,0:1:0:0:
376,42,52692,1,0,0:0:0:0:
170,224,52780,2,0,L|228:222,1,49,8|0,0:0|0:0,0:0:0:0:
300,219,52956,2,0,L|366:216,1,49,0|0,0:0|0:0,0:0:0:0:
175,323,53133,5,2,0:1:0:0:
128,309,53221,1,0,0:0:0:0:
95,272,53309,1,0,0:0:0:0:
81,224,53397,1,0,0:1:0:0:
259,188,53486,2,0,L|331:188,1,49,8|0,0:0|0:0,0:0:0:0:
245,106,53662,2,0,L|178:105,1,49,0|0,0:0|0:0,0:0:0:0:
409,248,53839,1,0,0:0:0:0:
425,202,53927,1,0,0:0:0:0:
399,160,54015,1,2,0:1:0:0:
350,153,54103,1,0,0:0:0:0:
135,79,54192,2,0,L|13:84,1,98,10|2,0:0|0:0,0:0:0:0:
98,135,54456,1,0,0:0:0:0:
309,227,54545,6,0,L|441:222,1,98,2|0,0:1|0:0,0:0:0:0:
106,120,54897,2,0,L|238:115,1,98,8|0,0:0|0:0,0:0:0:0:
351,290,55250,1,0,0:0:0:0:
391,253,55339,1,0,0:0:0:0:
381,200,55427,1,2,0:1:0:0:
332,176,55515,1,0,0:0:0:0:
158,178,55603,1,8,0:0:0:0:
138,127,55692,1,0,0:0:0:0:
158,77,55780,1,0,0:0:0:0:
211,71,55868,1,0,0:0:0:0:
379,62,55956,6,0,L|451:65,3,49,2|0|0|0,0:1|0:0|0:0|0:0,0:0:0:0:
255,211,56309,2,0,L|183:214,3,49,8|0|0|0,0:0|0:0|0:0|0:0,0:0:0:0:
404,203,56662,2,0,L|465:204,1,49,2|0,0:0|0:0,0:0:0:0:
273,310,56839,2,0,L|212:311,1,49,2|0,0:0|0:0,0:0:0:0:
411,114,57015,2,0,L|472:115,1,49,10|0,0:0|0:0,0:0:0:0:
280,221,57192,2,0,L|219:222,1,49,2|0,0:0|0:0,0:0:0:0:
435,319,57368,5,6,0:1:0:0:
463,273,57456,1,0,0:0:0:0:
440,223,57545,1,0,0:0:0:0:
389,203,57633,1,0,0:0:0:0:
209,292,57721,2,0,L|200:207,1,49,8|0,0:0|0:0,0:0:0:0:
274,172,57897,2,0,L|265:87,1,49,0|0,0:0|0:0,0:0:0:0:
87,225,58074,2,0,L|78:140,1,49,0|0,0:0|0:0,0:0:0:0:
152,105,58250,2,0,L|143:20,1,49,2|0,0:1|0:0,0:0:0:0:
381,211,58427,2,0,L|245:204,1,98,10|2,0:0|0:0,0:0:0:0:
443,361,58780,6,0,L|450:252,1,98,2|0,0:0|0:0,0:0:0:0:
131,211,59133,2,0,L|267:204,1,98,10|0,0:0|0:0,0:0:0:0:
164,171,59397,1,0,0:0:0:0:
336,265,59486,2,0,L|409:261,1,49,2|0,0:0|0:0,0:0:0:0:
309,187,59662,2,0,L|241:192,1,49,2|0,0:1|0:0,0:0:0:0:
418,132,59839,2,0,L|491:128,1,49,10|0,0:0|0:0,0:0:0:0:
391,54,60015,2,0,L|323:59,1,49,0|0,0:0|0:0,0:0:0:0:
160,320,60192,6,0,L|87:316,1,49,2|0,0:1|0:0,0:0:0:0:
187,242,60368,2,0,L|255:247,1,49,0|0,0:0|0:0,0:0:0:0:
160,320,60545,2,0,L|87:316,1,49,8|0,0:0|0:0,0:0:0:0:
187,242,60721,2,0,L|255:247,1,49,0|0,0:0|0:0,0:0:0:0:
32,224,60897,2,0,L|18:111,1,98,0|2,0:0|0:1,0:0:0:0:
83,70,61162,1,0,0:0:0:0:
261,144,61250,2,0,L|372:145,1,98,10|2,0:0|0:0,0:0:0:0:
289,143,61515,1,0,0:0:0:0:
64,311,61603,6,0,L|52:200,1,98,2|0,0:1|0:0,0:0:0:0:
188,169,61956,2,0,L|174:50,1,98,8|0,0:0|0:0,0:0:0:0:
328,74,62309,1,2,0:0:0:0:
159,286,62486,1,2,0:1:0:0:
151,232,62574,1,0,0:0:0:0:
177,185,62662,1,8,0:0:0:0:
226,165,62750,1,0,0:0:0:0:
399,161,62839,1,0,0:0:0:0:
462,162,62927,1,0,0:0:0:0:
234,258,63015,6,0,L|140:258,1,49,2|0,0:1|0:0,0:0:0:0:
347,335,63192,2,0,L|418:337,1,49,0|0,0:0|0:0,0:0:0:0:
167,164,63368,2,0,L|216:164,1,49,8|0,0:0|0:0,0:0:0:0:
377,242,63545,2,0,L|329:241,1,49,0|0,0:0|0:0,0:0:0:0:
128,160,63721,2,0,L|34:160,1,49,0|0,0:0|0:0,0:0:0:0:
241,237,63897,2,0,L|312:239,1,49,2|0,0:1|0:0,0:0:0:0:
111,78,64074,2,0,L|39:77,3,49,8|0|0|0,0:0|0:0|0:0|0:0,0:0:0:0:
266,332,64427,6,0,L|278:253,1,49,2|0,0:1|0:0,0:0:0:0:
103,195,64603,2,0,L|91:112,1,49,0|0,0:0|0:0,0:0:0:0:
276,180,64780,2,0,L|351:180,3,49,8|0|0|0,0:0|0:0|0:0|0:0,0:0:0:0:
145,285,65133,1,2,0:0:0:0:
104,249,65221,1,0,0:0:0:0:
103,195,65309,1,2,0:1:0:0:
143,159,65397,1,0,0:0:0:0:
329,285,65486,1,10,0:0:0:0:
370,249,65574,1,0,0:0:0:0:
371,195,65662,1,0,0:0:0:0:
331,159,65750,1,0,0:0:0:0:
155,230,65839,5,2,0:1:0:0:
208,228,65927,1,0,0:0:0:0:
261,226,66015,1,0,0:0:0:0:
314,225,66103,1,0,0:0:0:0:
134,137,66192,1,2,0:1:0:0:
187,135,66280,1,0,0:0:0:0:
240,133,66368,1,0,0:0:0:0:
293,132,66456,1,0,0:0:0:0:
109,272,66545,1,2,0:1:0:0:
162,270,66633,1,0,0:0:0:0:
215,268,66721,1,0,0:0:0:0:
268,267,66809,1,0,0:0:0:0:
76,182,66897,5,2,0:1:0:0:
52,176,66942,1,0,0:0:0:0:
34,160,66986,1,2,0:0:0:0:
28,137,67030,1,0,0:0:0:0:
34,113,67074,1,2,0:0:0:0:
51,96,67118,1,0,0:0:0:0:
75,91,67162,1,2,0:0:0:0:
301,323,67250,6,0,P|354:297|385:207,1,147,2|0,0:1|0:0,0:0:0:0:
304,187,67603,6,0,L|141:185,1,147,2|0,0:1|0:0,0:0:0:0:
87,263,67956,6,0,P|34:237|3:147,1,147,4|0,0:3|0:0,0:0:0:0:
257,185,68309,6,0,L|420:183,1,147,4|0,0:3|0:0,0:0:0:0:
160,96,68662,5,2,0:0:0:0:
68,94,68780,1,2,0:0:0:0:
160,96,68897,1,2,0:0:0:0:
350,200,69015,1,2,0:0:0:0:
258,197,69133,1,2,0:0:0:0:
167,195,69250,1,2,0:0:0:0:
352,96,69368,1,2,0:0:0:0:
444,94,69486,1,2,0:0:0:0:
352,96,69603,1,2,0:0:0:0:
83,197,69721,2,0,L|68:61,1,130.666666666667,0|0,0:0|0:0,0:0:0:0:
338,285,70074,5,2,0:0:0:0:
260,248,70192,1,2,0:0:0:0:
337,283,70309,1,2,0:0:0:0:
114,282,70427,1,2,0:0:0:0:
188,245,70545,1,2,0:0:0:0:
115,280,70662,1,2,0:0:0:0:
338,285,70780,1,2,0:0:0:0:
260,248,70897,1,2,0:0:0:0:
337,283,71015,1,2,0:0:0:0:
58,150,71133,2,0,L|167:150,1,98,0|0,0:0|0:0,0:0:0:0:
449,208,71486,6,0,L|459:173,4,24.5,2|0|0|0|0,0:1|0:0|0:0|0:0|0:0,0:0:0:0:
294,208,71839,2,0,L|284:173,4,24.5,0|0|0|0|2,0:0|0:0|0:0|0:0|0:1,0:0:0:0:
125,286,72192,2,0,P|227:202|123:140,1,294,8|0,0:0|0:0,0:0:0:0:
263,322,72897,6,0,B|273:222|273:222|176:217|176:217|170:117|170:117|73:117|73:117|54:21|54:21|155:20|155:20|173:115,1,686,2|8,0:1|0:0,0:0:0:0:
129,238,74309,5,2,0:0:0:0:
220,234,74427,1,2,0:0:0:0:
311,230,74545,1,2,0:0:0:0:
126,330,74662,1,2,0:0:0:0:
34,327,74780,1,2,0:0:0:0:
126,330,74897,1,2,0:0:0:0:
326,332,75015,1,2,0:0:0:0:
418,329,75133,1,2,0:0:0:0:
326,332,75250,1,2,0:0:0:0:
128,184,75368,2,0,B|63:183|63:183|131:183,1,130.666666666667,0|0,0:0|0:0,0:0:0:0:
339,184,75721,5,2,0:0:0:0:
247,184,75839,1,2,0:0:0:0:
156,184,75956,1,2,0:0:0:0:
376,283,76074,1,2,0:0:0:0:
293,256,76192,1,2,0:0:0:0:
374,282,76309,1,2,0:0:0:0:
144,283,76427,2,0,L|230:277,1,49,2|0,0:0|0:0,0:0:0:0:
345,186,76603,2,0,L|411:181,1,49,0|0,0:0|0:0,0:0:0:0:
155,122,76780,2,0,L|18:112,1,98,2|2,0:0|0:0,0:0:0:0:
363,226,77133,6,0,L|87:262,1,274.399991625977,2|10,0:1|0:0,0:0:0:0:
276,253,77662,1,2,0:0:0:0:
104,259,77839,2,0,L|380:295,1,274.399991625977,2|10,0:1|0:0,0:0:0:0:
191,286,78368,1,2,0:0:0:0:
480,192,78545,5,2,0:1:0:0:
349,190,78721,1,2,0:1:0:0:
349,190,78809,1,2,0:1:0:0:
349,190,78897,1,2,0:1:0:0:
20,191,79074,1,2,0:1:0:0:
301,276,79250,2,0,P|366:256|396:157,1,147,10|0,0:0|0:0,0:0:0:0:
158,186,79603,2,0,L|411:184,1,220.500008411408,2|2,0:1|0:1,0:0:0:0:
132,290,79956,5,6,0:0:0:0:
40,288,80074,1,2,0:0:0:0:
131,288,80192,1,2,0:0:0:0:
327,196,80309,1,2,0:0:0:0:
419,194,80427,1,2,0:0:0:0:
328,194,80545,1,2,0:0:0:0:
105,181,80662,1,2,0:0:0:0:
13,179,80780,1,2,0:0:0:0:
104,179,80897,1,2,0:0:0:0:
327,85,81015,1,0,0:0:0:0:
380,290,81368,5,2,0:0:0:0:
472,288,81486,1,2,0:0:0:0:
381,288,81603,1,2,0:0:0:0:
185,196,81721,1,2,0:0:0:0:
93,194,81839,1,2,0:0:0:0:
184,194,81956,1,2,0:0:0:0:
382,174,82074,2,0,L|447:174,1,49,2|0,0:0|0:0,0:0:0:0:
276,287,82250,2,0,L|200:285,1,49,0|0,0:0|0:0,0:0:0:0:
46,150,82427,2,0,L|181:148,1,98,0|0,0:0|0:0,0:0:0:0:
276,223,82780,6,0,L|320:218,4,24.5,2|0|0|0|0,0:1|0:0|0:0|0:0|0:0,0:0:0:0:
151,116,83133,2,0,L|195:111,4,24.5,0|0|0|0|2,0:0|0:0|0:0|0:0|0:1,0:0:0:0:
45,306,83486,2,0,P|125:261|29:123,1,294,8|0,0:0|0:0,0:0:0:0:
202,255,84192,6,0,L|380:256,1,147,2|0,0:1|0:0,0:0:0:0:
348,255,84545,2,0,L|132:254,1,176.399994616699,2|2,0:0|0:1,0:0:0:0:
172,254,84897,2,0,L|444:257,1,220.500008411408,8|0,0:0|0:0,0:0:0:0:
393,256,85250,2,0,L|21:253,1,294,0|0,0:0|0:0,0:0:0:0:
320,311,85603,6,0,B|465:279|465:279|463:132|463:132|303:103,1,441.000016822816,2|0,0:1|0:0,0:0:0:0:
164,147,86309,6,0,L|151:110,6,36.7500014019013,8|0|0|0|2|0|0,0:0|0:0|0:0|0:0|0:1|0:0|0:0,0:0:0:0:
326,78,86662,1,2,0:0:0:0:
386,77,86750,1,2,0:0:0:0:
326,78,86839,1,2,0:0:0:0:
386,77,86927,1,2,0:0:0:0:
145,82,87015,5,2,0:0:0:0:
63,83,87133,1,2,0:0:0:0:
145,82,87250,1,2,0:0:0:0:
331,202,87368,1,2,0:0:0:0:
413,202,87486,1,2,0:0:0:0:
331,202,87603,1,2,0:0:0:0:
132,215,87721,2,0,L|208:215,1,49,2|0,0:0|0:0,0:0:0:0:
381,98,87897,2,0,L|320:98,1,49,0|0,0:0|0:0,0:0:0:0:
174,98,88074,1,2,0:0:0:0:
323,95,88250,1,2,0:0:0:0:
37,127,88427,5,2,0:1:0:0:
179,125,88603,1,2,0:1:0:0:
322,124,88780,1,2,0:1:0:0:
464,124,88956,1,2,0:1:0:0:
99,191,89133,5,2,0:0:0:0:
414,193,89309,1,2,0:0:0:0:
174,280,89486,1,2,0:0:0:0:
336,277,89662,1,2,0:0:0:0:
174,280,89839,6,0,L|331:278,1,147,2|0,0:1|0:0,0:0:0:0:
171,195,90192,2,0,L|14:193,1,147,2|0,0:1|0:0,0:0:0:0:
224,128,90545,5,4,0:3:0:0:
29,130,90897,1,4,0:3:0:0:
282,322,91250,6,0,P|339:288|341:208,1,107.800003289795,6|0,0:1|0:0,0:0:0:0:
154,156,91515,2,0,L|78:156,2,53.9000016448975,0|2|0,0:0|0:1|0:0,0:0:0:0:
326,159,91780,2,0,L|172:157,1,107.800003289795,2|2,0:0|0:1,0:0:0:0:
387,160,92045,2,0,L|463:160,2,53.9000016448975,0|0|0,0:0|0:0|0:0,0:0:0:0:
224,293,92309,2,0,L|214:225,1,53.9000016448975,2|0,0:1|0:0,0:0:0:0:
293,183,92486,2,0,L|303:115,1,53.9000016448975,2|0,0:0|0:0,0:0:0:0:
130,219,92662,6,0,P|81:177|99:111,1,107.800003289795,2|0,0:1|0:0,0:0:0:0:
239,273,92927,1,0,0:0:0:0:
246,219,93015,1,2,0:1:0:0:
253,165,93103,1,0,0:0:0:0:
407,217,93192,2,0,P|456:175|438:109,1,107.800003289795,2|2,0:0|0:1,0:0:0:0:
245,70,93456,1,0,0:0:0:0:
191,77,93545,1,0,0:0:0:0:
137,84,93633,1,0,0:0:0:0:
315,166,93721,2,0,L|391:168,1,53.9000016448975,2|0,0:1|0:0,0:0:0:0:
146,255,93897,2,0,L|70:257,1,53.9000016448975,2|0,0:0|0:0,0:0:0:0:
314,313,94074,6,0,P|363:286|364:222,1,107.800003289795,2|0,0:1|0:0,0:0:0:0:
298,205,94339,1,0,0:0:0:0:
141,207,94427,2,0,L|136:114,1,53.9000016448975,2|0,0:1|0:0,0:0:0:0:
328,181,94603,2,0,P|377:154|378:90,1,107.800003289795,2|2,0:0|0:1,0:0:0:0:
312,73,94868,1,0,0:0:0:0:
155,75,94956,2,0,L|75:73,1,53.9000016448975,0|0,0:0|0:0,0:0:0:0:
291,265,95133,2,0,L|363:263,1,53.9000016448975,2|0,0:1|0:0,0:0:0:0:
261,184,95309,2,0,L|181:187,1,53.9000016448975,2|0,0:0|0:0,0:0:0:0:
423,324,95486,5,2,0:1:0:0:
449,277,95574,1,0,0:0:0:0:
428,227,95662,1,0,0:0:0:0:
377,208,95750,1,0,0:0:0:0:
185,160,95839,1,2,0:1:0:0:
238,158,95927,1,0,0:0:0:0:
291,157,96015,1,2,0:0:0:0:
344,156,96103,1,0,0:0:0:0:
189,327,96192,2,0,L|170:250,1,53.9000016448975,2|0,0:1|0:0,0:0:0:0:
323,327,96368,2,0,L|342:250,1,53.9000016448975,2|0,0:0|0:0,0:0:0:0:
162,198,96545,2,0,L|84:199,1,53.9000016448975,2|0,0:1|0:0,0:0:0:0:
350,198,96721,2,0,L|428:199,1,53.9000016448975,2|0,0:0|0:0,0:0:0:0:
166,272,96897,6,0,L|43:272,1,107.800003289795,2|2,0:1|0:0,0:0:0:0:
243,192,97162,2,0,L|327:192,2,53.9000016448975,2|2|0,0:0|0:1|0:0,0:0:0:0:
135,48,97427,2,0,L|12:48,1,107.800003289795,2|2,0:0|0:1,0:0:0:0:
240,89,97692,2,0,L|324:89,2,53.9000016448975,0|0|0,0:0|0:0|0:0,0:0:0:0:
417,224,97956,2,0,L|485:224,1,53.9000016448975,2|0,0:1|0:0,0:0:0:0:
275,311,98133,2,0,L|189:309,1,53.9000016448975,2|0,0:0|0:0,0:0:0:0:
424,321,98309,6,0,P|446:268|401:203,1,107.800003289795,2|2,0:1|0:0,0:0:0:0:
247,168,98574,1,2,0:0:0:0:
193,164,98662,1,2,0:1:0:0:
139,161,98750,1,0,0:0:0:0:
340,273,98839,2,0,L|493:259,1,107.800003289795,2|2,0:0|0:1,0:0:0:0:
207,90,99103,2,0,L|136:83,2,53.9000016448975,0|0|0,0:0|0:0|0:0,0:0:0:0:
369,201,99368,2,0,L|453:192,1,53.9000016448975,2|0,0:1|0:0,0:0:0:0:
218,256,99545,2,0,L|134:247,1,53.9000016448975,2|0,0:0|0:0,0:0:0:0:
407,342,99721,6,0,L|422:211,1,107.800003289795,2|0,0:1|0:0,0:0:0:0:
344,231,99986,1,0,0:0:0:0:
161,237,100074,2,0,L|145:159,1,53.9000016448975,2|0,0:1|0:0,0:0:0:0:
347,133,100250,2,0,L|481:132,1,107.800003289795,2|0,0:0|0:0,0:0:0:0:
383,130,100515,1,0,0:0:0:0:
202,133,100603,2,0,L|118:135,1,53.9000016448975,0|0,0:0|0:0,0:0:0:0:
361,309,100780,2,0,L|463:305,1,53.9000016448975,2|0,0:1|0:0,0:0:0:0:
211,238,100956,2,0,L|114:242,1,53.9000016448975,2|0,0:0|0:0,0:0:0:0:
351,253,101133,6,0,P|394:210|363:147,1,107.800003289795,2|0,0:1|0:0,0:0:0:0:
309,165,101397,1,0,0:0:0:0:
146,164,101486,2,0,L|75:165,1,53.9000016448975,2|0,0:1|0:0,0:0:0:0:
311,41,101662,2,0,L|382:42,1,53.9000016448975,2|0,0:0|0:0,0:0:0:0:
113,266,101839,2,0,L|302:266,1,161.700004934693,2|2,0:1|0:0,0:0:0:0:
24,147,102192,2,0,L|132:148,1,107.800003289795,2|2,0:1|0:0,0:0:0:0:
390,330,102545,5,6,0:1:0:0:
425,290,102633,1,0,0:0:0:0:
410,238,102721,1,0,0:0:0:0:
364,210,102809,1,0,0:0:0:0:
199,204,102897,1,2,0:1:0:0:
174,155,102986,1,0,0:0:0:0:
198,107,103074,1,2,0:0:0:0:
250,96,103162,1,0,0:0:0:0:
401,199,103250,2,0,L|488:197,1,53.9000016448975,2|0,0:1|0:0,0:0:0:0:
375,124,103427,2,0,L|314:125,1,53.9000016448975,0|0,0:0|0:0,0:0:0:0:
111,199,103603,2,0,L|24:197,1,53.9000016448975,2|0,0:1|0:0,0:0:0:0:
242,299,103780,2,0,L|303:300,1,53.9000016448975,2|0,0:0|0:0,0:0:0:0:
111,287,103956,5,2,0:1:0:0:
68,253,104045,1,0,0:0:0:0:
64,199,104133,1,0,0:0:0:0:
98,158,104221,1,0,0:0:0:0:
261,203,104309,1,2,0:1:0:0:
311,184,104397,1,0,0:0:0:0:
342,139,104486,1,2,0:0:0:0:
347,85,104574,1,0,0:0:0:0:
177,64,104662,1,2,0:1:0:0:
116,65,104750,1,0,0:0:0:0:
116,65,104839,1,0,0:0:0:0:
177,64,104927,1,0,0:0:0:0:
394,69,105015,2,0,L|321:68,1,53.9000016448975,2|0,0:1|0:0,0:0:0:0:
173,152,105192,2,0,L|102:152,1,53.9000016448975,2|0,0:0|0:0,0:0:0:0:
342,332,105368,5,2,0:1:0:0:
389,306,105456,1,0,0:0:0:0:
416,259,105545,1,0,0:0:0:0:
403,206,105633,1,0,0:0:0:0:
242,143,105721,2,0,L|155:143,3,53.9000016448975,2|0|2|0,0:1|0:0|0:0|0:0,0:0:0:0:
393,173,106074,1,2,0:1:0:0:
429,133,106162,1,0,0:0:0:0:
407,83,106250,1,0,0:0:0:0:
353,71,106339,1,0,0:0:0:0:
177,66,106427,2,0,L|111:68,1,53.9000016448975,2|0,0:1|0:0,0:0:0:0:
326,221,106603,2,0,L|406:220,1,53.9000016448975,2|0,0:0|0:0,0:0:0:0:
160,288,106780,5,2,0:1:0:0:
116,255,106868,1,0,0:0:0:0:
108,201,106956,1,0,0:0:0:0:
146,162,107045,1,0,0:0:0:0:
306,155,107133,2,0,L|379:156,3,53.9000016448975,2|0|2|0,0:1|0:0|0:0|0:0,0:0:0:0:
176,296,107486,2,0,L|171:224,1,53.9000016448975,2|0,0:1|0:0,0:0:0:0:
357,187,107662,2,0,L|362:115,1,53.9000016448975,2|0,0:0|0:0,0:0:0:0:
269,188,107839,2,8,L|264:116,1,53.9000016448975,2|0,0:1|0:0,0:0:0:0:
450,79,108015,2,0,L|455:7,1,53.9000016448975,2|0,0:0|0:0,0:0:0:0:
251,73,108192,5,6,0:1:0:0:
105,73,108368,1,2,0:1:0:0:
261,73,108545,1,2,0:1:0:0:
407,73,108721,1,2,0:1:0:0:
172,144,108897,5,2,0:1:0:0:
24,146,109074,1,2,0:1:0:0:
172,144,109250,1,2,0:1:0:0:
24,146,109427,1,2,0:1:0:0:
261,73,109603,5,6,0:1:0:0:
407,73,109780,1,2,0:1:0:0:
251,73,109956,1,2,0:1:0:0:
105,73,110133,1,2,0:1:0:0:
345,144,110309,5,2,0:1:0:0:
491,146,110486,1,2,0:1:0:0:
345,144,110662,1,2,0:1:0:0:
491,146,110839,1,2,0:1:0:0:
93,293,111015,5,4,3:1:0:0:
78,241,111103,1,0,3:0:0:0:
110,197,111192,1,0,3:0:0:0:
163,190,111280,1,0,3:0:0:0:
363,195,111368,2,0,L|295:193,1,53.9000016448975,0|0,3:0|3:0,0:0:0:0:
163,190,111545,2,0,L|64:187,1,53.9000016448975,0|0,3:0|3:0,0:0:0:0:
419,293,111721,5,4,3:1:0:0:
434,241,111809,1,0,3:0:0:0:
402,197,111897,1,0,3:0:0:0:
349,190,111986,1,0,3:0:0:0:
149,195,112074,2,0,L|217:193,1,53.9000016448975,0|0,3:0|3:0,0:0:0:0:
349,190,112250,2,0,L|448:187,1,53.9000016448975,0|0,3:0|3:0,0:0:0:0:
193,331,112427,6,0,L|181:259,1,53.9000016448975,4|0,3:1|3:0,0:0:0:0:
338,329,112603,2,0,L|350:257,1,53.9000016448975,0|0,3:0|3:0,0:0:0:0:
169,332,112780,2,0,L|157:260,1,53.9000016448975,4|0,3:1|3:0,0:0:0:0:
319,331,112956,2,0,L|331:259,1,53.9000016448975,0|0,3:0|3:0,0:0:0:0:
150,199,113133,6,0,L|68:198,1,53.9000016448975,4|0,3:1|3:0,0:0:0:0:
362,199,113309,2,0,L|444:198,1,53.9000016448975,0|0,3:0|3:0,0:0:0:0:
129,100,113486,2,0,L|47:99,1,53.9000016448975,4|0,3:1|3:0,0:0:0:0:
384,97,113662,2,0,L|466:96,1,53.9000016448975,0|0,3:0|3:0,0:0:0:0:
162,104,113839,5,6,0:1:0:0:
421,243,114192,1,2,0:1:0:0:
302,156,114368,1,2,0:1:0:0:
57,224,114545,1,6,0:1:0:0:
91,243,114897,1,2,0:1:0:0:
210,156,115074,1,2,0:1:0:0:
455,224,115250,5,6,0:1:0:0:
421,243,115603,1,2,0:1:0:0:
302,156,115780,1,2,0:1:0:0:
57,224,115956,1,6,0:1:0:0:
472,224,116309,1,6,0:1:0:0:
170,222,116662,5,6,0:1:0:0:
331,228,117015,1,2,0:1:0:0:
179,221,117192,1,2,0:1:0:0:
438,232,117368,1,6,0:1:0:0:
181,228,117721,1,2,0:1:0:0:
333,221,117897,1,2,0:1:0:0:
74,232,118074,5,6,0:1:0:0:
348,232,118427,1,2,0:1:0:0:
198,230,118603,1,2,0:1:0:0:
478,237,118780,2,0,L|478:205,1,24.5,6|0,0:1|0:0,0:0:0:0:
