osu file format v14

[General]
AudioFilename: audio.mp3
AudioLeadIn: 0
PreviewTime: 23397
Countdown: 0
SampleSet: Soft
StackLeniency: 0.4
Mode: 2
LetterboxInBreaks: 0
EpilepsyWarning: 1
WidescreenStoryboard: 1

[Editor]
DistanceSpacing: 1.5
BeatDivisor: 4
GridSize: 4
TimelineZoom: 1.9

[Metadata]
Title:Der Wald (kors k Remix)
TitleUnicode:Der Wald (kors k Remix)
Artist:Eleharmonica remixed by kors k
ArtistUnicode:エレハモニカ remixed by kors k
Creator:Cheesecake
Version:Reimu's Rain
Source:pop'n music 20 fantasia
Tags:darky1 xchorse mithew jace rlc lasse hareimu spectator ascendance popn twenty mzd taku sakakibara seiya murai kosuke saito dark opera ダークオペラ the forest
BeatmapID:1522918
BeatmapSetID:581787

[Difficulty]
HPDrainRate:5
CircleSize:4.3
OverallDifficulty:9
ApproachRate:9
SliderMultiplier:1.8
SliderTickRate:2

[Events]
//Background and Video events
0,0,"der wald.jpg",0,0
//Break Periods
//Storyboard Layer 0 (Background)
//Storyboard Layer 1 (Fail)
//Storyboard Layer 2 (Pass)
//Storyboard Layer 3 (Foreground)
Sprite,Foreground,Centre,"sb\Naxess_3.png",0,0 M,0,43339,,524,400 C,0,43339,,191,255,0 S,30,43339,43516,0,1 P,0,43339,45724,A F,0,44662,45724,1,0
Sprite,Foreground,Centre,"sb\Naxess_3.png",0,0 M,0,43427,,547,400 C,0,43427,,212,255,0 S,30,43427,43604,0,1 P,0,43427,45724,A F,0,44662,45724,1,0
Sprite,Foreground,Centre,"sb\Naxess_3.png",0,0 M,0,43515,,556,400 C,0,43515,,233,255,0 S,30,43515,43692,0,1 P,0,43515,45724,A F,0,44662,45724,1,0
Sprite,Foreground,Centre,"sb\Naxess_3.png",0,0 M,0,43603,,547,400 C,0,43603,,255,255,0 S,30,43603,43780,0,1 P,0,43603,45724,A F,0,44662,45724,1,0
Sprite,Foreground,Centre,"sb\Naxess_3.png",0,0 M,0,43692,,524,400 C,0,43692,,255,233,0 S,30,43692,43869,0,1 P,0,43692,45724,A F,0,44662,45724,1,0
Sprite,Foreground,Centre,"sb\Naxess_3.png",0,0 M,0,43780,,486,400 C,0,43780,,255,212,0 S,30,43780,43957,0,1 P,0,43780,45724,A F,0,44662,45724,1,0
Sprite,Foreground,Centre,"sb\Naxess_3.png",0,0 M,0,43868,,434,400 C,0,43868,,255,191,0 S,30,43868,44045,0,1 P,0,43868,45724,A F,0,44662,45724,1,0
Sprite,Foreground,Centre,"sb\Naxess_3.png",0,0 M,0,43956,,226,400 C,0,43956,,255,170,0 S,30,43956,44133,0,1 P,0,43956,45724,A F,0,44662,45724,1,0
Sprite,Foreground,Centre,"sb\Naxess_3.png",0,0 M,0,44045,,187,400 C,0,44045,,255,148,0 S,30,44045,44222,0,1 P,0,44045,45724,A F,0,44662,45724,1,0
Sprite,Foreground,Centre,"sb\Naxess_3.png",0,0 M,0,44133,,194,400 C,0,44133,,255,127,0 S,30,44133,44310,0,1 P,0,44133,45724,A F,0,44662,45724,1,0
Sprite,Foreground,Centre,"sb\Naxess_3.png",0,0 M,0,44221,,245,400 C,0,44221,,255,106,0 S,30,44221,44398,0,1 P,0,44221,45724,A F,0,44662,45724,1,0
Sprite,Foreground,Centre,"sb\Naxess_3.png",0,0 M,0,44309,,447,400 C,0,44309,,255,84,0 S,30,44309,44486,0,1 P,0,44309,45724,A F,0,44662,45724,1,0
Sprite,Foreground,Centre,"sb\Naxess_3.png",0,0 M,0,44397,,497,400 C,0,44397,,255,63,0 S,30,44397,44574,0,1 P,0,44397,45724,A F,0,44662,45724,1,0
Sprite,Foreground,Centre,"sb\Naxess_3.png",0,0 M,0,44486,,528,400 C,0,44486,,255,42,0 S,30,44486,44663,0,1 P,0,44486,45724,A F,0,44662,45724,1,0
Sprite,Foreground,Centre,"sb\Naxess_3.png",0,0 M,0,44574,,534,400 C,0,44574,,255,21,0 S,30,44574,44751,0,1 P,0,44574,45724,A F,0,44662,45724,1,0
Sprite,Foreground,Centre,"sb\CircleHalf.png",222,400 F,0,92661,93723,1,0 S,7,92661,93723,0.5,4 P,0,92661,93723,A
Sprite,Foreground,Centre,"sb\CircleHalf.png",417,400 F,0,94073,95135,1,0 S,7,94073,95135,0.5,4 P,0,94073,95135,A
Sprite,Foreground,Centre,"sb\CircleHalf.png",426,400 F,0,95485,96547,1,0 S,7,95485,96547,0.5,4 P,0,95485,96547,A
Sprite,Foreground,Centre,"sb\CircleHalf.png",224,400 F,0,96897,97959,1,0 S,7,96897,97959,0.5,4 P,0,96897,97959,A
Sprite,Foreground,Centre,"sb\CircleHalf.png",195,400 F,0,98308,99370,1,0 S,7,98308,99370,0.5,4 P,0,98308,99370,A
Sprite,Foreground,Centre,"sb\CircleHalf.png",279,400 F,0,99720,100782,1,0 S,7,99720,100782,0.5,4 P,0,99720,100782,A
Sprite,Foreground,Centre,"sb\CircleHalf.png",397,400 F,0,101132,102194,1,0 S,7,101132,102194,0.5,4 P,0,101132,102194,A
Sprite,Foreground,Centre,"sb\CircleHalf.png",448,400 F,0,102544,103606,1,0 S,7,102544,103606,0.5,4 P,0,102544,103606,A
Sprite,Foreground,Centre,"sb\CircleHalf.png",192,400 F,0,103955,105017,1,0 S,7,103955,105017,0.5,4 P,0,103955,105017,A
Sprite,Foreground,Centre,"sb\CircleHalf.png",260,400 F,0,105367,106429,1,0 S,7,105367,106429,0.5,4 P,0,105367,106429,A
Sprite,Foreground,Centre,"sb\CircleHalf.png",448,400 F,0,106779,107841,1,0 S,7,106779,107841,0.5,4 P,0,106779,107841,A
Sprite,Foreground,Centre,"sb\CircleHalf.png",237,400 F,0,108191,109253,1,0 S,7,108191,109253,0.5,4 P,0,108191,109253,A
Sprite,Foreground,Centre,"sb\CircleHalf.png",403,400 F,0,109603,110665,1,0 S,7,109603,110665,0.5,4 P,0,109603,110665,A
Sprite,Foreground,Centre,"sb\CircleHalf.png",278,400 F,0,111015,112077,1,0 S,7,111015,112077,0.5,4 P,0,111015,112077,A
Sprite,Foreground,Centre,"sb\CircleHalf.png",131,400 F,0,111721,112783,1,0 S,7,111721,112783,0.5,4 P,0,111721,112783,A
Sprite,Foreground,Centre,"sb\CircleHalf.png",465,400 F,0,112427,113489,1,0 S,7,112427,113489,0.5,4 P,0,112427,113489,A
Sprite,Foreground,Centre,"sb\CircleHalf.png",175,400 F,0,112780,113842,1,0 S,7,112780,113842,0.5,4 P,0,112780,113842,A
Sprite,Foreground,Centre,"sb\CircleHalf.png",465,400 F,0,113133,114195,1,0 S,7,113133,114195,0.5,4 P,0,113133,114195,A
Sprite,Foreground,Centre,"sb\CircleHalf.png",175,400 F,0,113486,114548,1,0 S,7,113486,114548,0.5,4 P,0,113486,114548,A
Sprite,Foreground,Centre,"sb\Naxess_3.png",510,400 C,0,113839,,105,47,225 S,30,113839,114191,0,1.5 F,2,113839,114544,1,0
Sprite,Foreground,Centre,"sb\Naxess_3.png",320,400 C,0,114192,,105,47,225 S,30,114192,114544,0,1.5 F,2,114192,114897,1,0
Sprite,Foreground,Centre,"sb\Naxess_3.png",418,400 C,0,114368,,105,47,225 S,30,114368,114720,0,1.5 F,2,114368,115073,1,0
Sprite,Foreground,Centre,"sb\Naxess_3.png",130,400 C,0,114545,,105,47,225 S,30,114545,114897,0,1.5 F,2,114545,115250,1,0
Sprite,Foreground,Centre,"sb\Naxess_3.png",320,400 C,0,114897,,105,47,225 S,30,114897,115249,0,1.5 F,2,114897,115602,1,0
Sprite,Foreground,Centre,"sb\Naxess_3.png",221,400 C,0,115074,,105,47,225 S,30,115074,115426,0,1.5 F,2,115074,115779,1,0
Sprite,Foreground,Centre,"sb\Naxess_3.png",496,400 C,0,115250,,221,52,28 S,30,115250,115602,0,1.5 F,2,115250,115955,1,0
Sprite,Foreground,Centre,"sb\Naxess_3.png",369,400 C,0,115780,,221,52,28 S,30,115780,116132,0,1.5 F,2,115780,116485,1,0
Sprite,Foreground,Centre,"sb\Naxess_3.png",505,400 C,0,115956,,221,52,28 S,30,115956,116308,0,1.5 F,2,115956,116661,1,0
Sprite,Foreground,Centre,"sb\Naxess_3.png",97,400 C,0,116309,,221,52,28 S,30,116309,116661,0,1.5 F,2,116309,117014,1,0
Sprite,Foreground,Centre,"sb\Naxess_3.png",532,400 C,0,116662,,147,34,221 S,30,116662,117014,0,1.5 F,2,116662,117367,1,0
Sprite,Foreground,Centre,"sb\Naxess_3.png",320,400 C,0,117015,,147,34,221 S,30,117015,117367,0,1.5 F,2,117015,117720,1,0
Sprite,Foreground,Centre,"sb\Naxess_3.png",418,400 C,0,117192,,147,34,221 S,30,117192,117544,0,1.5 F,2,117192,117897,1,0
Sprite,Foreground,Centre,"sb\Naxess_3.png",108,400 C,0,117368,,147,34,221 S,30,117368,117720,0,1.5 F,2,117368,118073,1,0
Sprite,Foreground,Centre,"sb\Naxess_3.png",320,400 C,0,117721,,147,34,221 S,30,117721,118073,0,1.5 F,2,117721,118426,1,0
Sprite,Foreground,Centre,"sb\Naxess_3.png",221,400 C,0,117897,,147,34,221 S,30,117897,118249,0,1.5 F,2,117897,118602,1,0
Sprite,Foreground,Centre,"sb\Naxess_3.png",532,400 C,0,118074,,239,104,14 S,30,118074,118426,0,1.5 F,2,118074,118779,1,0
Sprite,Foreground,Centre,"sb\Naxess_3.png",0,400 C,0,118603,,239,104,14 MX,0,118603,,435 S,30,118603,118955,0,1.5 F,2,118603,119308,1,0 MX,0,118780,,-300
Sprite,Foreground,Centre,"sb\Naxess_3.png",0,400 MX,0,118780,,-300 C,0,118956,,239,104,14 MX,0,118956,,320 S,30,118956,119308,0,1.5 F,2,118956,119661,1,0
Sprite,Foreground,Centre,"sb\CircleHalf.png",137,400 F,0,89133,89841,1,0 S,22,89133,89841,0,4
Sprite,Foreground,Centre,"sb\CircleHalf.png",294,400 F,0,89309,90017,1,0 S,22,89309,90017,0,4
Sprite,Foreground,Centre,"sb\CircleHalf.png",158,400 F,0,89486,90194,1,0 S,22,89486,90194,0,4
Sprite,Foreground,Centre,"sb\CircleHalf.png",247,400 F,0,89662,90370,1,0 S,22,89662,90370,0,4
Sprite,Foreground,Centre,"sb\CircleHalf.png",541,400 F,0,89839,90547,1,0 S,22,89839,90547,0,4
Sprite,Foreground,TopLeft,"sb\pixel.png",0,130 V,4,12198,12375,0,0.2,15,0.2 MX,0,12198,15022,100,130 F,0,15022,15199,0.5,0 MX,4,15022,15199,130,280 V,4,15022,15199,15,0.2,0,0.2
Sprite,Foreground,BottomLeft,"sb\MapHareimu.png",0,130 MX,0,12198,15022,125,140 V,0,12286,12375,0.5,0,0.5,0.5 F,0,14491,15022,0.5,0
//Storyboard Sound Samples

[TimingPoints]
898,352.941176470588,4,2,1,40,1,0
12192,-100,4,2,1,50,0,0
23486,-100,4,2,1,60,0,0
44662,-100,4,2,1,70,0,0
46074,-100,4,2,1,70,0,1
68662,-100,4,2,1,70,0,0
91250,-100,4,2,1,70,0,1
113839,-100,4,2,1,70,0,0
119486,-100,4,2,1,55,0,0
120192,-100,4,2,1,40,0,0
120897,-100,4,2,1,25,0,0
121603,-100,4,2,1,5,0,0

[Colours]
Combo1 : 147,34,221
Combo2 : 239,104,14
Combo3 : 105,47,225
Combo4 : 221,52,28

[HitObjects]
256,192,192,5,0,0:0:0:0:
256,192,280,1,0,0:0:0:0:
256,192,368,1,0,0:0:0:0:
404,297,898,5,0,0:0:0:0:
470,231,1074,1,0,0:0:0:0:
456,144,1250,1,0,0:0:0:0:
366,141,1427,1,0,0:0:0:0:
186,144,1603,2,0,L|280:143,1,90,2|0,0:0|0:0,0:0:0:0:
434,281,1956,2,0,L|342:281,1,90,2|0,0:0|0:0,0:0:0:0:
209,281,2309,6,0,L|191:186,1,90
316,246,2662,2,0,L|307:154,1,90
150,66,3015,2,0,L|252:66,1,90,2|0,0:0|0:0,0:0:0:0:
398,101,3368,2,0,L|488:101,1,90,2|0,0:0|0:0,0:0:0:0:
108,297,3721,5,0,0:0:0:0:
42,231,3897,1,0,0:0:0:0:
56,144,4074,1,0,0:0:0:0:
146,141,4250,1,0,0:0:0:0:
327,143,4427,2,0,L|416:144,2,90,2|0|2,0:0|0:0|0:0,0:0:0:0:
169,179,4956,1,0,0:0:0:0:
327,143,5133,6,0,L|235:143,1,90,0|0,0:0|0:0,0:0:0:0:
79,180,5486,2,0,L|35:277,1,90,0|0,0:0|0:0,0:0:0:0:
223,265,5839,1,0,0:0:0:0:
62,269,6015,2,0,L|49:223,1,45,2|2,0:0|0:0,0:0:0:0:
62,269,6192,2,0,L|157:268,1,90,2|0,0:0|0:0,0:0:0:0:
404,297,6545,5,0,0:0:0:0:
470,231,6721,1,0,0:0:0:0:
456,144,6897,1,0,0:0:0:0:
366,141,7074,1,0,0:0:0:0:
209,176,7250,2,0,L|119:176,1,90,2|0,0:0|0:0,0:0:0:0:
300,178,7603,2,0,L|393:178,1,90,2|0,0:0|0:0,0:0:0:0:
255,178,7956,6,0,L|239:267,1,90,0|0,0:0|0:0,0:0:0:0:
402,266,8309,2,0,L|308:267,1,90,0|0,0:0|0:0,0:0:0:0:
493,266,8662,2,0,L|479:175,1,90,2|0,0:0|0:0,0:0:0:0:
322,138,9015,1,2,0:0:0:0:
480,178,9192,1,0,0:0:0:0:
166,179,9368,6,0,L|154:87,1,90,0|0,0:0|0:0,0:0:0:0:
290,87,9721,2,0,L|302:179,1,90,0|0,0:0|0:0,0:0:0:0:
482,294,10074,2,0,L|458:110,1,180,2|2,0:0|0:0,0:0:0:0:
301,151,10603,1,0,0:0:0:0:
460,116,10780,6,0,L|368:116,1,90,0|0,0:0|0:0,0:0:0:0:
212,151,11133,2,0,L|117:152,1,90,0|0,0:0|0:0,0:0:0:0:
370,268,11486,1,0,0:0:0:0:
212,237,11662,2,0,L|198:185,2,45,2|2|2,0:0|0:0|0:0,0:0:0:0:
370,268,12015,1,0,0:0:0:0:
100,272,12192,6,0,L|119:175,1,90,0|0,0:0|0:0,0:0:0:0:
253,183,12545,2,0,L|369:185,1,90,0|0,0:0|0:0,0:0:0:0:
164,179,12897,2,0,P|105:233|166:290,1,180,2|2,0:0|0:0,0:0:0:0:
254,291,13427,1,0,0:0:0:0:
410,248,13603,6,0,L|424:152,1,90,0|0,0:0|0:0,0:0:0:0:
265,121,13956,2,0,L|251:217,1,90
441,215,14309,2,0,P|487:135|415:72,1,180,2|2,0:0|0:0,0:0:0:0:
393,76,14750,1,0,0:0:0:0:
347,78,14839,1,0,0:0:0:0:
100,186,15015,5,0,0:0:0:0:
144,185,15103,1,0,0:0:0:0:
212,182,15192,1,0,0:0:0:0:
77,278,15368,1,0,0:0:0:0:
121,279,15456,1,0,0:0:0:0:
189,282,15545,1,0,0:0:0:0:
368,285,15721,1,2,0:0:0:0:
324,284,15809,1,0,0:0:0:0:
256,281,15897,1,0,0:0:0:0:
124,181,16074,1,2,0:0:0:0:
168,180,16162,1,0,0:0:0:0:
236,177,16250,1,0,0:0:0:0:
392,265,16427,6,0,L|483:265,1,90,0|0,0:0|0:0,0:0:0:0:
324,155,16780,2,0,L|420:157,1,90,0|0,0:0|0:0,0:0:0:0:
234,230,17133,1,0,0:0:0:0:
380,232,17309,1,2,0:0:0:0:
308,232,17397,1,2,0:0:0:0:
234,230,17486,1,2,0:0:0:0:
414,230,17662,1,0,0:0:0:0:
144,230,17839,6,0,L|48:229,3,90,0|0|0|0,0:0|0:0|0:0|0:0,0:0:0:0:
236,228,18545,2,0,P|304:154|277:88,1,180,2|2,0:0|0:0,0:0:0:0:
188,141,19074,1,0,0:0:0:0:
368,154,19250,6,0,L|457:154,1,90,0|0,0:0|0:0,0:0:0:0:
323,230,19603,1,0,0:0:0:0:
368,229,19692,1,0,0:0:0:0:
436,229,19780,1,0,0:0:0:0:
256,229,19956,1,2,0:0:0:0:
211,228,20045,1,0,0:0:0:0:
144,228,20133,1,0,0:0:0:0:
280,157,20309,1,2,0:0:0:0:
235,158,20397,1,0,0:0:0:0:
168,156,20486,1,0,0:0:0:0:
439,97,20662,6,0,L|468:143,2,45,2|0|0,0:0|0:0|0:0,0:0:0:0:
304,93,21015,1,0,0:0:0:0:
260,92,21103,1,0,0:0:0:0:
215,92,21192,1,0,0:0:0:0:
34,295,21368,2,0,L|221:294,1,180,2|0,0:0|0:0,0:0:0:0:
305,294,21897,1,0,0:0:0:0:
125,294,22074,6,0,L|35:292,1,90,2|0,0:0|0:0,0:0:0:0:
171,288,22427,2,0,L|104:224,1,90,0|0,0:0|0:0,0:0:0:0:
286,205,22780,2,0,L|266:107,1,90,2|0,0:0|0:0,0:0:0:0:
404,113,23133,2,0,L|424:211,1,90,2|0,0:0|0:0,0:0:0:0:
130,204,23486,6,0,P|85:160|159:93,1,180,2|8,0:1|0:0,0:0:0:0:
288,93,24015,2,0,L|308:138,2,45,0|0|0,0:0|0:0|0:0,0:0:0:0:
153,93,24368,1,2,0:1:0:0:
334,275,24545,1,8,0:0:0:0:
379,275,24633,1,0,0:0:0:0:
424,275,24721,1,0,0:0:0:0:
177,99,24897,5,2,0:1:0:0:
133,98,24986,1,0,0:0:0:0:
88,98,25074,1,0,0:0:0:0:
268,99,25250,1,8,0:0:0:0:
313,99,25339,1,0,0:0:0:0:
358,98,25427,1,0,0:0:0:0:
268,285,25603,2,0,L|255:233,1,45,0|0,0:0|0:0,0:0:0:0:
336,219,25780,1,2,0:1:0:0:
157,218,25956,2,0,L|108:216,2,45,8|0|0,0:0|0:0|0:0,0:0:0:0:
428,221,26309,6,0,L|330:221,1,90,2|0,0:1|0:0,0:0:0:0:
180,257,26662,1,8,0:0:0:0:
338,215,26839,2,0,L|355:174,1,45,0|0,0:0|0:0,0:0:0:0:
338,101,27015,2,0,L|245:100,1,90,0|2,0:0|0:1,0:0:0:0:
91,141,27368,2,0,L|181:140,1,90,8|0,0:0|0:0,0:0:0:0:
429,250,27721,6,0,P|456:195|380:120,1,180,2|8,0:1|0:0,0:0:0:0:
293,120,28250,1,0,0:0:0:0:
339,121,28339,1,0,0:0:0:0:
384,120,28427,1,0,0:0:0:0:
227,156,28603,1,2,0:1:0:0:
385,195,28780,2,0,L|395:286,1,90,8|0,0:0|0:0,0:0:0:0:
125,280,29133,6,0,P|75:213|107:123,1,180,2|8,0:1|0:0,0:0:0:0:
193,125,29662,1,0,0:0:0:0:
351,164,29839,1,0,0:0:0:0:
396,163,29927,1,0,0:0:0:0:
318,143,30015,1,2,0:1:0:0:
138,146,30192,1,8,0:0:0:0:
93,146,30280,1,0,0:0:0:0:
77,187,30368,1,0,0:0:0:0:
419,114,30545,6,0,L|442:172,2,45,2|0|0,0:1|0:0|0:0,0:0:0:0:
258,111,30897,1,8,0:0:0:0:
303,111,30986,1,0,0:0:0:0:
348,111,31074,1,0,0:0:0:0:
190,237,31250,2,0,L|98:236,1,90,0|2,0:0|0:1,0:0:0:0:
334,275,31603,2,0,L|352:164,1,90,8|0,0:0|0:0,0:0:0:0:
100,125,31956,6,0,L|197:125,1,90,2|0,0:1|0:0,0:0:0:0:
32,236,32309,2,0,L|129:236,1,90,8|0,0:0|0:0,0:0:0:0:
285,236,32662,2,0,L|296:141,1,90,0|2,0:0|0:1,0:0:0:0:
453,188,33015,2,0,L|444:94,1,90,8|0,0:0|0:0,0:0:0:0:
167,101,33368,6,0,L|348:100,1,180,2|8,0:1|0:0,0:0:0:0:
190,243,33897,1,0,0:0:0:0:
353,242,34074,2,0,L|263:242,1,90,0|2,0:0|0:1,0:0:0:0:
101,243,34427,2,0,L|83:143,1,90,8|0,0:0|0:0,0:0:0:0:
356,147,34780,6,0,L|452:147,1,90,2|0,0:1|0:0,0:0:0:0:
289,197,35133,1,2,0:1:0:0:
446,237,35309,1,0,0:0:0:0:
288,202,35486,2,0,L|271:158,2,45,2|0|0,0:1|0:0|0:0,0:0:0:0:
446,237,35839,2,0,L|347:237,1,90,2|0,0:1|0:0,0:0:0:0:
61,235,36192,6,0,L|42:134,1,90,2|0,0:1|0:0,0:0:0:0:
316,143,36545,2,0,L|332:232,1,90,2|0,0:1|0:0,0:0:0:0:
197,233,36897,1,2,0:1:0:0:
189,188,36986,1,0,0:0:0:0:
180,144,37074,1,0,0:0:0:0:
451,142,37250,2,0,L|470:243,1,90,2|0,0:1|0:0,0:0:0:0:
156,147,37603,6,0,L|60:147,1,90,2|0,0:1|0:0,0:0:0:0:
223,197,37956,1,8,0:0:0:0:
66,237,38133,1,0,0:0:0:0:
224,202,38309,2,0,L|241:158,2,45,2|0|0,0:1|0:0|0:1,0:0:0:0:
66,237,38662,2,0,L|52:146,1,90,8|0,0:0|0:0,0:0:0:0:
302,244,39015,6,0,L|210:243,1,90,2|0,0:1|0:0,0:0:0:0:
458,99,39368,2,0,L|366:99,1,90,8|0,0:0|0:0,0:0:0:0:
210,99,39721,1,2,0:1:0:0:
255,99,39809,1,0,0:0:0:0:
300,99,39897,1,0,0:0:0:0:
54,285,40074,2,0,L|144:285,1,90,8|0,0:0|0:0,0:0:0:0:
437,228,40427,5,2,0:1:0:0:
347,228,40603,1,2,0:1:0:0:
470,178,40780,1,2,0:1:0:0:
314,178,40956,1,2,0:1:0:0:
437,228,41133,1,2,0:1:0:0:
393,229,41221,1,0,0:0:0:0:
347,228,41309,1,2,0:1:0:0:
470,178,41486,1,2,0:1:0:0:
347,228,41662,1,2,0:1:0:0:
75,228,41839,5,2,0:1:0:0:
165,228,42015,1,2,0:1:0:0:
42,178,42192,1,2,0:1:0:0:
198,178,42368,1,2,0:1:0:0:
75,228,42545,1,2,0:1:0:0:
119,229,42633,1,0,0:0:0:0:
165,228,42721,1,2,0:1:0:0:
42,178,42897,1,2,0:1:0:0:
165,228,43074,1,2,0:1:0:0:
414,33,43250,5,0,3:0:0:0:
460,70,43339,1,0,3:0:0:0:
483,113,43427,1,0,3:0:0:0:
492,161,43515,1,0,3:0:0:0:
483,207,43603,1,0,3:0:0:0:
460,251,43692,1,0,3:0:0:0:
422,287,43780,1,0,3:0:0:0:
370,291,43868,1,0,3:0:0:0:
162,291,43956,5,0,3:0:0:0:
123,265,44045,1,0,3:0:0:0:
130,220,44133,1,0,3:0:0:0:
181,204,44221,1,0,3:0:0:0:
383,195,44309,1,0,3:0:0:0:
433,174,44397,1,0,3:0:0:0:
464,141,44486,1,0,3:0:0:0:
470,96,44574,1,0,3:0:0:0:
218,222,44662,6,0,L|39:222,3,180,2|2|2|2,0:0|0:0|0:0|0:0,0:0:0:0:
129,212,45897,1,0,0:0:0:0:
484,304,46074,5,6,0:1:0:0:
492,259,46162,1,0,0:0:0:0:
489,214,46250,1,0,0:0:0:0:
478,171,46339,1,0,0:0:0:0:
457,131,46427,1,8,0:0:0:0:
428,96,46515,1,0,0:0:0:0:
393,68,46603,1,0,0:0:0:0:
353,49,46692,1,0,0:0:0:0:
309,38,46780,5,0,0:0:0:0:
265,36,46868,1,0,0:0:0:0:
211,38,46956,1,2,0:1:0:0:
153,38,47045,1,0,0:0:0:0:
353,95,47133,1,10,0:0:0:0:
443,95,47309,1,2,0:0:0:0:
149,144,47486,5,2,0:1:0:0:
97,151,47574,1,0,0:0:0:0:
63,180,47662,1,0,0:0:0:0:
53,224,47750,1,0,0:0:0:0:
245,251,47839,1,10,0:0:0:0:
283,223,47927,1,0,0:0:0:0:
277,181,48015,1,2,0:0:0:0:
225,171,48103,1,0,0:0:0:0:
407,263,48192,5,0,0:1:0:0:
451,238,48280,1,0,0:0:0:0:
476,201,48368,1,2,0:1:0:0:
485,158,48456,1,0,0:0:0:0:
477,114,48545,1,8,0:0:0:0:
454,76,48633,1,0,0:0:0:0:
411,62,48721,1,0,0:0:0:0:
357,62,48809,1,0,0:0:0:0:
165,63,48897,5,2,0:0:0:0:
128,87,48986,1,0,0:0:0:0:
135,131,49074,1,0,0:0:0:0:
186,146,49162,1,0,0:0:0:0:
244,146,49250,1,10,0:0:0:0:
236,101,49339,1,0,0:0:0:0:
212,64,49427,1,0,0:0:0:0:
174,40,49515,1,0,0:0:0:0:
123,55,49603,5,2,0:0:0:0:
167,55,49692,1,0,0:0:0:0:
211,55,49780,1,2,0:1:0:0:
255,54,49868,1,0,0:0:0:0:
468,137,49956,2,0,L|368:137,1,90,10|0,0:0|0:0,0:0:0:0:
93,88,50309,5,2,0:1:0:0:
59,116,50397,1,0,0:0:0:0:
52,160,50486,1,0,0:0:0:0:
75,197,50574,1,0,0:0:0:0:
256,203,50662,1,8,0:0:0:0:
300,202,50750,1,0,0:0:0:0:
345,202,50839,1,0,0:0:0:0:
390,202,50927,1,0,0:0:0:0:
209,207,51015,5,2,0:0:0:0:
182,172,51103,1,0,0:0:0:0:
192,129,51192,1,2,0:1:0:0:
230,109,51280,1,0,0:0:0:0:
412,115,51368,1,10,0:0:0:0:
438,150,51456,1,0,0:0:0:0:
428,192,51545,1,0,0:0:0:0:
390,213,51633,1,0,0:0:0:0:
189,337,51721,5,2,0:1:0:0:
136,336,51809,1,0,0:0:0:0:
91,325,51897,1,0,0:0:0:0:
58,294,51986,1,0,0:0:0:0:
35,254,52074,1,8,0:0:0:0:
27,209,52162,1,0,0:0:0:0:
211,241,52250,1,0,0:0:0:0:
222,198,52339,1,0,0:0:0:0:
27,209,52427,5,0,0:0:0:0:
24,164,52515,1,0,0:0:0:0:
33,119,52603,1,2,0:1:0:0:
56,78,52692,1,0,0:0:0:0:
89,44,52780,1,8,0:0:0:0:
134,30,52868,1,0,0:0:0:0:
188,27,52956,1,0,0:0:0:0:
251,26,53045,1,0,0:0:0:0:
429,62,53133,5,2,0:1:0:0:
463,92,53221,1,0,0:0:0:0:
474,135,53309,1,0,0:0:0:0:
463,179,53397,1,0,0:1:0:0:
430,208,53486,1,8,0:0:0:0:
385,208,53574,1,0,0:0:0:0:
332,209,53662,1,0,0:0:0:0:
270,209,53750,1,0,0:0:0:0:
204,210,53839,5,0,0:0:0:0:
250,210,53927,1,0,0:0:0:0:
295,208,54015,1,2,0:1:0:0:
337,209,54103,1,0,0:0:0:0:
163,96,54192,2,0,L|67:96,1,90,10|2,0:0|0:0,0:0:0:0:
432,134,54545,5,2,0:1:0:0:
450,175,54633,1,0,0:0:0:0:
443,219,54721,1,0,0:0:0:0:
405,252,54809,1,0,0:0:0:0:
248,205,54897,1,8,0:0:0:0:
215,175,54986,1,0,0:0:0:0:
223,131,55074,1,0,0:0:0:0:
275,119,55162,1,0,0:0:0:0:
94,42,55250,5,0,0:0:0:0:
51,81,55339,1,0,0:0:0:0:
28,129,55427,1,2,0:1:0:0:
19,182,55515,1,0,0:0:0:0:
25,234,55603,1,8,0:0:0:0:
46,282,55692,1,0,0:0:0:0:
80,323,55780,1,0,0:0:0:0:
133,354,55868,1,0,0:0:0:0:
315,64,55956,5,2,0:1:0:0:
359,71,56045,1,0,0:0:0:0:
400,90,56133,1,0,0:0:0:0:
434,119,56221,1,0,0:0:0:0:
458,158,56309,1,8,0:0:0:0:
470,201,56397,1,0,0:0:0:0:
470,246,56486,1,0,0:0:0:0:
457,288,56574,1,0,0:0:0:0:
263,306,56662,5,2,0:0:0:0:
218,303,56750,1,0,0:0:0:0:
185,273,56839,1,2,0:0:0:0:
173,230,56927,1,0,0:0:0:0:
377,218,57015,1,10,0:0:0:0:
405,185,57103,1,0,0:0:0:0:
398,141,57192,1,2,0:0:0:0:
344,139,57280,1,0,0:0:0:0:
116,311,57368,5,6,0:1:0:0:
73,300,57456,1,0,0:0:0:0:
45,265,57545,1,0,0:0:0:0:
34,221,57633,1,0,0:0:0:0:
43,176,57721,1,8,0:0:0:0:
66,136,57809,1,0,0:0:0:0:
106,113,57897,1,0,0:0:0:0:
151,109,57986,1,0,0:0:0:0:
201,109,58074,5,0,0:0:0:0:
256,109,58162,1,0,0:0:0:0:
319,109,58250,1,2,0:1:0:0:
256,109,58339,1,0,0:0:0:0:
75,109,58427,2,0,L|70:214,1,90,10|2,0:0|0:0,0:0:0:0:
391,181,58780,5,2,0:0:0:0:
436,180,58868,1,0,0:0:0:0:
391,181,58956,1,0,0:0:0:0:
338,181,59045,1,0,0:0:0:0:
160,180,59133,1,10,0:0:0:0:
116,180,59221,1,0,0:0:0:0:
72,180,59309,1,0,0:0:0:0:
28,181,59397,1,0,0:0:0:0:
256,75,59486,5,2,0:0:0:0:
309,58,59574,1,0,0:0:0:0:
256,75,59662,1,2,0:1:0:0:
208,104,59750,1,0,0:0:0:0:
167,144,59839,1,10,0:0:0:0:
137,192,59927,1,0,0:0:0:0:
118,245,60015,1,0,0:0:0:0:
112,301,60103,1,0,0:0:0:0:
339,94,60192,5,2,0:1:0:0:
398,93,60280,1,0,0:0:0:0:
353,282,60368,1,0,0:0:0:0:
309,283,60456,1,0,0:0:0:0:
369,101,60545,1,8,0:0:0:0:
428,102,60633,1,0,0:0:0:0:
384,281,60721,1,0,0:0:0:0:
340,280,60809,1,0,0:0:0:0:
399,102,60897,5,0,0:0:0:0:
458,104,60986,1,0,0:0:0:0:
414,278,61074,1,2,0:1:0:0:
370,279,61162,1,0,0:0:0:0:
189,279,61250,2,0,L|96:279,1,90,10|2,0:0|0:0,0:0:0:0:
415,282,61603,6,0,L|424:234,3,45,2|0|0|0,0:1|0:0|0:0|0:0,0:0:0:0:
265,227,61956,2,0,L|256:179,3,45,8|0|0|0,0:0|0:0|0:0|0:0,0:0:0:0:
167,177,62309,2,0,L|176:129,3,45,2|0|2|0,0:0|0:0|0:1|0:0,0:0:0:0:
356,99,62662,1,8,0:0:0:0:
406,110,62750,1,0,0:0:0:0:
438,142,62839,1,0,0:0:0:0:
446,185,62927,1,0,0:0:0:0:
174,84,63015,5,2,0:1:0:0:
110,83,63103,1,0,0:0:0:0:
159,290,63192,1,0,0:0:0:0:
207,291,63280,1,0,0:0:0:0:
142,92,63368,1,8,0:0:0:0:
77,93,63456,1,0,0:0:0:0:
125,289,63545,1,0,0:0:0:0:
174,288,63633,1,0,0:0:0:0:
401,215,63721,5,0,0:0:0:0:
439,190,63809,1,0,0:0:0:0:
432,145,63897,1,2,0:1:0:0:
380,130,63986,1,0,0:0:0:0:
321,130,64074,1,8,0:0:0:0:
330,184,64162,1,0,0:0:0:0:
359,229,64250,1,0,0:0:0:0:
405,258,64339,1,0,0:0:0:0:
466,240,64427,5,2,0:1:0:0:
413,240,64515,1,0,0:0:0:0:
360,240,64603,1,0,0:0:0:0:
307,241,64692,1,0,0:0:0:0:
253,238,64780,1,8,0:0:0:0:
299,210,64868,1,0,0:0:0:0:
328,165,64956,1,0,0:0:0:0:
337,111,65045,1,0,0:0:0:0:
133,114,65133,5,2,0:0:0:0:
89,132,65221,1,0,0:0:0:0:
60,166,65309,1,2,0:1:0:0:
53,209,65397,1,0,0:0:0:0:
235,213,65486,1,10,0:0:0:0:
280,213,65574,1,0,0:0:0:0:
325,213,65662,1,0,0:0:0:0:
370,213,65750,1,0,0:0:0:0:
121,213,65839,6,0,L|108:157,3,45,2|0|0|0,0:1|0:0|0:0|0:0,0:0:0:0:
202,162,66192,2,0,L|215:106,3,45,2|0|0|0,0:1|0:0|0:0|0:0,0:0:0:0:
303,120,66545,2,0,L|290:176,3,45,2|0|0|0,0:1|0:0|0:0|0:0,0:0:0:0:
450,171,66897,2,0,L|463:227,3,45,2|2|2|2,0:1|0:0|0:0|0:0,0:0:0:0:
165,218,67250,5,2,0:1:0:0:
98,216,67339,1,0,0:0:0:0:
54,214,67427,1,0,0:0:0:0:
300,103,67603,1,2,0:1:0:0:
256,101,67692,1,0,0:0:0:0:
189,99,67780,1,0,0:0:0:0:
460,107,67956,2,0,P|487:215|369:306,1,270,4|0,0:3|0:0,0:0:0:0:
60,310,68662,6,0,L|42:253,2,60,2|0|0,0:0|0:0|0:0,0:0:0:0:
151,309,69015,2,0,L|169:252,2,60,2|0|0,0:0|0:0|0:0,0:0:0:0:
272,307,69368,2,0,L|335:305,2,60,2|0|0,0:0|0:0|0:0,0:0:0:0:
92,307,69721,2,0,L|85:218,1,90,0|0,0:0|0:0,0:0:0:0:
452,310,70074,6,0,L|470:253,2,60,2|0|0,0:0|0:0|0:0,0:0:0:0:
361,307,70427,2,0,L|343:250,2,60,2|0|0,0:0|0:0|0:0,0:0:0:0:
241,314,70780,1,2,0:0:0:0:
199,286,70868,1,0,0:0:0:0:
186,243,70956,1,0,0:0:0:0:
199,200,71045,1,0,0:0:0:0:
241,170,71133,1,0,0:0:0:0:
400,135,71309,1,0,0:0:0:0:
152,172,71486,6,0,P|114:123|195:51,1,180,2|0,0:1|0:0,0:0:0:0:
318,52,72015,1,2,0:1:0:0:
70,97,72192,2,0,L|262:98,1,180,8|0,0:0|0:0,0:0:0:0:
160,97,72721,1,0,0:0:0:0:
407,240,72897,6,0,L|424:146,1,90,2|0,0:1|0:0,0:0:0:0:
288,153,73250,2,0,L|378:153,1,90
333,153,73515,1,0,0:0:0:0:
146,328,73603,1,8,0:0:0:0:
78,276,73780,1,2,0:1:0:0:
91,195,73956,1,0,0:0:0:0:
132,173,74045,1,2,0:1:0:0:
177,172,74133,1,8,0:0:0:0:
435,63,74309,6,0,L|458:118,2,60,2|0|0,0:0|0:0|0:0,0:0:0:0:
315,320,74662,1,2,0:0:0:0:
375,320,74780,1,0,0:0:0:0:
434,321,74897,1,0,0:0:0:0:
315,320,75015,1,2,0:0:0:0:
255,321,75133,1,0,0:0:0:0:
225,269,75250,1,0,0:0:0:0:
406,251,75368,2,0,L|413:162,1,90,0|0,0:0|0:0,0:0:0:0:
77,63,75721,6,0,L|55:118,2,60,2|0|0,0:0|0:0|0:0,0:0:0:0:
167,280,76074,1,2,0:0:0:0:
108,279,76192,1,0,0:0:0:0:
168,279,76309,1,0,0:0:0:0:
289,274,76427,1,2,0:0:0:0:
332,246,76515,1,0,0:0:0:0:
346,203,76603,1,0,0:0:0:0:
332,160,76692,1,0,0:0:0:0:
289,130,76780,1,2,0:0:0:0:
131,94,76956,1,2,0:0:0:0:
391,58,77133,6,0,P|384:129|286:186,1,180,2|10,0:1|0:0,0:0:0:0:
390,189,77662,1,2,0:0:0:0:
121,326,77839,2,0,P|128:255|226:198,1,180,2|10,0:1|0:0,0:0:0:0:
122,195,78368,1,2,0:0:0:0:
390,189,78545,5,2,0:1:0:0:
256,184,78721,2,0,L|235:137,2,45,2|2|2,0:1|0:1|0:1,0:0:0:0:
392,182,79074,1,2,0:1:0:0:
120,182,79250,2,0,L|102:275,1,90,10|2,0:0|0:1,0:0:0:0:
392,181,79603,1,2,0:1:0:0:
426,209,79692,1,2,0:1:0:0:
419,251,79780,1,2,0:1:0:0:
368,270,79868,1,2,0:1:0:0:
119,272,79956,6,0,L|57:272,2,60,6|0|0,0:0|0:0|0:1,0:0:0:0:
210,268,80309,2,0,L|179:214,2,60,2|0|0,0:0|0:0|0:0,0:0:0:0:
331,264,80662,2,0,L|348:204,2,60,2|0|0,0:0|0:0|0:0,0:0:0:0:
151,265,81015,2,0,L|53:264,1,90,0|0,0:0|0:0,0:0:0:0:
393,272,81368,6,0,L|455:272,2,60,2|0|0,0:0|0:0|0:0,0:0:0:0:
302,268,81721,2,0,L|333:214,2,60,2|0|0,0:0|0:0|0:0,0:0:0:0:
182,272,82074,1,2,0:0:0:0:
139,244,82162,1,0,0:0:0:0:
125,201,82250,1,0,0:0:0:0:
139,158,82339,1,0,0:0:0:0:
182,128,82427,1,2,0:0:0:0:
340,179,82603,1,0,0:0:0:0:
69,102,82780,6,0,L|251:102,1,180,2|0,0:1|0:0,0:0:0:0:
159,102,83309,1,2,0:1:0:0:
407,331,83486,2,0,P|450:284|389:189,1,180,8|0,0:0|0:0,0:0:0:0:
313,189,84015,1,0,0:0:0:0:
65,235,84192,6,0,L|160:235,1,90,2|0,0:1|0:0,0:0:0:0:
20,100,84545,2,0,L|115:100,1,90,2|0,0:0|0:0,0:0:0:0:
155,100,84809,1,2,0:1:0:0:
334,111,84897,2,0,L|243:112,1,90,8|2,0:0|0:1,0:0:0:0:
492,284,85250,1,0,0:0:0:0:
447,284,85339,1,2,0:1:0:0:
402,284,85427,1,8,0:0:0:0:
357,284,85515,1,0,0:0:0:0:
132,291,85603,6,0,P|67:185|165:111,1,270,2|0,0:1|0:0,0:0:0:0:
436,119,86309,2,0,L|450:238,1,90,8|2,0:0|0:1,0:0:0:0:
289,248,86662,2,0,L|282:188,1,45,2|2,0:0|0:0,0:0:0:0:
375,201,86839,2,0,L|382:141,1,45,2|2,0:0|0:0,0:0:0:0:
157,148,87015,6,0,L|98:147,2,60,2|0|0,0:0|0:0|0:0,0:0:0:0:
248,147,87368,2,0,L|307:148,2,60,2|0|0,0:0|0:0|0:0,0:0:0:0:
67,242,87721,2,0,L|62:194,1,45,2|0,0:0|0:0,0:0:0:0:
152,187,87897,2,0,L|156:143,1,45
66,142,88074,2,0,L|163:142,1,90,2|2,0:0|0:0,0:0:0:0:
435,157,88427,6,0,L|447:251,1,90,2|2,0:1|0:1,0:0:0:0:
310,246,88780,2,0,L|322:152,1,90,2|2,0:1|0:1,0:0:0:0:
73,110,89133,1,2,0:0:0:0:
230,240,89309,1,2,0:0:0:0:
94,238,89486,1,2,0:0:0:0:
183,147,89662,1,2,0:0:0:0:
477,147,89839,5,2,0:1:0:0:
330,297,90192,1,2,0:1:0:0:
182,87,90545,1,4,0:3:0:0:
35,237,90897,1,4,0:3:0:0:
449,77,91250,5,6,0:1:0:0:
482,112,91339,1,0,0:0:0:0:
492,156,91427,1,0,0:0:0:0:
482,200,91515,1,0,0:0:0:0:
449,237,91603,1,2,0:1:0:0:
397,254,91692,1,0,0:0:0:0:
205,256,91780,5,2,0:0:0:0:
160,256,91868,1,0,0:0:0:0:
115,256,91956,1,2,0:1:0:0:
70,256,92045,1,0,0:0:0:0:
115,256,92133,1,0,0:0:0:0:
160,256,92221,1,0,0:0:0:0:
339,260,92309,2,0,L|432:260,1,90,2|2,0:1|0:0,0:0:0:0:
158,69,92662,5,2,0:1:0:0:
108,84,92750,1,0,0:0:0:0:
77,117,92839,1,0,0:0:0:0:
66,159,92927,1,0,0:0:0:0:
111,161,93015,1,2,0:1:0:0:
155,162,93103,1,0,0:0:0:0:
354,69,93192,5,2,0:0:0:0:
404,84,93280,1,0,0:0:0:0:
435,117,93368,1,2,0:1:0:0:
446,159,93456,1,0,0:0:0:0:
401,161,93545,1,0,0:0:0:0:
357,162,93633,1,0,0:0:0:0:
173,260,93721,2,0,L|80:260,1,90,2|2,0:1|0:0,0:0:0:0:
353,257,94074,6,0,L|398:256,2,45,2|0|0,0:1|0:0|0:0,0:0:0:0:
307,256,94339,2,0,L|262:255,2,45,0|2|0,0:0|0:1|0:0,0:0:0:0:
396,258,94603,2,0,L|406:212,1,45,2|0,0:0|0:0,0:0:0:0:
178,213,94780,5,2,0:1:0:0:
140,192,94868,1,0,0:0:0:0:
129,151,94956,1,0,0:0:0:0:
140,110,95045,1,0,0:0:0:0:
180,92,95133,2,0,L|135:92,1,45,2|0,0:1|0:0,0:0:0:0:
90,292,95309,2,0,L|135:292,1,45,2|0,0:0|0:0,0:0:0:0:
362,293,95486,5,2,0:1:0:0:
400,269,95574,1,0,0:0:0:0:
393,224,95662,1,0,0:0:0:0:
341,207,95750,1,0,0:0:0:0:
386,207,95839,1,2,0:1:0:0:
430,204,95927,1,0,0:0:0:0:
474,203,96015,1,2,0:0:0:0:
429,203,96103,1,0,0:0:0:0:
173,203,96192,5,2,0:1:0:0:
128,203,96280,1,0,0:0:0:0:
83,203,96368,1,2,0:0:0:0:
339,203,96545,2,0,L|429:203,1,90,2|2,0:1|0:0,0:0:0:0:
160,206,96897,5,2,0:1:0:0:
218,206,96986,1,0,0:0:0:0:
276,206,97074,1,2,0:0:0:0:
335,103,97162,1,2,0:0:0:0:
290,104,97250,1,2,0:1:0:0:
245,104,97339,1,0,0:0:0:0:
199,204,97427,5,0,0:0:0:0:
257,204,97515,1,0,0:0:0:0:
315,204,97603,1,2,0:1:0:0:
374,292,97692,1,0,0:0:0:0:
329,293,97780,1,2,0:0:0:0:
284,294,97868,1,2,0:0:0:0:
239,89,97956,1,2,0:1:0:0:
298,90,98045,1,0,0:0:0:0:
356,90,98133,1,0,0:0:0:0:
311,91,98221,1,0,0:0:0:0:
131,293,98309,5,2,0:1:0:0:
77,290,98397,1,0,0:0:0:0:
131,293,98486,1,2,0:0:0:0:
232,272,98574,1,2,0:0:0:0:
252,232,98662,1,2,0:1:0:0:
232,272,98750,1,0,0:0:0:0:
131,293,98839,1,0,0:0:0:0:
77,290,98927,1,0,0:0:0:0:
256,292,99015,5,2,0:1:0:0:
308,282,99103,1,0,0:0:0:0:
340,251,99192,1,2,0:0:0:0:
349,207,99280,1,2,0:0:0:0:
247,184,99368,2,0,L|240:129,1,45,2|0,0:1|0:0,0:0:0:0:
423,160,99545,2,0,L|430:105,1,45,2|0,0:0|0:0,0:0:0:0:
215,282,99721,5,2,0:1:0:0:
161,285,99809,1,0,0:0:0:0:
215,282,99897,1,0,0:0:0:0:
373,276,99986,1,0,0:0:0:0:
401,241,100074,1,2,0:1:0:0:
373,276,100162,1,0,0:0:0:0:
151,105,100250,5,2,0:0:0:0:
97,102,100339,1,0,0:0:0:0:
151,105,100427,1,0,0:0:0:0:
309,111,100515,1,0,0:0:0:0:
335,146,100603,1,0,0:0:0:0:
309,111,100692,1,0,0:0:0:0:
84,107,100780,1,2,0:1:0:0:
46,135,100868,1,0,0:0:0:0:
57,178,100956,1,2,0:0:0:0:
109,193,101045,1,0,0:0:0:0:
333,193,101133,5,2,0:1:0:0:
391,191,101221,1,0,0:0:0:0:
449,189,101309,1,0,0:0:0:0:
289,84,101397,1,0,0:0:0:0:
244,84,101486,1,2,0:1:0:0:
199,84,101574,1,0,0:0:0:0:
425,86,101662,1,2,0:0:0:0:
469,84,101750,1,0,0:0:0:0:
256,43,101839,5,2,0:1:0:0:
211,44,101927,1,0,0:0:0:0:
256,43,102015,1,2,0:0:0:0:
310,64,102103,1,2,0:0:0:0:
164,174,102192,1,2,0:1:0:0:
105,174,102280,1,0,0:0:0:0:
46,175,102368,1,2,0:0:0:0:
90,174,102456,1,0,0:0:0:0:
384,284,102545,5,6,0:1:0:0:
428,259,102633,1,0,0:0:0:0:
453,222,102721,1,0,0:0:0:0:
464,179,102809,1,0,0:0:0:0:
454,135,102897,1,2,0:1:0:0:
431,97,102986,1,0,0:0:0:0:
388,83,103074,1,2,0:0:0:0:
334,83,103162,1,0,0:0:0:0:
154,86,103250,5,2,0:1:0:0:
121,127,103339,1,0,0:0:0:0:
110,171,103427,1,0,0:0:0:0:
121,214,103515,1,0,0:0:0:0:
155,250,103603,1,2,0:1:0:0:
200,275,103692,1,0,0:0:0:0:
251,286,103780,1,2,0:0:0:0:
310,283,103868,1,0,0:0:0:0:
128,284,103956,5,2,0:1:0:0:
84,259,104045,1,0,0:0:0:0:
59,222,104133,1,0,0:0:0:0:
48,179,104221,1,0,0:0:0:0:
58,135,104309,1,2,0:1:0:0:
81,97,104397,1,0,0:0:0:0:
124,83,104486,1,2,0:0:0:0:
178,83,104574,1,0,0:0:0:0:
241,85,104662,5,2,0:1:0:0:
178,83,104750,1,0,0:0:0:0:
145,114,104839,1,0,0:0:0:0:
136,158,104927,1,0,0:0:0:0:
318,260,105015,1,2,0:1:0:0:
381,262,105103,1,0,0:0:0:0:
414,231,105192,1,2,0:0:0:0:
423,187,105280,1,0,0:0:0:0:
196,194,105368,6,0,L|165:159,2,45,2|0|0,0:1|0:0|0:0,0:0:0:0:
298,173,105633,2,0,L|329:138,2,45,0|2|0,0:0|0:1|0:0,0:0:0:0:
141,265,105897,6,0,L|110:230,2,45,2|0|2,0:0|0:0|0:1,0:0:0:0:
243,244,106162,2,0,L|274:209,2,45,0|0|0,0:0|0:0|0:0,0:0:0:0:
84,251,106427,1,2,0:1:0:0:
51,216,106515,1,0,0:0:0:0:
58,174,106603,1,2,0:0:0:0:
109,159,106692,1,0,0:0:0:0:
384,284,106780,5,2,0:1:0:0:
428,259,106868,1,0,0:0:0:0:
453,222,106956,1,0,0:0:0:0:
464,179,107045,1,0,0:0:0:0:
454,135,107133,1,2,0:1:0:0:
431,97,107221,1,0,0:0:0:0:
388,83,107309,1,2,0:0:0:0:
334,83,107397,1,0,0:0:0:0:
175,87,107486,5,2,0:1:0:0:
140,116,107574,1,0,0:0:0:0:
146,161,107662,1,2,0:0:0:0:
198,173,107750,1,0,0:0:0:0:
299,194,107839,1,2,0:1:0:0:
343,196,107927,1,0,0:0:0:0:
387,194,108015,1,2,0:0:0:0:
432,195,108103,1,0,0:0:0:0:
173,152,108192,5,6,0:1:0:0:
83,152,108368,1,2,0:1:0:0:
206,102,108545,1,2,0:1:0:0:
50,102,108721,1,2,0:1:0:0:
173,232,108897,1,2,0:1:0:0:
83,232,109074,1,2,0:1:0:0:
206,282,109250,1,2,0:1:0:0:
50,282,109427,1,2,0:1:0:0:
339,152,109603,5,6,0:1:0:0:
429,152,109780,1,2,0:1:0:0:
306,102,109956,1,2,0:1:0:0:
462,102,110133,1,2,0:1:0:0:
339,232,110309,1,2,0:1:0:0:
429,232,110486,1,2,0:1:0:0:
306,282,110662,1,2,0:1:0:0:
462,282,110839,1,2,0:1:0:0:
416,283,110927,1,0,0:0:0:0:
214,279,111015,5,4,3:1:0:0:
163,259,111103,1,0,3:0:0:0:
129,229,111192,1,0,3:0:0:0:
123,184,111280,1,0,3:0:0:0:
282,194,111368,1,0,3:0:0:0:
323,161,111456,1,0,3:0:0:0:
317,119,111545,1,0,3:0:0:0:
271,103,111633,1,0,3:0:0:0:
67,107,111721,5,4,3:1:0:0:
33,140,111809,1,0,3:0:0:0:
39,182,111897,1,0,3:0:0:0:
85,198,111986,1,0,3:0:0:0:
242,202,112074,1,0,3:0:0:0:
286,201,112162,1,0,3:0:0:0:
242,202,112250,1,0,3:0:0:0:
197,201,112339,1,0,3:0:0:0:
401,200,112427,5,4,3:1:0:0:
446,200,112515,1,0,3:0:0:0:
403,200,112603,1,0,3:0:0:0:
340,200,112692,1,0,3:0:0:0:
111,200,112780,1,4,3:1:0:0:
66,200,112868,1,0,3:0:0:0:
109,200,112956,1,0,3:0:0:0:
171,200,113045,1,0,0:0:0:0:
401,200,113133,5,4,3:1:0:0:
446,200,113221,1,0,3:0:0:0:
403,200,113309,1,0,3:0:0:0:
340,200,113397,1,0,0:0:0:0:
111,200,113486,1,4,3:1:0:0:
66,200,113574,1,0,3:0:0:0:
109,200,113662,1,0,3:0:0:0:
171,200,113750,1,0,3:0:0:0:
446,200,113839,5,6,0:1:0:0:
256,199,114192,1,2,0:1:0:0:
354,197,114368,1,2,0:1:0:0:
66,200,114545,1,6,0:1:0:0:
256,199,114897,1,2,0:1:0:0:
157,198,115074,1,2,0:1:0:0:
432,250,115250,6,0,P|487:190|434:114,1,180,6|2,0:1|0:1,0:0:0:0:
305,112,115780,1,2,0:1:0:0:
441,116,115956,1,6,0:1:0:0:
33,112,116309,1,6,0:1:0:0:
468,112,116662,5,6,0:1:0:0:
256,199,117015,1,2,0:1:0:0:
354,197,117192,1,2,0:1:0:0:
44,272,117368,1,6,0:1:0:0:
256,199,117721,1,2,0:1:0:0:
157,198,117897,1,0,0:0:0:0:
468,112,118074,6,0,L|285:111,1,180,6|2,0:1|0:1,0:0:0:0:
371,279,118603,1,2,0:1:0:0:
44,112,118780,1,6,0:1:0:0:
256,192,118956,12,0,121603,0:0:0:0:
