osu file format v14

[General]
AudioFilename: audio.mp3
AudioLeadIn: 0
PreviewTime: 23397
Countdown: 0
SampleSet: Soft
StackLeniency: 0.4
Mode: 0
LetterboxInBreaks: 0
EpilepsyWarning: 1
WidescreenStoryboard: 1

[Editor]
DistanceSpacing: 0.2
BeatDivisor: 3
GridSize: 4
TimelineZoom: 1.9

[Metadata]
Title:Der Wald (kors k Remix)
TitleUnicode:Der Wald (kors k Remix)
Artist:Eleharmonica remixed by kors k
ArtistUnicode:エレハモニカ remixed by kors k
Creator:Cheesecake
Version:RLC's Extra
Source:pop'n music 20 fantasia
Tags:darky1 xchorse mithew jace rlc lasse hareimu spectator ascendance popn twenty mzd taku sakakibara seiya murai kosuke saito dark opera ダークオペラ the forest
BeatmapID:1481178
BeatmapSetID:581787

[Difficulty]
HPDrainRate:6
CircleSize:5
OverallDifficulty:9
ApproachRate:9.4
SliderMultiplier:1.8
SliderTickRate:1

[Events]
//Background and Video events
0,0,"der wald.jpg",0,0
//Break Periods
//Storyboard Layer 0 (Background)
//Storyboard Layer 1 (Fail)
//Storyboard Layer 2 (Pass)
//Storyboard Layer 3 (Foreground)
Sprite,Foreground,Centre,"sb\Naxess_3.png",0,0 M,0,43339,,443,267 C,0,43339,,191,255,0 S,30,43339,43516,0,1 P,0,43339,45724,A F,0,44662,45724,1,0
Sprite,Foreground,Centre,"sb\Naxess_3.png",0,0 M,0,43427,,450,271 C,0,43427,,212,255,0 S,30,43427,43604,0,1 P,0,43427,45724,A F,0,44662,45724,1,0
Sprite,Foreground,Centre,"sb\Naxess_3.png",0,0 M,0,43515,,458,275 C,0,43515,,233,255,0 S,30,43515,43692,0,1 P,0,43515,45724,A F,0,44662,45724,1,0
Sprite,Foreground,Centre,"sb\Naxess_3.png",0,0 M,0,43603,,475,204 C,0,43603,,255,255,0 S,30,43603,43780,0,1 P,0,43603,45724,A F,0,44662,45724,1,0
Sprite,Foreground,Centre,"sb\Naxess_3.png",0,0 M,0,43692,,479,196 C,0,43692,,255,233,0 S,30,43692,43869,0,1 P,0,43692,45724,A F,0,44662,45724,1,0
Sprite,Foreground,Centre,"sb\Naxess_3.png",0,0 M,0,43780,,483,189 C,0,43780,,255,212,0 S,30,43780,43957,0,1 P,0,43780,45724,A F,0,44662,45724,1,0
Sprite,Foreground,Centre,"sb\Naxess_3.png",0,0 M,0,43868,,487,181 C,0,43868,,255,191,0 S,30,43868,44045,0,1 P,0,43868,45724,A F,0,44662,45724,1,0
Sprite,Foreground,Centre,"sb\Naxess_3.png",0,0 M,0,43956,,420,169 C,0,43956,,255,170,0 S,30,43956,44133,0,1 P,0,43956,45724,A F,0,44662,45724,1,0
Sprite,Foreground,Centre,"sb\Naxess_3.png",0,0 M,0,44045,,412,165 C,0,44045,,255,148,0 S,30,44045,44222,0,1 P,0,44045,45724,A F,0,44662,45724,1,0
Sprite,Foreground,Centre,"sb\Naxess_3.png",0,0 M,0,44133,,405,161 C,0,44133,,255,127,0 S,30,44133,44310,0,1 P,0,44133,45724,A F,0,44662,45724,1,0
Sprite,Foreground,Centre,"sb\Naxess_3.png",0,0 M,0,44221,,397,157 C,0,44221,,255,106,0 S,30,44221,44398,0,1 P,0,44221,45724,A F,0,44662,45724,1,0
Sprite,Foreground,Centre,"sb\Naxess_3.png",0,0 M,0,44309,,380,228 C,0,44309,,255,84,0 S,30,44309,44486,0,1 P,0,44309,45724,A F,0,44662,45724,1,0
Sprite,Foreground,Centre,"sb\Naxess_3.png",0,0 M,0,44397,,376,236 C,0,44397,,255,63,0 S,30,44397,44574,0,1 P,0,44397,45724,A F,0,44662,45724,1,0
Sprite,Foreground,Centre,"sb\Naxess_3.png",0,0 M,0,44486,,372,243 C,0,44486,,255,42,0 S,30,44486,44663,0,1 P,0,44486,45724,A F,0,44662,45724,1,0
Sprite,Foreground,Centre,"sb\Naxess_3.png",0,0 M,0,44574,,368,251 C,0,44574,,255,21,0 S,30,44574,44751,0,1 P,0,44574,45724,A F,0,44662,45724,1,0
Sprite,Foreground,Centre,"sb\Circle.png",233,212 F,0,92661,93723,1,0 S,7,92661,93723,0.5,4 P,0,92661,93723,A
Sprite,Foreground,Centre,"sb\Circle.png",468,343 F,0,94073,95135,1,0 S,7,94073,95135,0.5,4 P,0,94073,95135,A
Sprite,Foreground,Centre,"sb\Circle.png",162,172 F,0,95485,96547,1,0 S,7,95485,96547,0.5,4 P,0,95485,96547,A
Sprite,Foreground,Centre,"sb\Circle.png",392,245 F,0,96897,97959,1,0 S,7,96897,97959,0.5,4 P,0,96897,97959,A
Sprite,Foreground,Centre,"sb\Circle.png",369,260 F,0,98308,99370,1,0 S,7,98308,99370,0.5,4 P,0,98308,99370,A
Sprite,Foreground,Centre,"sb\Circle.png",322,167 F,0,99720,100782,1,0 S,7,99720,100782,0.5,4 P,0,99720,100782,A
Sprite,Foreground,Centre,"sb\Circle.png",109,335 F,0,101132,102194,1,0 S,7,101132,102194,0.5,4 P,0,101132,102194,A
Sprite,Foreground,Centre,"sb\Circle.png",234,245 F,0,102544,103606,1,0 S,7,102544,103606,0.5,4 P,0,102544,103606,A
Sprite,Foreground,Centre,"sb\Circle.png",400,205 F,0,103955,105017,1,0 S,7,103955,105017,0.5,4 P,0,103955,105017,A
Sprite,Foreground,Centre,"sb\Circle.png",559,248 F,0,105367,106429,1,0 S,7,105367,106429,0.5,4 P,0,105367,106429,A
Sprite,Foreground,Centre,"sb\Circle.png",218,183 F,0,106779,107841,1,0 S,7,106779,107841,0.5,4 P,0,106779,107841,A
Sprite,Foreground,Centre,"sb\Circle.png",316,287 F,0,108191,109253,1,0 S,7,108191,109253,0.5,4 P,0,108191,109253,A
Sprite,Foreground,Centre,"sb\Circle.png",243,155 F,0,109603,110665,1,0 S,7,109603,110665,0.5,4 P,0,109603,110665,A
Sprite,Foreground,Centre,"sb\Circle.png",496,248 F,0,111015,112077,1,0 S,7,111015,112077,0.5,4 P,0,111015,112077,A
Sprite,Foreground,Centre,"sb\Circle.png",408,248 F,0,111721,112783,1,0 S,7,111721,112783,0.5,4 P,0,111721,112783,A
Sprite,Foreground,Centre,"sb\Circle.png",320,248 F,0,112427,113489,1,0 S,7,112427,113489,0.5,4 P,0,112427,113489,A
Sprite,Foreground,Centre,"sb\Circle.png",176,318 F,0,112780,113842,1,0 S,7,112780,113842,0.5,4 P,0,112780,113842,A
Sprite,Foreground,Centre,"sb\Circle.png",323,266 F,0,113133,114195,1,0 S,7,113133,114195,0.5,4 P,0,113133,114195,A
Sprite,Foreground,Centre,"sb\Circle.png",284,152 F,0,113486,114548,1,0 S,7,113486,114548,0.5,4 P,0,113486,114548,A
Sprite,Foreground,Centre,"sb\Naxess_3.png",470,194 C,0,113839,,105,47,225 S,30,113839,114191,0,1.5 F,2,113839,114544,1,0
Sprite,Foreground,Centre,"sb\Naxess_3.png",206,345 C,0,114192,,221,52,28 S,30,114192,114544,0,1.5 F,2,114192,114897,1,0
Sprite,Foreground,Centre,"sb\Naxess_3.png",206,345 C,0,114368,,221,52,28 S,30,114368,114720,0,1.5 F,2,114368,115073,1,0
Sprite,Foreground,Centre,"sb\Naxess_3.png",146,171 C,0,114545,,221,52,28 S,30,114545,114897,0,1.5 F,2,114545,115250,1,0
Sprite,Foreground,Centre,"sb\Naxess_3.png",323,272 C,0,114897,,147,34,221 S,30,114897,115249,0,1.5 F,2,114897,115602,1,0
Sprite,Foreground,Centre,"sb\Naxess_3.png",323,272 C,0,115074,,147,34,221 S,30,115074,115426,0,1.5 F,2,115074,115779,1,0
Sprite,Foreground,Centre,"sb\Naxess_3.png",134,247 C,0,115250,,147,34,221 S,30,115250,115602,0,1.5 F,2,115250,115955,1,0
Sprite,Foreground,Centre,"sb\Naxess_3.png",464,195 C,0,115603,,239,104,14 S,30,115603,115955,0,1.5 F,2,115603,116308,1,0
Sprite,Foreground,Centre,"sb\Naxess_3.png",464,195 C,0,115780,,239,104,14 S,30,115780,116132,0,1.5 F,2,115780,116485,1,0
Sprite,Foreground,Centre,"sb\Naxess_3.png",120,321 C,0,115956,,239,104,14 S,30,115956,116308,0,1.5 F,2,115956,116661,1,0
Sprite,Foreground,Centre,"sb\Naxess_3.png",120,321 C,0,117015,,105,47,225 S,30,117015,117367,0,1.5 F,2,117015,117720,1,0
Sprite,Foreground,Centre,"sb\Naxess_3.png",170,188 C,0,117192,,105,47,225 S,30,117192,117544,0,1.5 F,2,117192,117897,1,0
Sprite,Foreground,Centre,"sb\Naxess_3.png",240,424 C,0,117368,,105,47,225 S,30,117368,117720,0,1.5 F,2,117368,118073,1,0
Sprite,Foreground,Centre,"sb\Naxess_3.png",520,175 C,0,117721,,221,52,28 S,30,117721,118073,0,1.5 F,2,117721,118426,1,0
Sprite,Foreground,Centre,"sb\Naxess_3.png",470,308 C,0,117897,,221,52,28 S,30,117897,118249,0,1.5 F,2,117897,118602,1,0
Sprite,Foreground,Centre,"sb\Naxess_3.png",400,72 C,0,118074,,221,52,28 S,30,118074,118426,0,1.5 F,2,118074,118779,1,0
Sprite,Foreground,Centre,"sb\Naxess_3.png",0,213 C,0,118427,,147,34,221 MX,0,118427,,120 S,30,118427,118779,0,1.5 F,2,118427,119132,1,0 MX,0,118780,,-300
Sprite,Foreground,Centre,"sb\Naxess_3.png",0,248 C,0,118603,,147,34,221 MX,0,118603,,320 S,30,118603,118955,0,1.5 F,2,118603,119308,1,0 MX,0,118780,,-300
Sprite,Foreground,Centre,"sb\Circle.png",230,107 F,0,89133,89841,1,0 S,22,89133,89841,0,4
Sprite,Foreground,Centre,"sb\Circle.png",410,249 F,0,89309,90017,1,0 S,22,89309,90017,0,4
Sprite,Foreground,Centre,"sb\Circle.png",249,268 F,0,89486,90194,1,0 S,22,89486,90194,0,4
Sprite,Foreground,Centre,"sb\Circle.png",391,88 F,0,89662,90370,1,0 S,22,89662,90370,0,4
Sprite,Foreground,Centre,"sb\Circle.png",320,180 F,0,89839,90547,1,0 S,22,89839,90547,0,4
Sprite,Foreground,TopLeft,"sb\pixel.png",0,130 V,4,12198,12375,0,0.2,10.6,0.2 MX,0,12198,15022,100,130 F,0,15022,15199,0.5,0 MX,4,15022,15199,130,236 V,4,15022,15199,10.6,0.2,0,0.2
Sprite,Foreground,BottomLeft,"sb\MapRLC.png",0,130 MX,0,12198,15022,125,140 V,0,12286,12375,0.5,0,0.5,0.5 F,0,14491,15022,0.5,0
//Storyboard Sound Samples

[TimingPoints]
898,352.941176470588,4,2,2,40,1,0
1250,-133.333333333333,4,2,2,40,0,0
23486,-100,4,2,2,70,0,0
46074,-100,4,2,2,70,0,1
67250,-66.6666666666667,4,2,2,70,0,0
67603,-133.333333333333,4,2,2,70,0,0
67956,-100,4,2,2,70,0,0
68309,-66.6666666666667,4,2,2,70,0,0
68662,-83.3333333333333,4,2,2,70,0,0
71486,-100,4,2,2,70,0,0
73956,-66.6666666666667,4,2,2,70,0,0
74309,-83.3333333333333,4,2,2,70,0,0
77133,-200,4,2,2,70,0,0
77486,-66.6666666666667,4,2,2,70,0,0
77839,-200,4,2,2,70,0,0
78192,-66.6666666666667,4,2,2,70,0,0
79956,-83.3333333333333,4,2,2,70,0,0
83133,-100,4,2,2,70,0,0
85603,-66.6666666666667,4,2,2,70,0,0
87897,-100,4,2,2,70,0,0
90192,-133.333333333333,4,2,2,70,0,0
91250,-83.3333333333333,4,2,2,70,0,1
112427,-83.3333333333333,4,1,2,70,0,1
113839,-83.3333333333333,4,2,2,70,0,0
114192,-100,4,1,2,70,0,0
115956,-50,4,1,2,70,0,0

[Colours]
Combo1 : 147,34,221
Combo2 : 239,104,14
Combo3 : 105,47,225
Combo4 : 221,52,28

[HitObjects]
403,156,898,5,0,3:0:0:0:
403,156,1250,1,0,0:0:0:0:
467,96,1427,1,0,0:0:0:0:
474,202,1603,2,0,L|319:195,2,135.000005149842,0|0|0,1:0|3:0|3:0,0:0:0:0:
325,214,2486,5,0,0:0:0:0:
303,133,2662,1,0,3:0:0:0:
379,175,2839,1,0,0:0:0:0:
247,172,3015,2,0,P|205:166|174:147,1,67.5000025749208,0|0,1:0|0:0,0:0:0:0:
132,206,3368,2,0,P|77:218|56:233,1,67.5000025749208,0|0,3:0|0:0,0:0:0:0:
49,149,3721,5,0,3:0:0:0:
229,249,4074,1,0,0:0:0:0:
164,203,4250,1,0,0:0:0:0:
253,167,4427,2,0,L|110:187,1,135.000005149842,0|0,1:0|0:0,0:0:0:0:
229,249,4956,1,0,0:0:0:0:
301,227,5133,6,0,B|307:262|307:262|295:292,1,67.5000025749208,0|0,3:0|0:0,0:0:0:0:
373,213,5486,1,0,3:0:0:0:
363,306,5662,1,0,0:0:0:0:
444,191,5839,1,0,1:0:0:0:
439,338,6015,1,0,0:0:0:0:
439,338,6103,1,0,0:0:0:0:
439,338,6192,1,0,1:0:0:0:
373,213,6368,1,0,0:0:0:0:
314,279,6545,6,0,L|231:291,1,67.5000025749208,0|0,3:0|0:0,0:0:0:0:
186,213,6897,1,0,0:0:0:0:
229,294,7074,1,0,0:0:0:0:
166,212,7250,2,0,L|32:188,1,135.000005149842,0|0,1:0|0:0,0:0:0:0:
413,131,7956,5,0,3:0:0:0:
350,178,8133,1,0,0:0:0:0:
365,62,8309,1,0,3:0:0:0:
427,134,8486,1,0,0:0:0:0:
353,200,8662,2,0,L|230:172,1,101.250003862381,0|0,1:0|0:0,0:0:0:0:
215,157,9015,2,0,B|252:156|252:156|291:140,1,67.5000025749208,0|0,3:0|0:0,0:0:0:0:
237,82,9368,5,0,3:0:0:0:
169,43,9545,1,0,0:0:0:0:
215,157,9721,1,0,0:0:0:0:
122,219,9897,2,0,P|91:230|36:228,1,67.5000025749208,0|0,0:0|1:0,0:0:0:0:
169,43,10427,1,0,0:0:0:0:
287,123,10603,1,0,3:0:0:0:
347,70,10780,6,0,B|399:63|399:63|434:73|434:73|488:64,2,135.000005149842,0|0|8,3:0|3:0|0:0,0:0:0:0:
418,178,11662,1,8,0:0:0:0:
450,184,11750,1,8,0:0:0:0:
483,191,11839,1,8,0:0:0:0:
349,169,12015,1,8,0:0:0:0:
370,273,12192,6,0,P|354:312|346:348,1,67.5000025749208,0|0,3:0|0:0,0:0:0:0:
150,318,12545,2,0,B|208:328|208:328|279:287,2,135.000005149842,0|8|0,0:0|0:0|1:0,0:0:0:0:
75,189,13603,5,0,1:0:0:0:
232,180,13780,1,0,0:0:0:0:
232,180,13956,2,0,L|220:303,1,101.250003862381,0|0,1:0|0:0,0:0:0:0:
232,352,14309,2,0,L|242:273,1,67.5000025749208,8|0,0:0|0:0,0:0:0:0:
254,215,14662,1,0,3:0:0:0:
174,259,14839,1,0,0:0:0:0:
307,281,15015,5,0,3:0:0:0:
259,203,15192,1,0,0:0:0:0:
389,261,15368,1,0,0:0:0:0:
175,234,15545,2,0,P|135:245|106:262,1,67.5000025749208,0|8,0:0|0:0,0:0:0:0:
389,261,16074,5,0,0:0:0:0:
309,355,16250,1,0,0:0:0:0:
251,290,16427,2,0,B|231:252|231:252|252:142,2,135.000005149842,0|0|0,3:0|3:0|1:0,0:0:0:0:
268,146,17309,1,0,0:0:0:0:
299,134,17397,1,0,0:0:0:0:
333,134,17486,1,0,1:0:0:0:
312,213,17662,1,0,0:0:0:0:
391,193,17839,6,0,P|434:195|474:207,1,67.5000025749208,0|0,3:0|0:0,0:0:0:0:
333,134,18192,1,0,0:0:0:0:
391,193,18368,1,0,0:0:0:0:
386,71,18545,2,0,P|377:33|362:3,1,67.5000025749208,0|0,1:0|0:0,0:0:0:0:
448,130,18897,5,0,0:0:0:0:
386,71,19074,1,0,0:0:0:0:
391,193,19250,2,0,P|357:195|314:217,1,67.5000025749208,0|0,3:0|0:0,0:0:0:0:
247,171,19603,2,0,L|237:250,1,67.5000025749208,0|0,3:0|0:0,0:0:0:0:
168,312,19956,2,0,L|22:325,2,135.000005149842,0|0|0,1:0|3:0|3:0,0:0:0:0:
168,312,20839,5,0,0:0:0:0:
142,248,21015,1,0,0:0:0:0:
102,346,21192,1,0,0:0:0:0:
151,229,21368,2,0,L|236:222,1,67.5000025749208,0|0,1:0|0:0,0:0:0:0:
92,173,21721,2,0,L|7:180,1,67.5000025749208
142,248,22074,6,0,L|285:236,1,135.000005149842
256,192,22515,12,0,23309,0:0:0:0:
480,221,23486,6,0,P|445:197|393:201,1,90,0|0,1:0|0:0,0:0:0:0:
353,267,23839,1,8,0:0:0:0:
304,207,24015,1,2,0:2:0:0:
299,198,24103,1,0,0:0:0:0:
295,189,24192,2,0,P|301:159|304:141,1,45,2|0,0:2|0:0,0:0:0:0:
236,96,24368,1,2,1:2:0:0:
236,96,24545,2,0,P|202:106|189:109,1,45,8|0,0:0|0:0,0:0:0:0:
148,186,24721,2,0,P|132:161|120:139,1,45
44,152,24897,6,0,L|66:57,1,90,0|0,1:0|0:0,0:0:0:0:
30,167,25250,1,8,0:0:0:0:
110,246,25427,1,2,0:2:0:0:
110,246,25515,1,0,0:0:0:0:
110,246,25603,2,0,L|98:299,1,45,2|0,0:2|0:0,0:0:0:0:
191,220,25780,2,0,B|201:181|201:181|174:103,1,90,2|8,1:2|0:0,0:0:0:0:
172,90,26045,1,0,0:0:0:0:
184,93,26133,1,0,0:0:0:0:
197,96,26221,1,0,0:0:0:0:
210,99,26309,5,0,1:0:0:0:
398,135,26486,1,0,0:0:0:0:
272,148,26662,1,8,0:0:0:0:
333,98,26839,1,2,0:2:0:0:
333,98,26927,1,0,0:0:0:0:
333,98,27015,1,2,0:2:0:0:
272,148,27192,1,2,1:2:0:0:
369,192,27368,2,0,P|406:199|423:203,1,45,8|0,0:0|0:0,0:0:0:0:
452,140,27545,2,0,P|482:132|504:126,1,45
352,181,27721,5,0,1:0:0:0:
472,208,27897,2,0,P|466:261|463:302,1,90,0|8,0:0|0:0,0:0:0:0:
336,173,28250,2,0,P|342:120|345:79,1,90,2|2,0:2|0:2,0:0:0:0:
463,297,28603,1,2,1:2:0:0:
411,196,28780,2,0,P|346:192|274:243,1,135,8|0,0:0|0:0,0:0:0:0:
287,226,29133,5,0,1:0:0:0:
183,236,29309,2,0,L|171:184,1,45
147,175,29486,1,8,0:0:0:0:
71,167,29662,1,2,0:2:0:0:
73,158,29750,1,0,0:0:0:0:
77,149,29839,1,2,0:2:0:0:
183,236,30015,1,2,1:2:0:0:
26,229,30192,2,0,P|42:283|81:302,1,90,8|0,0:0|0:0,0:0:0:0:
175,318,30545,6,0,P|228:306|361:313,1,180,0|8,1:0|0:0,0:0:0:0:
352,311,31074,1,2,0:2:0:0:
219,240,31250,2,0,P|196:242|174:245,1,45,2|0,0:2|0:0,0:0:0:0:
275,350,31427,1,2,1:2:0:0:
294,264,31603,1,8,0:0:0:0:
315,176,31780,1,0,0:0:0:0:
391,238,31956,5,0,1:0:0:0:
391,238,32133,1,0,0:0:0:0:
446,176,32309,1,8,0:0:0:0:
310,91,32486,1,2,0:2:0:0:
376,28,32662,2,0,L|391:137,1,90,2|2,0:2|1:2,0:0:0:0:
391,238,33015,2,0,L|376:129,1,90,8|0,0:0|0:0,0:0:0:0:
322,3,33368,5,0,1:0:0:0:
146,39,33545,1,0,0:0:0:0:
141,176,33721,1,8,1:0:0:0:
185,167,33809,1,0,0:0:0:0:
229,158,33897,1,2,0:2:0:0:
273,149,33986,1,0,0:0:0:0:
317,140,34074,1,2,0:2:0:0:
146,39,34250,1,2,1:2:0:0:
141,176,34427,2,0,B|137:240|137:240|110:267,1,90,8|0,0:0|0:0,0:0:0:0:
29,338,34780,6,0,L|181:344,1,135,0|0,1:0|0:0,0:0:0:0:
163,343,35133,1,0,1:0:0:0:
285,271,35309,1,2,0:2:0:0:
343,322,35486,2,0,B|374:301|393:270|393:270|423:332|391:381,1,180,2|2,1:2|1:2,0:0:0:0:
395,373,36015,1,0,0:2:0:0:
393,270,36192,6,0,P|381:224|382:177,1,90,0|0,1:0|0:0,0:0:0:0:
401,118,36545,2,0,P|413:164|412:211,1,90,2|2,1:2|0:2,0:0:0:0:
301,232,36897,2,0,P|291:178|307:39,1,180,2|2,1:2|1:2,0:0:0:0:
302,54,37603,5,0,1:0:0:0:
266,116,37780,1,2,0:2:0:0:
197,136,37956,1,0,1:2:0:0:
127,115,38133,1,2,0:2:0:0:
82,58,38309,2,0,B|104:100|104:100|92:207,1,135,2|0,1:2|0:0,0:0:0:0:
53,244,38662,1,2,1:2:0:0:
256,304,39015,5,0,1:0:0:0:
176,264,39192,1,2,0:2:0:0:
336,176,39368,1,0,1:0:0:0:
256,136,39545,1,2,0:2:0:0:
256,352,39721,2,0,P|260:292|252:196,1,135,2|0,1:2|0:0,0:0:0:0:
248,177,40074,2,0,P|245:233|250:279,1,90,2|0,1:2|0:0,0:0:0:0:
350,311,40427,5,0,1:0:0:0:
350,311,40603,1,0,1:0:0:0:
443,258,40780,1,0,1:0:0:0:
443,258,40956,1,0,1:0:0:0:
356,207,41133,1,0,1:0:0:0:
356,207,41221,1,0,1:0:0:0:
356,207,41309,1,0,1:0:0:0:
296,56,41486,2,0,P|331:45|347:41,1,45,0|0,1:0|0:0,0:0:0:0:
419,85,41662,2,0,P|453:92|471:98,1,45,0|0,1:0|0:0,0:0:0:0:
343,125,41839,5,0,1:0:0:0:
279,48,42015,1,0,1:0:0:0:
199,165,42192,1,0,1:0:0:0:
114,36,42368,1,0,1:0:0:0:
72,106,42545,1,0,1:0:0:0:
71,119,42633,1,0,1:0:0:0:
75,131,42721,1,0,1:0:0:0:
144,107,42897,2,0,L|243:91,1,90,0|0,1:0|1:0,0:0:0:0:
371,207,43250,5,0,1:0:0:0:
379,211,43339,1,0,1:0:0:0:
386,215,43427,1,0,1:0:0:0:
394,219,43515,1,0,1:0:0:0:
411,148,43603,5,0,1:0:0:0:
415,140,43692,1,0,1:0:0:0:
419,133,43780,1,0,1:0:0:0:
423,125,43868,1,0,1:0:0:0:
356,113,43956,5,0,1:0:0:0:
348,109,44045,1,0,1:0:0:0:
341,105,44133,1,0,1:0:0:0:
333,101,44221,1,0,1:0:0:0:
316,172,44309,5,0,1:0:0:0:
312,180,44397,1,0,1:0:0:0:
308,187,44486,1,0,1:0:0:0:
304,195,44574,1,0,1:0:0:0:
300,203,44662,5,2,1:1:0:0:
256,192,44750,12,0,45721,0:0:0:0:
409,291,46074,5,4,1:0:0:0:
434,265,46162,1,0,0:0:0:0:
444,230,46250,1,2,0:2:0:0:
435,194,46339,1,2,0:2:0:0:
408,169,46427,2,0,P|366:164|314:156,1,90,8|2,0:0|0:2,0:0:0:0:
263,114,46692,1,0,0:0:0:0:
193,96,46780,6,0,P|198:142|201:158,1,45
161,263,46956,2,0,P|156:217|153:201,1,45,2|2,1:2|0:2,0:0:0:0:
270,200,47133,2,0,P|224:205|208:208,1,45,8|0,0:0|0:0,0:0:0:0:
77,155,47309,2,0,P|123:150|139:147,1,45,2|0,0:2|0:0,0:0:0:0:
242,276,47486,6,0,P|298:269|355:264,1,90,0|2,1:0|0:2,0:0:0:0:
391,296,47750,1,2,0:2:0:0:
445,253,47839,2,0,P|451:209|458:162,1,90,8|2,0:0|0:2,0:0:0:0:
468,152,48103,1,0,0:0:0:0:
415,110,48192,5,0,0:0:0:0:
388,115,48280,1,0,0:0:0:0:
361,121,48368,1,2,1:2:0:0:
334,127,48456,1,2,0:2:0:0:
307,134,48545,2,0,P|290:110|279:88,1,45,8|0,0:0|0:0,0:0:0:0:
205,95,48721,2,0,P|217:62|226:41,1,45,2|0,0:2|0:0,0:0:0:0:
287,18,48897,5,0,1:0:0:0:
196,117,49074,1,2,0:2:0:0:
169,115,49162,1,2,0:2:0:0:
142,113,49250,2,0,P|103:108|89:107,1,45,8|0,0:0|0:0,0:0:0:0:
39,215,49427,2,0,P|52:191|62:172,1,45,2|0,0:2|0:0,0:0:0:0:
186,200,49603,2,0,P|147:195|133:194,1,45
83,302,49780,2,0,P|96:278|106:259,1,45,2|2,1:2|0:2,0:0:0:0:
222,277,49956,2,0,P|223:332|207:364,1,90,8|2,0:0|0:2,0:0:0:0:
273,145,50309,6,0,P|329:153|364:157,1,90,0|2,1:0|0:2,0:0:0:0:
403,210,50574,1,2,0:2:0:0:
366,266,50662,2,0,P|310:258|275:254,1,90,8|2,0:0|0:2,0:0:0:0:
263,259,50927,1,0,0:0:0:0:
224,205,51015,5,0,0:0:0:0:
189,194,51103,1,0,0:0:0:0:
155,207,51192,1,2,1:2:0:0:
122,222,51280,1,2,0:2:0:0:
90,204,51368,2,0,P|70:197|42:188,1,45,8|0,0:0|0:0,0:0:0:0:
134,89,51545,2,0,P|142:109|149:132,1,45,2|0,0:2|0:0,0:0:0:0:
246,139,51721,6,0,L|270:32,1,90,4|2,1:0|0:2,0:0:0:0:
332,28,51986,1,2,0:2:0:0:
344,33,52074,1,8,0:0:0:0:
356,38,52162,1,0,0:0:0:0:
368,43,52250,2,0,L|385:137,1,90,2|0,0:2|0:0,0:0:0:0:
394,144,52515,1,0,0:0:0:0:
452,109,52603,5,2,1:2:0:0:
407,282,52780,1,8,0:0:0:0:
308,127,52956,2,0,P|278:129|251:131,1,45,2|0,0:2|0:0,0:0:0:0:
235,290,53133,1,0,1:0:0:0:
181,92,53309,2,0,P|154:83|137:73,1,45,2|2,0:2|0:2,0:0:0:0:
142,295,53486,2,0,P|127:330|126:345,1,45,8|0,0:0|0:0,0:0:0:0:
4,215,53662,5,2,0:2:0:0:
4,215,53750,1,0,0:0:0:0:
4,215,53839,2,0,L|60:196,1,45
208,153,54015,1,2,1:2:0:0:
124,115,54192,2,0,P|114:94|103:75,1,45,8|0,0:0|0:0,0:0:0:0:
208,153,54368,2,0,P|240:147|266:140,1,45,2|0,0:2|0:0,0:0:0:0:
283,69,54545,5,0,1:0:0:0:
370,267,54721,2,0,P|365:232|363:217,1,45,2|2,0:2|0:2,0:0:0:0:
367,31,54897,2,0,P|370:74|372:87,1,45,8|0,0:0|0:0,0:0:0:0:
326,151,55074,1,2,0:2:0:0:
491,155,55250,1,0,0:0:0:0:
491,155,55427,2,0,L|418:143,1,45,2|2,1:2|0:2,0:0:0:0:
397,214,55603,2,0,L|421:263,1,45,8|0,0:0|0:0,0:0:0:0:
301,263,55780,2,0,L|313:207,1,45,2|0,0:2|0:0,0:0:0:0:
246,160,55956,5,0,1:0:0:0:
158,215,56133,1,2,0:2:0:0:
149,213,56221,1,2,0:2:0:0:
140,212,56309,1,8,0:0:0:0:
76,169,56486,1,2,0:2:0:0:
173,295,56662,5,0,0:0:0:0:
237,158,56839,1,2,1:2:0:0:
246,160,56927,1,2,0:2:0:0:
255,161,57015,1,8,0:0:0:0:
319,204,57192,1,2,0:2:0:0:
51,337,57368,5,4,1:0:0:0:
30,297,57456,1,0,0:0:0:0:
41,253,57545,1,2,0:2:0:0:
77,227,57633,1,2,0:2:0:0:
121,227,57721,2,0,P|182:235|223:240,1,90,8|2,0:0|0:2,0:0:0:0:
270,269,57986,1,0,0:0:0:0:
327,304,58074,6,0,P|361:298|382:295,1,45,0|0,0:2|0:0,0:0:0:0:
481,181,58250,2,0,P|447:187|426:190,1,45,2|2,1:2|0:2,0:0:0:0:
455,277,58427,2,0,P|458:299|463:322,1,45,8|0,0:0|0:0,0:0:0:0:
347,212,58603,2,0,P|344:190|340:168,1,45,2|0,0:2|0:0,0:0:0:0:
408,108,58780,5,0,1:0:0:0:
459,64,58868,1,0,0:0:0:0:
415,12,58956,1,2,0:2:0:0:
362,55,59045,1,2,0:2:0:0:
408,108,59133,2,0,P|402:142|399:155,1,45,8|0,0:0|0:0,0:0:0:0:
322,172,59309,2,0,P|270:165|222:158,1,90,2|0,0:2|0:0,0:0:0:0:
218,157,59574,1,0,0:0:0:0:
192,96,59662,5,2,1:2:0:0:
76,171,59839,1,8,0:0:0:0:
211,233,60015,2,0,P|219:268|223:288,1,45,2|0,0:2|0:0,0:0:0:0:
92,341,60192,6,0,P|103:297|114:253,1,90,0|2,1:0|0:2,0:0:0:0:
142,192,60456,1,2,0:2:0:0:
76,171,60545,2,0,P|70:128|62:76,1,90,8|2,0:0|0:2,0:0:0:0:
325,150,60897,5,0,0:0:0:0:
289,208,60986,1,0,0:0:0:0:
233,169,61074,1,2,1:2:0:0:
267,111,61162,1,2,0:2:0:0:
325,150,61250,2,0,P|365:140|387:131,1,45,8|0,0:0|0:0,0:0:0:0:
422,180,61427,2,0,P|457:184|474:189,1,45,2|0,0:2|0:0,0:0:0:0:
434,334,61603,6,0,P|450:308|443:241,1,90,0|2,1:0|0:2,0:0:0:0:
399,203,61868,1,2,0:2:0:0:
339,234,61956,2,0,P|323:260|330:327,1,90,8|2,0:0|0:2,0:0:0:0:
387,284,62221,1,0,0:0:0:0:
336,336,62309,6,0,P|308:351|295:361,1,45
275,203,62486,2,0,P|262:236|257:253,1,45,2|2,1:2|0:2,0:0:0:0:
172,366,62662,2,0,P|185:333|190:316,1,45,8|0,0:0|0:0,0:0:0:0:
112,262,62839,2,0,P|107:234|102:213,1,45,2|0,0:2|0:0,0:0:0:0:
32,183,63015,5,4,1:0:0:0:
214,231,63192,2,0,L|229:128,1,90,2|8,0:2|0:0,0:0:0:0:
221,74,63456,1,0,0:0:0:0:
221,74,63545,2,0,L|118:89,1,90,2|0,0:2|0:0,0:0:0:0:
118,95,63809,1,0,0:0:0:0:
85,38,63897,5,2,1:2:0:0:
297,56,64074,1,8,0:0:0:0:
214,231,64250,1,2,0:2:0:0:
294,166,64427,6,0,P|256:157|238:152,1,45,0|0,1:0|0:0,0:0:0:0:
167,55,64603,2,0,P|178:92|182:110,1,45,2|2,0:2|0:2,0:0:0:0:
134,217,64780,2,0,P|160:188|174:175,1,45,8|0,0:0|0:0,0:0:0:0:
306,182,64956,2,0,P|279:210|265:223,1,45,2|0,0:2|0:0,0:0:0:0:
193,326,65133,1,0,0:0:0:0:
205,331,65221,1,0,0:0:0:0:
218,332,65309,1,2,1:2:0:0:
269,270,65486,5,8,0:0:0:0:
466,239,65662,1,2,0:2:0:0:
269,270,65839,5,0,1:0:0:0:
346,144,66015,2,0,L|319:188,1,45,2|2,0:2|0:2,0:0:0:0:
269,270,66192,5,8,1:0:0:0:
366,364,66368,1,2,0:2:0:0:
269,270,66545,5,0,1:0:0:0:
281,89,66721,1,2,0:2:0:0:
281,89,66809,1,2,0:2:0:0:
281,89,66897,6,0,L|301:180,1,90,8|2,1:0|0:2,0:0:0:0:
473,117,67250,6,0,B|434:117|410:101|410:101|359:136|359:136|331:117|281:118,1,202.500007724762,4|0,3:1|0:0,0:0:0:0:
281,89,67603,6,0,L|306:205,1,101.250003862381,0|0,3:0|0:0,0:0:0:0:
302,187,67956,1,4,3:3:0:0:
108,160,68309,1,4,3:3:0:0:
108,160,68662,6,0,B|126:136|126:136|116:83,2,71.9999978027344,2|2|2,3:2|3:2|3:2,3:0:0:0:
159,218,69015,1,2,3:2:0:0:
228,117,69133,1,2,3:2:0:0:
228,117,69250,1,2,3:2:0:0:
278,175,69368,6,0,B|318:179|318:179|341:200|341:200|379:205,1,107.999996704102,10|0,3:2|1:0,0:0:0:0:
461,292,69721,2,0,L|331:280,1,107.999996704102,0|0,3:0|0:0,0:0:0:0:
353,282,70074,6,0,B|366:317|366:317|353:358,2,71.9999978027344,2|2|2,3:2|3:2|3:2,3:2:0:0:
305,218,70427,1,2,3:2:0:0:
399,148,70545,1,2,3:2:0:0:
363,75,70662,1,2,3:2:0:0:
306,129,70780,6,0,B|274:148|274:148|196:135,1,107.999996704102,10|0,3:2|1:0,0:0:0:0:
213,40,71133,2,0,L|89:65,1,107.999996704102,0|0,3:0|1:0,0:0:0:0:
107,61,71486,5,0,1:0:0:0:
176,252,71839,1,0,3:0:0:0:
227,186,72015,1,0,1:0:0:0:
49,120,72192,2,0,L|212:134,1,135,8|0,0:0|0:0,0:0:0:0:
183,131,72545,1,0,1:0:0:0:
183,131,72721,1,0,3:0:0:0:
391,145,72897,5,0,1:0:0:0:
341,200,73074,1,2,0:2:0:0:
331,97,73250,1,2,0:2:0:0:
402,261,73427,1,2,1:2:0:0:
402,261,73515,1,0,1:0:0:0:
402,261,73603,1,8,1:2:0:0:
331,97,73780,1,0,1:0:0:0:
405,63,73956,2,0,L|451:47,6,33.7500012874604,4|0|0|0|0|0|0,3:2|0:0|0:0|0:0|1:0|0:0|0:0,0:0:0:0:
257,85,74309,6,0,L|168:76,2,71.9999978027344,2|2|2,3:2|3:2|3:2,3:2:0:0:
327,121,74662,1,2,3:2:0:0:
208,151,74780,1,2,3:2:0:0:
321,195,74897,1,2,3:2:0:0:
249,216,75015,2,0,B|239:292|239:292|256:320,1,107.999996704102,10|0,3:2|1:0,0:0:0:0:
137,376,75368,2,0,B|147:300|147:300|130:272,1,107.999996704102,0|0,3:0|0:0,0:0:0:0:
130,273,75721,6,0,L|54:285,2,71.9999978027344,2|2|2,3:2|3:2|3:2,3:2:0:0:
262,275,76074,1,2,3:2:0:0:
196,229,76192,1,2,3:2:0:0:
320,225,76309,1,2,3:2:0:0:
227,250,76427,5,10,3:2:0:0:
191,50,76603,2,0,B|214:88|214:88|210:157,1,107.999996704102,0|0,1:0|3:0,0:0:0:0:
227,250,76956,1,0,1:0:0:0:
348,75,77133,6,2,L|429:55,1,67.5,0|0,3:1|1:1,0:1:0:0:
436,50,77486,6,0,B|401:46|401:46|371:62,1,67.5000025749208,2|0,0:3|0:0,0:0:0:0:
334,202,77662,2,0,B|369:206|369:206|399:190,1,67.5000025749208,2|0,1:2|0:0,0:0:0:0:
414,175,77839,6,2,L|333:195,1,67.5,0|0,3:1|0:1,0:1:0:0:
329,187,78192,6,0,B|357:171|357:171|392:175,1,67.5000025749208,2|0,1:3|0:0,0:0:0:0:
465,325,78368,2,0,B|436:340|436:340|401:336,1,67.5000025749208,2|0,0:2|0:0,0:0:0:0:
345,298,78545,5,0,1:0:0:0:
208,358,78721,1,0,1:0:0:0:
241,336,78809,1,0,1:0:0:0:
281,340,78897,1,2,1:0:0:0:
139,331,79074,1,0,1:0:0:0:
192,200,79250,1,10,1:0:0:0:
122,251,79427,1,0,1:0:0:0:
174,117,79603,1,10,1:0:0:0:
174,117,79692,1,0,1:0:0:0:
174,117,79780,1,0,1:0:0:0:
174,117,79868,1,0,1:0:0:0:
174,117,79956,6,0,B|137:134|137:134|77:128,2,71.9999978027344,2|2|2,3:2|3:2|3:2,3:2:0:0:
230,71,80309,1,2,3:2:0:0:
296,43,80427,1,2,3:2:0:0:
364,20,80545,1,2,3:2:0:0:
360,91,80662,1,10,3:2:0:0:
350,162,80780,1,2,3:2:0:0:
292,119,80897,1,2,3:2:0:0:
319,85,81015,6,0,L|303:208,1,107.999996704102,0|0,3:0|0:0,0:0:0:0:
436,321,81368,6,0,B|450:286|450:286|445:250,2,71.9999978027344,2|2|2,3:2|3:2|3:2,3:2:0:0:
366,321,81721,1,2,3:2:0:0:
298,294,81839,1,2,3:2:0:0:
231,268,81956,1,2,3:2:0:0:
253,355,82074,1,10,3:2:0:0:
185,328,82192,1,2,3:2:0:0:
118,302,82309,1,2,3:2:0:0:
118,302,82427,6,0,B|73:335|73:335|121:363,1,107.999996704102,0|0,3:0|1:0,0:0:0:0:
185,328,82780,5,0,1:0:0:0:
226,169,83133,1,0,3:0:0:0:
266,239,83309,1,0,1:0:0:0:
130,168,83486,2,0,L|113:330,1,135,8|0,0:0|0:0,0:0:0:0:
115,302,83839,1,0,1:0:0:0:
115,302,84015,1,0,3:0:0:0:
97,226,84192,5,4,1:3:0:0:
167,248,84368,1,0,0:0:0:0:
38,138,84545,5,8,0:3:0:0:
183,178,84721,1,0,2:0:0:0:
183,178,84809,1,0,1:0:0:0:
183,178,84897,1,8,1:2:0:0:
97,226,85074,1,0,1:0:0:0:
242,264,85250,2,0,L|298:276,2,45,4|0|0,0:3|1:0|1:0,1:0:0:0:
112,157,85603,6,2,B|155:142|155:142|168:95|168:95|235:76|235:76|212:170|212:170|306:147|306:147|318:101,1,405.000015449525,2|0,1:1|0:1,0:1:0:0:
318,101,86221,1,0,0:0:0:0:
318,101,86309,1,4,0:2:0:0:
493,149,86486,1,0,1:0:0:0:
408,128,86662,5,2,0:0:0:0:
404,124,86750,1,2,0:0:0:0:
400,128,86839,1,2,0:0:0:0:
404,132,86927,1,2,0:0:0:0:
432,196,87015,6,0,B|444:244|444:244|428:292,2,90.0000034332277,2|2|2,3:2|3:2|3:2,3:0:0:0:
363,59,87368,1,2,3:2:0:0:
476,144,87486,1,2,3:2:0:0:
363,196,87603,1,2,3:2:0:0:
402,127,87721,5,10,3:2:0:0:
425,337,87897,2,0,L|412:223,1,90,0|0,1:0|0:0,0:0:0:0:
402,127,88250,1,0,1:0:0:0:
285,101,88427,5,0,3:0:0:0:
236,91,88603,1,0,3:0:0:0:
225,143,88780,1,0,3:0:0:0:
277,154,88956,1,0,3:0:0:0:
166,51,89133,5,0,1:0:0:0:
346,193,89309,1,0,1:0:0:0:
185,212,89486,1,0,1:0:0:0:
327,32,89662,1,0,1:0:0:0:
256,124,89839,5,0,3:0:0:0:
199,179,90192,2,0,B|163:175|163:175|137:186|137:186|82:182,1,101.250003862381,0|0,3:0|0:0,0:0:0:0:
41,140,90545,1,4,3:3:0:0:
352,110,90897,1,4,3:3:0:0:
352,110,91250,6,0,P|403:101|473:81,1,107.999996704102,6|2,1:1|0:2,0:0:0:0:
360,139,91515,2,0,P|323:122|307:117,1,53.9999983520508,2|8,0:2|1:0,0:0:0:0:
303,301,91692,1,0,0:0:0:0:
303,301,91780,2,0,B|287:249|287:249|313:194,1,107.999996704102,2|0,0:1|1:0,0:0:0:0:
269,56,92045,2,0,B|285:108|285:108|259:163,1,107.999996704102,2|2,0:2|0:2,0:0:0:0:
198,178,92309,2,0,L|140:168,1,53.9999983520508,8|0,1:0|0:0,0:0:0:0:
309,200,92486,1,2,0:2:0:0:
169,156,92662,6,0,L|54:137,1,107.999996704102,2|2,1:1|0:2,0:0:0:0:
68,263,92927,1,2,0:2:0:0:
68,263,93015,2,0,L|129:246,1,53.9999983520508,8|0,1:0|0:0,0:0:0:0:
237,106,93192,2,0,L|349:70,1,107.999996704102,2|0,0:1|1:0,0:0:0:0:
390,55,93456,1,2,0:2:0:0:
384,70,93545,1,0,0:0:0:0:
379,85,93633,1,2,0:2:0:0:
374,100,93721,2,0,P|376:137|383:166,1,53.9999983520508,8|0,1:0|0:0,0:0:0:0:
306,195,93897,2,0,P|342:233|363:242,1,53.9999983520508,2|0,0:2|0:0,0:0:0:0:
404,287,94074,5,2,1:1:0:0:
416,293,94162,1,0,0:0:0:0:
301,185,94339,1,2,0:2:0:0:
295,174,94427,1,8,1:0:0:0:
290,319,94603,2,0,L|256:369,1,53.9999983520508,2|0,0:1|0:0,0:0:0:0:
194,333,94780,1,4,1:2:0:0:
169,297,94868,1,2,0:2:0:0:
128,281,94956,1,0,0:0:0:0:
85,289,95045,1,2,0:2:0:0:
54,319,95133,2,0,B|69:285|69:285|51:201,1,107.999996704102,8|2,1:0|0:2,0:0:0:0:
98,116,95486,5,2,1:1:0:0:
98,116,95574,2,0,L|112:182,1,53.9999983520508,0|2,0:0|0:2,0:0:0:0:
170,265,95750,1,2,0:2:0:0:
170,265,95839,2,0,L|184:199,1,53.9999983520508,8|0,1:0|0:0,0:0:0:0:
216,72,96015,1,2,0:1:0:0:
216,72,96103,2,0,L|230:138,1,53.9999983520508,0|4,0:0|1:2,0:0:0:0:
283,297,96280,1,2,0:2:0:0:
283,297,96368,2,0,L|297:231,1,53.9999983520508,0|2,0:0|0:2,0:0:0:0:
334,107,96545,2,0,P|370:112|400:112,1,53.9999983520508,8|0,1:0|0:0,0:0:0:0:
459,266,96721,2,0,P|423:261|393:261,1,53.9999983520508,2|0,0:2|0:0,0:0:0:0:
328,189,96897,6,0,L|211:182,1,107.999996704102,6|2,1:1|0:2,0:0:0:0:
184,205,97162,2,0,L|237:194,1,53.9999983520508,2|8,0:2|1:0,0:0:0:0:
337,321,97339,1,0,0:0:0:0:
337,320,97427,2,0,P|294:286|245:264,1,107.999996704102,2|0,0:1|1:0,0:0:0:0:
186,97,97692,2,0,P|179:151|184:205,1,107.999996704102,2|2,0:2|0:2,0:0:0:0:
184,205,97956,2,0,L|119:218,1,53.9999983520508,8|0,1:0|0:0,0:0:0:0:
57,226,98133,1,2,0:2:0:0:
305,204,98309,6,0,L|418:184,1,107.999996704102,2|2,1:1|0:2,0:0:0:0:
465,158,98574,1,2,0:2:0:0:
465,158,98662,2,0,L|406:169,1,53.9999983520508,8|0,1:0|0:0,0:0:0:0:
269,373,98839,2,0,L|249:255,1,107.999996704102,2|0,0:1|1:0,0:0:0:0:
255,251,99103,1,2,0:2:0:0:
259,235,99192,1,0,0:0:0:0:
264,219,99280,1,2,0:2:0:0:
269,203,99368,2,0,P|306:184|322:172,1,53.9999983520508,8|0,1:0|0:0,0:0:0:0:
246,29,99545,2,0,P|209:48|193:60,1,53.9999983520508,2|0,0:2|0:0,0:0:0:0:
258,111,99721,5,2,1:1:0:0:
271,116,99809,1,0,0:0:0:0:
349,27,99986,1,2,0:2:0:0:
352,44,100074,1,8,1:0:0:0:
136,108,100250,2,0,L|110:167,1,53.9999983520508,2|0,0:1|0:0,0:0:0:0:
48,201,100427,5,4,1:2:0:0:
41,186,100515,1,2,0:2:0:0:
41,169,100603,1,0,0:0:0:0:
136,108,100780,1,8,1:0:0:0:
136,215,100956,1,2,1:2:0:0:
45,279,101133,5,2,1:1:0:0:
224,232,101309,1,2,0:2:0:0:
234,232,101397,1,2,0:2:0:0:
244,232,101486,1,8,1:0:0:0:
254,232,101574,1,0,0:0:0:0:
264,233,101662,1,2,0:1:0:0:
246,114,101839,5,4,1:2:0:0:
234,107,101927,2,0,L|249:169,1,53.9999983520508,2|0,0:2|0:0,0:0:0:0:
206,352,102103,1,2,1:2:0:0:
194,359,102192,6,0,L|209:297,1,53.9999983520508,8|0,1:0|0:0,0:0:0:0:
271,73,102368,2,0,L|256:135,1,53.9999983520508,2|0,1:2|0:0,0:0:0:0:
170,189,102545,6,0,P|113:181|52:173,1,107.999996704102,6|2,1:1|0:2,0:0:0:0:
40,244,102809,1,2,0:2:0:0:
109,254,102897,2,0,P|146:257|176:261,1,53.9999983520508,8|0,1:0|0:0,0:0:0:0:
308,140,103074,2,0,P|271:137|241:133,1,53.9999983520508,2|0,0:1|0:0,0:0:0:0:
409,223,103250,1,0,1:0:0:0:
409,223,103339,2,0,P|416:291|397:338,1,107.999996704102,2|2,0:2|0:2,0:0:0:0:
337,345,103603,1,8,1:0:0:0:
337,345,103780,2,0,P|335:304|334:284,1,53.9999983520508,2|0,0:2|0:0,0:0:0:0:
336,149,103956,5,2,1:1:0:0:
336,149,104045,2,0,P|389:132|460:132,1,107.999996704102,0|2,0:0|0:2,0:0:0:0:
367,55,104309,2,0,P|333:45|313:35,1,53.9999983520508,8|0,1:0|0:0,0:0:0:0:
235,100,104486,2,0,P|251:133|258:152,1,53.9999983520508,2|0,0:1|0:0,0:0:0:0:
159,258,104662,5,0,1:0:0:0:
159,258,104750,1,2,0:2:0:0:
159,258,104839,1,0,0:0:0:0:
159,258,104927,1,2,0:2:0:0:
217,219,105015,2,0,L|272:218,1,53.9999983520508,8|0,1:0|0:0,0:0:0:0:
359,269,105192,2,0,L|414:268,1,53.9999983520508,2|0,0:2|0:0,0:0:0:0:
495,192,105368,6,0,L|387:192,1,107.999996704102,2|2,1:1|0:2,0:0:0:0:
319,214,105633,1,2,0:2:0:0:
253,238,105721,2,0,P|250:208|248:176,1,53.9999983520508,8|0,1:0|0:0,0:0:0:0:
185,81,105897,2,0,P|188:111|190:143,1,53.9999983520508,2|0,0:1|0:0,0:0:0:0:
336,149,106074,1,4,1:2:0:0:
336,149,106162,2,0,P|333:103|290:34,1,107.999996704102,2|2,0:2|0:2,0:0:0:0:
233,23,106427,1,8,1:0:0:0:
26,137,106603,2,0,P|45:164|63:165,1,53.9999983520508,2|0,0:2|0:0,0:0:0:0:
154,127,106780,5,2,1:1:0:0:
173,115,106868,2,0,P|238:96|292:96,1,107.999996704102,0|2,0:0|0:2,0:0:0:0:
319,208,107133,2,0,P|288:180|279:161,1,53.9999983520508,8|0,1:0|0:0,0:0:0:0:
309,10,107309,2,0,P|340:38|371:106,1,107.999996704102,2|4,0:1|1:2,0:0:0:0:
395,89,107574,2,0,L|387:166,1,53.9999983520508,2|0,0:2|0:0,0:0:0:0:
348,332,107839,1,8,1:0:0:0:
422,296,108015,1,2,0:2:0:0:
252,231,108192,5,6,1:1:0:0:
275,363,108368,1,2,1:2:0:0:
237,222,108545,1,8,1:0:0:0:
361,260,108721,1,2,1:1:0:0:
207,310,108897,1,0,1:0:0:0:
196,308,108986,1,2,0:0:0:0:
185,306,109074,1,0,1:0:0:0:
174,304,109162,1,2,0:0:0:0:
129,250,109250,2,0,L|21:268,1,107.999996704102,12|2,1:2|1:2,0:0:0:0:
179,99,109603,5,6,1:1:0:0:
129,250,109780,1,2,1:2:0:0:
189,93,109956,1,8,1:0:0:0:
66,165,110133,1,2,1:1:0:0:
197,172,110309,1,0,1:0:0:0:
208,170,110397,1,2,0:0:0:0:
219,168,110486,1,0,1:0:0:0:
230,166,110574,1,2,0:0:0:0:
296,192,110662,2,0,B|306:121|306:121|287:80,1,107.999996704102,12|2,1:2|1:2,0:0:0:0:
432,192,111015,5,6,1:1:0:0:
421,192,111103,1,0,1:0:0:0:
410,192,111192,1,0,1:0:0:0:
399,192,111280,1,0,1:0:0:0:
388,192,111368,1,8,1:0:0:0:
377,192,111456,1,0,1:0:0:0:
366,192,111545,1,2,1:1:0:0:
355,192,111633,1,0,1:0:0:0:
344,192,111721,1,0,1:0:0:0:
333,192,111809,1,0,1:0:0:0:
322,192,111897,1,0,1:0:0:0:
311,192,111986,1,0,1:0:0:0:
300,192,112074,1,8,1:0:0:0:
289,192,112162,1,0,1:0:0:0:
278,192,112250,1,0,1:0:0:0:
267,192,112339,1,0,1:0:0:0:
256,192,112427,6,0,L|209:146,1,53.9999983520508,6|0,0:1|0:0,0:0:0:0:
62,213,112603,6,0,L|34:186,2,26.9999991760254
112,262,112780,2,0,L|150:299,1,53.9999983520508
308,160,112956,6,0,L|335:132,2,26.9999991760254,2|0|0,0:1|0:0|0:0,0:0:0:0:
259,210,113133,2,0,L|221:248,1,53.9999983520508
171,146,113309,6,0,L|144:174,2,26.9999991760254
220,96,113486,2,0,L|257:57,1,53.9999983520508
314,280,113662,2,0,L|351:318,1,53.9999983520508
406,138,113839,6,0,L|491:42,1,107.999996704102,4|0,1:0|0:0,0:0:0:0:
142,289,114192,5,0,0:0:0:0:
142,289,114368,1,0,0:0:0:0:
82,115,114545,1,4,0:0:0:0:
259,216,114897,5,0,0:0:0:0:
259,216,115074,1,0,0:0:0:0:
70,191,115250,1,4,0:0:0:0:
400,139,115603,5,0,0:0:0:0:
400,139,115780,1,0,0:0:0:0:
56,265,115956,2,4,P|167:259|415:324,2,360
56,265,117015,5,0,0:0:0:0:
106,132,117192,1,0,0:0:0:0:
176,368,117368,1,4,0:0:0:0:
456,119,117721,5,0,0:0:0:0:
406,252,117897,1,0,0:0:0:0:
336,16,118074,1,4,0:0:0:0:
56,157,118427,5,0,0:0:0:0:
256,192,118603,1,0,0:0:0:0:
456,227,118780,1,4,0:0:0:0:
