osu file format v14

[General]
AudioFilename: audio.mp3
AudioLeadIn: 0
PreviewTime: 23397
Countdown: 0
SampleSet: Soft
StackLeniency: 0.4
Mode: 0
LetterboxInBreaks: 0
EpilepsyWarning: 1
WidescreenStoryboard: 1

[Editor]
DistanceSpacing: 0.9
BeatDivisor: 4
GridSize: 4
TimelineZoom: 1.9

[Metadata]
Title:Der Wald (kors k Remix)
TitleUnicode:Der Wald (kors k Remix)
Artist:Eleharmonica remixed by kors k
ArtistUnicode:エレハモニカ remixed by kors k
Creator:Cheesecake
Version:Normal
Source:pop'n music 20 fantasia
Tags:darky1 xchorse mithew jace rlc lasse hareimu spectator ascendance popn twenty mzd taku sakakibara seiya murai kosuke saito dark opera ダークオペラ the forest
BeatmapID:1483056
BeatmapSetID:581787

[Difficulty]
HPDrainRate:3
CircleSize:3
OverallDifficulty:3.5
ApproachRate:5
SliderMultiplier:1.2
SliderTickRate:1

[Events]
//Background and Video events
0,0,"der wald.jpg",0,0
//Break Periods
//Storyboard Layer 0 (Background)
//Storyboard Layer 1 (Fail)
//Storyboard Layer 2 (Pass)
//Storyboard Layer 3 (Foreground)
Sprite,Foreground,Centre,"sb\Circle.png",132,256 F,0,92661,93723,1,0 S,7,92661,93723,0.5,4 P,0,92661,93723,A
Sprite,Foreground,Centre,"sb\Circle.png",475,389 F,0,94073,95135,1,0 S,7,94073,95135,0.5,4 P,0,94073,95135,A
Sprite,Foreground,Centre,"sb\Circle.png",89,317 F,0,95485,96547,1,0 S,7,95485,96547,0.5,4 P,0,95485,96547,A
Sprite,Foreground,Centre,"sb\Circle.png",343,174 F,0,96897,97959,1,0 S,7,96897,97959,0.5,4 P,0,96897,97959,A
Sprite,Foreground,Centre,"sb\Circle.png",387,382 F,0,98308,99370,1,0 S,7,98308,99370,0.5,4 P,0,98308,99370,A
Sprite,Foreground,Centre,"sb\Circle.png",100,193 F,0,99720,100782,1,0 S,7,99720,100782,0.5,4 P,0,99720,100782,A
Sprite,Foreground,Centre,"sb\Circle.png",487,100 F,0,101132,102194,1,0 S,7,101132,102194,0.5,4 P,0,101132,102194,A
Sprite,Foreground,Centre,"sb\Circle.png",204,225 F,0,102544,103606,1,0 S,7,102544,103606,0.5,4 P,0,102544,103606,A
Sprite,Foreground,Centre,"sb\Circle.png",514,386 F,0,103955,105017,1,0 S,7,103955,105017,0.5,4 P,0,103955,105017,A
Sprite,Foreground,Centre,"sb\Circle.png",354,325 F,0,105367,106429,1,0 S,7,105367,106429,0.5,4 P,0,105367,106429,A
Sprite,Foreground,Centre,"sb\Circle.png",324,159 F,0,106779,107841,1,0 S,7,106779,107841,0.5,4 P,0,106779,107841,A
Sprite,Foreground,Centre,"sb\Circle.png",396,393 F,0,108191,109253,1,0 S,7,108191,109253,0.5,4 P,0,108191,109253,A
Sprite,Foreground,Centre,"sb\Circle.png",347,296 F,0,109603,110665,1,0 S,7,109603,110665,0.5,4 P,0,109603,110665,A
Sprite,Foreground,Centre,"sb\Circle.png",448,257 F,0,111015,112077,1,0 S,7,111015,112077,0.5,4 P,0,111015,112077,A
Sprite,Foreground,Centre,"sb\Circle.png",389,73 F,0,111721,112783,1,0 S,7,111721,112783,0.5,4 P,0,111721,112783,A
Sprite,Foreground,Centre,"sb\Circle.png",347,296 F,0,112427,113489,1,0 S,7,112427,113489,0.5,4 P,0,112427,113489,A
Sprite,Foreground,Centre,"sb\Circle.png",243,328 F,0,112780,113842,1,0 S,7,112780,113842,0.5,4 P,0,112780,113842,A
Sprite,Foreground,Centre,"sb\Circle.png",144,281 F,0,113133,114195,1,0 S,7,113133,114195,0.5,4 P,0,113133,114195,A
Sprite,Foreground,Centre,"sb\Circle.png",106,180 F,0,113486,114548,1,0 S,7,113486,114548,0.5,4 P,0,113486,114548,A
Sprite,Foreground,Centre,"sb\Naxess_3.png",144,79 C,0,113839,,239,104,14 S,30,113839,114191,0,1.5 F,2,113839,114544,1,0
Sprite,Foreground,Centre,"sb\Naxess_3.png",235,136 C,0,114192,,239,104,14 S,30,114192,114544,0,1.5 F,2,114192,114897,1,0
Sprite,Foreground,Centre,"sb\Naxess_3.png",349,138 C,0,114545,,239,104,14 S,30,114545,114897,0,1.5 F,2,114545,115250,1,0
Sprite,Foreground,Centre,"sb\Naxess_3.png",349,245 C,0,114897,,239,104,14 S,30,114897,115249,0,1.5 F,2,114897,115602,1,0
Sprite,Foreground,Centre,"sb\Naxess_3.png",235,247 C,0,115250,,239,104,14 S,30,115250,115602,0,1.5 F,2,115250,115955,1,0
Sprite,Foreground,Centre,"sb\Naxess_3.png",235,355 C,0,115603,,239,104,14 S,30,115603,115955,0,1.5 F,2,115603,116308,1,0
Sprite,Foreground,Centre,"sb\Naxess_3.png",349,357 C,0,115956,,239,104,14 S,30,115956,116308,0,1.5 F,2,115956,116661,1,0
Sprite,Foreground,Centre,"sb\Naxess_3.png",442,303 C,0,116309,,239,104,14 S,30,116309,116661,0,1.5 F,2,116309,117014,1,0
Sprite,Foreground,Centre,"sb\Naxess_3.png",442,194 C,0,116662,,105,47,225 S,30,116662,117014,0,1.5 F,2,116662,117367,1,0
Sprite,Foreground,Centre,"sb\Naxess_3.png",349,245 C,0,117015,,105,47,225 S,30,117015,117367,0,1.5 F,2,117015,117720,1,0
Sprite,Foreground,Centre,"sb\Naxess_3.png",235,247 C,0,117368,,105,47,225 S,30,117368,117720,0,1.5 F,2,117368,118073,1,0
Sprite,Foreground,Centre,"sb\Naxess_3.png",235,136 C,0,117721,,105,47,225 S,30,117721,118073,0,1.5 F,2,117721,118426,1,0
Sprite,Foreground,Centre,"sb\Naxess_3.png",349,138 C,0,118074,,105,47,225 S,30,118074,118426,0,1.5 F,2,118074,118779,1,0
Sprite,Foreground,Centre,"sb\Naxess_3.png",0,194 C,0,118427,,105,47,225 MX,0,118427,,442 S,30,118427,118779,0,1.5 F,2,118427,119132,1,0 MX,0,118780,,-300
Sprite,Foreground,Centre,"sb\Circle.png",395,152 F,0,89133,89841,1,0 S,22,89133,89841,0,4
Sprite,Foreground,Centre,"sb\Circle.png",352,227 F,0,89486,90194,1,0 S,22,89486,90194,0,4
Sprite,Foreground,Centre,"sb\Circle.png",364,334 F,0,89839,90547,1,0 S,22,89839,90547,0,4
Sprite,Foreground,TopLeft,"sb\pixel.png",0,130 V,4,12198,12375,0,0.2,17.6,0.2 MX,0,12198,15022,100,130 F,0,15022,15199,0.5,0 MX,4,15022,15199,130,306 V,4,15022,15199,17.6,0.2,0,0.2
Sprite,Foreground,BottomLeft,"sb\MapCheesecake.png",0,130 MX,0,12198,15022,125,140 V,0,12286,12375,0.5,0,0.5,0.5 F,0,14491,15022,0.5,0
//Storyboard Sound Samples

[TimingPoints]
898,352.941176470588,4,2,1,40,1,0
898,-100,4,2,1,40,0,0
12192,-100,4,2,1,50,0,0
23486,-100,4,2,1,60,0,0
44662,-100,4,2,1,70,0,0
46074,-100,4,2,1,70,0,1
68662,-100,4,2,1,70,0,0
71486,-100,4,2,1,70,0,0
74309,-100,4,2,1,70,0,0
82780,-100,4,2,1,70,0,0
85603,-100,4,2,1,70,0,0
89839,-100,4,2,1,70,0,0
90545,-100,4,2,1,70,0,0
91250,-100,4,2,1,70,0,1
99721,-100,4,2,1,70,0,1
102545,-100,4,2,1,70,0,1
113839,-100,4,2,1,70,0,0

[Colours]
Combo1 : 147,34,221
Combo2 : 239,104,14
Combo3 : 105,47,225
Combo4 : 221,52,28

[HitObjects]
343,225,898,6,0,P|405:227|458:247,2,120,0|0|2,0:0|0:0|0:0,0:0:0:0:
237,248,1956,1,2,0:0:0:0:
272,143,2309,2,0,P|212:143|156:162,2,120,0|0|2,0:0|0:0|0:0,0:0:0:0:
343,225,3368,1,2,0:0:0:0:
309,330,3721,6,0,L|189:334,2,120,0|0|2,0:0|0:0|0:0,0:0:0:0:
414,304,4780,1,2,0:0:0:0:
343,225,5133,2,0,L|222:229,1,120,0|0,0:0|0:0,0:0:0:0:
147,148,5839,2,0,P|172:132|201:122,2,60,0|2|2,0:0|0:0|0:0,0:0:0:0:
117,192,6368,1,0,0:0:0:0:
117,246,6545,6,0,P|63:235|-2:246,2,120,0|0|2,0:0|0:0|0:0,0:0:0:0:
192,322,7603,1,2,0:0:0:0:
282,260,7956,2,0,P|336:271|401:259,2,120,0|0|2,0:0|0:0|0:0,0:0:0:0:
211,178,9015,1,2,0:0:0:0:
132,103,9368,6,0,L|13:117,2,120,0|0|2,0:0|0:0|0:0,0:0:0:0:
236,72,10427,1,2,0:0:0:0:
338,103,10780,2,0,L|457:117,1,120,0|0,0:0|0:0,0:0:0:0:
477,224,11486,2,0,L|479:286,2,60,0|2|2,0:0|0:0|0:0,0:0:0:0:
423,213,12015,1,0,0:0:0:0:
373,234,12192,6,0,L|311:234,1,60,0|0,0:0|0:0,0:0:0:0:
287,282,12545,2,0,P|229:272|170:283,1,120,0|2,0:0|0:0,0:0:0:0:
70,326,13250,1,2,0:0:0:0:
51,218,13603,2,0,P|49:189|50:159,1,60,0|0,0:0|0:0,0:0:0:0:
54,105,13956,2,0,P|125:96|171:112,1,120,0|2,0:0|0:0,0:0:0:0:
266,160,14662,1,2,0:0:0:0:
372,138,15015,6,0,L|377:197,1,60,0|0,0:0|0:0,0:0:0:0:
392,249,15368,2,0,B|331:246|331:246|273:257,1,120,0|2,0:0|0:0,0:0:0:0:
167,280,16074,1,2,0:0:0:0:
86,206,16427,6,0,L|80:146,1,60,0|0,0:0|0:0,0:0:0:0:
73,92,16780,1,0,0:0:0:0:
180,82,17133,2,0,P|163:37|148:18,2,60,0|2|2,0:0|0:0|0:0,0:0:0:0:
190,135,17662,1,0,0:0:0:0:
193,189,17839,6,0,P|240:186|267:188,1,60,0|0,0:0|0:0,0:0:0:0:
301,211,18192,2,0,P|361:215|421:209,1,120,0|2,0:0|0:0,0:0:0:0:
462,109,18897,1,2,0:0:0:0:
368,57,19250,2,0,P|338:53|308:53,1,60,0|0,0:0|0:0,0:0:0:0:
259,78,19603,2,0,P|199:82|139:77,1,120,0|2,0:0|0:0,0:0:0:0:
77,166,20309,1,2,0:0:0:0:
141,252,20662,6,0,L|261:256,1,120,2|0,0:0|0:0,0:0:0:0:
347,189,21368,2,0,L|407:190,2,60,2|0|0,0:0|0:0|0:0,0:0:0:0:
280,103,22074,2,0,L|159:98,1,120,2|0,0:0|0:0,0:0:0:0:
59,139,22780,2,0,L|56:199,1,60,2|0,0:0|0:0,0:0:0:0:
103,225,23133,2,0,L|100:285,1,60,2|0,0:0|0:0,0:0:0:0:
144,315,23486,6,0,B|165:309|188:298|188:298|222:297|260:305,1,120,2|8,0:1|0:0,0:0:0:0:
309,328,24015,1,0,0:0:0:0:
360,343,24192,2,0,P|419:343|482:318,1,120,0|8,0:0|0:0,0:0:0:0:
488,214,24897,2,0,B|481:171|481:171|484:89,1,120,2|8,0:1|0:0,0:0:0:0:
377,74,25603,2,0,B|384:117|384:117|381:199,1,120,0|8,0:0|0:0,0:0:0:0:
274,173,26309,6,0,B|242:171|242:171|205:174,1,60,2|0,0:1|0:0,0:0:0:0:
161,184,26662,1,8,0:0:0:0:
75,117,27015,2,0,P|121:85|193:80,1,120,0|8,0:0|0:0,0:0:0:0:
291,86,27721,2,0,B|328:92|357:84|357:84|379:93|408:97,1,120,2|8,0:1|0:0,0:0:0:0:
462,106,28250,1,0,0:0:0:0:
509,132,28427,2,0,P|518:181|497:255,1,120,0|8,0:0|0:0,0:0:0:0:
398,283,29133,6,0,B|373:277|345:279|345:279|316:289|279:287,1,120,2|8,0:1|0:0,0:0:0:0:
226,274,29662,1,0,0:0:0:0:
181,304,29839,2,0,P|121:313|63:301,1,120,0|8,0:0|0:0,0:0:0:0:
0,212,30545,2,0,B|0:155|0:155|12:90,1,120,2|8,0:1|0:0,0:0:0:0:
31,42,31074,1,0,0:0:0:0:
83,31,31250,2,0,P|147:41|209:40,1,120,0|8,0:0|0:0,0:0:0:0:
308,58,31956,6,0,L|310:117,1,60,2|0,0:1|0:0,0:0:0:0:
266,149,32309,2,0,L|268:208,1,60,8|0,0:0|0:0,0:0:0:0:
224,240,32662,2,0,P|157:231|81:237,1,120,0|8,0:0|0:0,0:0:0:0:
35,316,33368,2,0,B|67:319|94:333|94:333|120:325|151:327,1,120,2|8,0:1|0:0,0:0:0:0:
205,336,33897,1,0,0:0:0:0:
258,343,34074,2,0,P|309:337|389:315,1,120,0|8,0:0|0:0,0:0:0:0:
412,218,34780,6,0,L|419:97,1,120,2|2,0:1|0:1,0:0:0:0:
310,98,35486,2,0,L|303:217,1,120,2|2,0:1|0:1,0:0:0:0:
194,217,36192,2,0,L|201:98,1,120,2|2,0:1|0:1,0:0:0:0:
92,97,36897,2,0,L|85:216,1,120,2|2,0:1|0:1,0:0:0:0:
136,311,37603,6,0,L|201:313,1,60,2|0,0:1|0:0,0:0:0:0:
248,300,37956,2,0,L|313:302,1,60,8|0,0:0|0:0,0:0:0:0:
360,289,38309,2,0,P|380:232|379:173,1,120,2|8,0:1|0:0,0:0:0:0:
303,96,39015,2,0,L|238:94,1,60,2|0,0:1|0:0,0:0:0:0:
191,107,39368,2,0,L|126:105,1,60,8|0,0:0|0:0,0:0:0:0:
79,118,39721,2,0,P|58:174|59:233,1,120,2|8,0:1|0:0,0:0:0:0:
162,266,40427,5,2,0:1:0:0:
162,266,40603,1,2,0:1:0:0:
162,266,40780,2,0,L|285:276,2,120,2|2|2,0:1|0:1|0:1,0:0:0:0:
119,166,41839,1,2,0:1:0:0:
119,166,42015,1,2,0:1:0:0:
119,166,42192,2,0,L|-4:176,2,120,2|2|2,0:1|0:1|0:1,0:0:0:0:
256,192,43250,12,2,44662,0:0:0:0:
162,60,46074,6,0,B|163:100|157:139|157:139|185:217|185:217|178:252|181:297,1,240,6|0,0:1|0:0,0:0:0:0:
283,329,47133,2,0,P|322:329|355:325,1,60,10|2,0:0|0:0,0:0:0:0:
392,304,47486,2,0,B|404:245|404:245|400:185,1,120,2|10,0:1|0:0,0:0:0:0:
389,132,48015,1,2,0:0:0:0:
357,86,48192,2,0,P|270:107|187:75,1,180,0|0,0:1|0:0,0:0:0:0:
134,80,48897,6,0,B|71:71|71:71|12:96,2,120,2|10|2,0:0|0:0|0:0,0:0:0:0:
162,184,49956,2,0,B|221:192,1,60,10|0,0:0|0:0,0:0:0:0:
274,185,50309,2,0,P|275:126|292:68,1,120,2|8,0:1|0:0,0:0:0:0:
343,49,50839,1,0,0:0:0:0:
395,36,51015,2,0,P|394:95|377:153,1,120,2|10,0:0|0:0,0:0:0:0:
364,206,51545,1,0,0:0:0:0:
365,260,51721,6,0,B|320:260|279:283|279:283|240:260|193:265,1,180,2|0,0:1|0:0,0:0:0:0:
145,291,52427,2,0,P|107:294|19:277,1,120,0|8,0:0|0:0,0:0:0:0:
26,171,53133,2,0,P|84:157|144:159,1,120,2|8,0:1|0:0,0:0:0:0:
228,226,53839,1,0,0:0:0:0:
312,293,54192,2,0,P|341:290|370:282,1,60,10|2,0:0|0:0,0:0:0:0:
418,256,54545,6,0,L|419:136,1,120,2|8,0:1|0:0,0:0:0:0:
378,100,55074,1,0,0:0:0:0:
331,73,55250,2,0,B|282:76|282:76|254:85|206:88,2,120,0|8|2,0:0|0:0|0:1,0:0:0:0:
428,28,56309,1,8,0:0:0:0:
492,114,56662,2,0,L|491:173,1,60,2|2,0:0|0:0,0:0:0:0:
457,216,57015,2,0,L|456:275,1,60,10|2,0:0|0:0,0:0:0:0:
419,315,57368,6,0,B|343:323|371:347|303:327|303:327|235:347|263:323|187:315,1,240,6|0,0:1|0:0,0:0:0:0:
104,244,58427,2,0,P|101:204|106:167,1,60,10|2,0:0|0:0,0:0:0:0:
138,143,58780,2,0,P|196:152|254:138,2,120,2|10|2,0:0|0:0|0:0,0:0:0:0:
47,82,59839,1,10,0:0:0:0:
147,43,60192,6,0,B|263:52|212:11|384:30,1,240,2|0,0:1|0:0,0:0:0:0:
447,118,61250,2,0,L|446:194,1,60,10|2,0:0|0:0,0:0:0:0:
439,231,61603,2,0,P|426:288|399:342,1,120,2|8,0:1|0:0,0:0:0:0:
348,363,62133,1,0,0:0:0:0:
294,357,62309,2,0,P|305:298|332:243,1,120,2|8,0:0|0:0,0:0:0:0:
338,190,62839,1,0,0:0:0:0:
332,136,63015,6,0,L|203:130,1,120,2|8,0:1|0:0,0:0:0:0:
163,154,63545,1,0,0:0:0:0:
115,177,63721,2,0,B|103:197|47:215|7:221|7:221|88:265|173:263|238:222,1,360,0|8,0:0|0:0,0:0:0:0:
322,156,65133,2,0,P|327:112|324:26,1,120,2|10,0:0|0:0,0:0:0:0:
430,62,65839,6,0,L|428:189,2,120,2|2|2,0:1|0:1|0:1,0:0:0:0:
325,36,66897,2,0,P|289:37|259:44,1,60,2|2,0:1|0:0,0:0:0:0:
216,64,67250,2,0,B|144:74|144:74|97:70,1,120,2|2,0:1|0:1,0:0:0:0:
120,176,67956,2,0,B|192:166|192:166|238:169,1,120,4|4,0:3|0:3,0:0:0:0:
307,252,68662,6,0,B|362:247|362:247|375:250|375:250|445:246,1,120,2|2,0:0|0:0,0:0:0:0:
456,202,69192,1,0,0:0:0:0:
471,150,69368,2,0,B|473:116|473:116|472:79,1,60,2|0,0:0|0:0,0:0:0:0:
455,38,69721,1,0,0:0:0:0:
350,66,70074,2,0,B|309:79|309:79|223:64,1,120,2|2,0:0|0:0,0:0:0:0:
180,51,70603,1,0,0:0:0:0:
126,61,70780,2,0,L|129:135,1,60,2|0,0:0|0:0,0:0:0:0:
96,164,71133,2,0,L|99:238,1,60,0|0,0:0|0:0,0:0:0:0:
66,267,71486,5,2,0:1:0:0:
161,318,71839,2,0,L|226:313,1,60,0|2,0:0|0:1,0:0:0:0:
266,284,72192,2,0,B|295:287|323:296|323:296|353:286|382:281|382:281|411:288|411:288|455:283,1,180,8|0,0:0|0:0,0:0:0:0:
465,236,72897,2,0,B|470:187|470:187|462:105,1,120,2|0,0:1|0:0,0:0:0:0:
454,62,73427,2,0,L|383:55,1,60,0|8,0:0|0:0,0:0:0:0:
342,71,73780,1,2,0:1:0:0:
290,86,73956,2,0,L|230:80,1,60,0|8,0:0|0:0,0:0:0:0:
178,95,74309,6,0,B|180:134|180:134|176:153|176:153|182:174|182:174|184:226,1,120,2|2,0:0|0:0,0:0:0:0:
192,267,74839,1,0,0:0:0:0:
234,299,75015,2,0,L|293:304,1,60,2|0,0:0|0:0,0:0:0:0:
352,309,75368,1,0,0:0:0:0:
442,250,75721,2,0,B|451:202|451:202|427:134,1,120,2|2,0:0|0:0,0:0:0:0:
407,84,76250,1,0,0:0:0:0:
362,52,76427,2,0,L|288:49,1,60,2|0,0:0|0:0,0:0:0:0:
259,82,76780,2,0,L|185:79,1,60,2|2,0:0|0:0,0:0:0:0:
156,112,77133,6,0,B|97:106|97:106|36:108,1,120,2|10,0:1|0:0,0:0:0:0:
17,158,77662,1,2,0:0:0:0:
2,210,77839,2,0,B|61:216|61:216|122:214,1,120,2|10,0:1|0:0,0:0:0:0:
224,180,78545,1,2,0:1:0:0:
275,165,78721,2,0,L|339:169,1,60,2|2,0:1|0:1,0:0:0:0:
388,171,79074,1,2,0:1:0:0:
441,174,79250,1,10,0:0:0:0:
394,271,79603,2,0,L|330:267,1,60,2|2,0:1|0:1,0:0:0:0:
280,265,79956,6,0,B|225:260|225:260|212:263|212:263|142:259,1,120,6|2,0:0|0:0,0:0:0:0:
131,215,80486,1,0,0:0:0:0:
116,163,80662,2,0,B|114:129|114:129|115:92,1,60,2|0,0:0|0:0,0:0:0:0:
132,51,81015,1,0,0:0:0:0:
237,79,81368,2,0,B|278:92|278:92|364:77,1,120,2|2,0:0|0:0,0:0:0:0:
407,64,81897,1,0,0:0:0:0:
461,74,82074,2,0,L|458:148,1,60,2|0,0:0|0:0,0:0:0:0:
433,181,82427,2,0,L|430:255,1,60,0|0,0:0|0:0,0:0:0:0:
408,290,82780,5,2,0:1:0:0:
315,234,83133,2,0,L|250:239,1,60,0|2,0:0|0:1,0:0:0:0:
210,268,83486,2,0,B|181:265|153:256|153:256|123:266|94:271|94:271|65:264|65:264|21:269,1,180,8|0,0:0|0:0,0:0:0:0:
6,220,84192,2,0,B|-8:183|-8:183|-7:139|-7:139|9:108,1,120,2|2,0:1|0:0,0:0:0:0:
64,107,84721,1,0,0:0:0:0:
117,107,84897,1,8,0:0:0:0:
214,152,85250,2,0,L|275:152,1,60,0|8,0:0|0:0,0:0:0:0:
321,126,85603,6,0,B|370:111|410:143|386:174|370:111|410:143|434:110|466:110|491:126,1,180,2|0,0:1|0:0,0:0:0:0:
508,177,86309,1,8,0:0:0:0:
447,266,86662,2,0,L|381:270,1,60,2|2,0:0|0:0,0:0:0:0:
332,269,87015,2,0,B|291:265|291:265|262:268|262:268|234:262|234:262|200:263,1,120,2|2,0:0|0:0,0:0:0:0:
160,255,87545,1,0,0:0:0:0:
128,213,87721,2,0,L|123:154,1,60,2|0,0:0|0:0,0:0:0:0:
141,102,88074,1,2,0:0:0:0:
237,52,88427,5,2,0:1:0:0:
237,52,88603,1,2,0:1:0:0:
237,52,88780,2,0,L|318:56,1,60,2|2,0:1|0:1,0:0:0:0:
331,96,89133,2,0,B|336:98|342:109|346:121|336:132|343:145|335:151|341:154|334:164,1,60,2|2,0:0|0:0,0:0:0:0:
288,171,89486,2,0,B|283:173|277:184|273:196|283:207|276:220|284:226|278:229|285:239,1,60,2|2,0:0|0:0,0:0:0:0:
300,278,89839,2,0,B|340:269|340:269|424:280,1,120,2|2,0:1|0:1,0:0:0:0:
502,211,90545,2,0,B|512:132|512:132|503:92,1,120,4|4,0:3|0:3,0:0:0:0:
398,67,91250,6,0,P|345:78|270:67,1,120,6|2,0:1|0:1,0:0:0:0:
224,72,91780,2,0,B|216:64|199:57|199:57|150:77|103:68,1,120,2|0,0:0|0:0,0:0:0:0:
60,88,92309,2,0,P|57:129|62:157,1,60,2|2,0:1|0:0,0:0:0:0:
68,200,92662,2,0,P|120:196|192:204,1,120,2|2,0:1|0:1,0:0:0:0:
240,212,93192,2,0,B|270:215|293:228|293:228|332:217|332:217|367:216,1,120,2|0,0:0|0:0,0:0:0:0:
409,220,93721,2,0,P|414:269|413:290,1,60,2|2,0:1|0:0,0:0:0:0:
411,333,94074,6,0,B|377:321|377:321|278:327,1,120,2|2,0:1|0:1,0:0:0:0:
240,337,94603,1,2,0:0:0:0:
186,345,94780,2,0,P|134:350|67:342,1,120,2|2,0:1|0:1,0:0:0:0:
19,315,95309,1,2,0:0:0:0:
25,261,95486,2,0,B|37:193|13:210|21:120,1,120,2|2,0:1|0:1,0:0:0:0:
29,88,96015,1,2,0:0:0:0:
69,52,96192,2,0,L|147:59,1,60,2|2,0:1|0:0,0:0:0:0:
170,91,96545,2,0,L|248:98,1,60,2|2,0:1|0:0,0:0:0:0:
279,118,96897,6,0,P|335:99|393:109,1,120,2|2,0:1|0:1,0:0:0:0:
438,140,97427,2,0,B|450:181|450:181|440:269,1,120,2|0,0:0|0:0,0:0:0:0:
436,311,97956,2,0,L|366:316,1,60,2|2,0:1|0:0,0:0:0:0:
323,326,98309,2,0,P|279:312|195:324,1,120,2|2,0:1|0:1,0:0:0:0:
155,337,98839,2,0,B|143:275|143:275|148:196,1,120,2|0,0:0|0:0,0:0:0:0:
148,164,99368,2,0,L|86:150,1,60,2|2,0:1|0:0,0:0:0:0:
36,137,99721,5,2,0:1:0:0:
88,42,100074,1,2,0:1:0:0:
138,59,100250,2,0,P|210:65|281:49,1,120,2|0,0:0|0:0,0:0:0:0:
309,42,100780,2,0,L|371:44,1,60,2|2,0:1|0:0,0:0:0:0:
423,44,101133,1,2,0:1:0:0:
459,145,101486,1,2,0:1:0:0:
420,182,101662,2,0,P|379:187|297:186,1,120,2|2,0:0|0:0,0:0:0:0:
247,172,102192,1,2,0:1:0:0:
194,160,102368,1,2,0:0:0:0:
140,169,102545,6,0,P|123:210|140:289,1,120,6|2,0:1|0:1,0:0:0:0:
170,324,103074,2,0,B|209:322|238:312|238:312|272:315|300:322,1,120,2|0,0:0|0:0,0:0:0:0:
337,340,103603,2,0,P|376:342|409:337,1,60,2|2,0:1|0:0,0:0:0:0:
450,330,103956,2,0,P|438:278|449:194,1,120,2|2,0:1|0:1,0:0:0:0:
458,159,104486,2,0,B|411:150|411:150|378:156|378:156|352:152|318:152,1,120,2|0,0:0|0:0,0:0:0:0:
285,156,105015,2,0,P|283:193|285:226,1,60,2|2,0:1|0:0,0:0:0:0:
290,269,105368,6,0,P|252:249|173:253,1,120,2|2,0:1|0:1,0:0:0:0:
125,270,105897,2,0,B|116:232|116:232|125:138,1,120,2|0,0:0|0:0,0:0:0:0:
147,102,106427,2,0,P|176:106|206:106,1,60,2|2,0:1|0:0,0:0:0:0:
260,103,106780,2,0,P|306:84|376:93,1,120,2|2,0:1|0:1,0:0:0:0:
413,129,107309,1,2,0:0:0:0:
439,176,107486,2,0,L|435:243,1,60,2|2,0:1|0:0,0:0:0:0:
387,260,107839,2,0,L|383:327,1,60,2|2,0:1|0:0,0:0:0:0:
332,337,108192,5,6,0:1:0:0:
332,337,108368,1,2,0:1:0:0:
332,337,108545,2,0,L|212:338,2,120,2|2|2,0:1|0:1|0:1,0:0:0:0:
283,240,109603,1,6,0:1:0:0:
283,240,109780,1,2,0:1:0:0:
283,240,109956,2,0,L|163:238,2,120,2|2|2,0:1|0:1|0:1,0:0:0:0:
384,201,111015,6,0,P|401:164|408:81,1,120,4|0,3:1|3:0,0:0:0:0:
325,17,111721,2,0,P|302:72|299:131,1,120,4|0,3:1|3:0,0:0:0:0:
283,240,112427,1,4,3:1:0:0:
179,272,112780,1,4,3:1:0:0:
80,225,113133,1,4,3:1:0:0:
42,124,113486,1,4,3:1:0:0:
80,23,113839,5,6,0:1:0:0:
171,80,114192,2,0,L|236:82,1,60,2|2,0:1|0:1,0:0:0:0:
285,82,114545,1,6,0:1:0:0:
285,189,114897,2,0,L|220:191,1,60,2|2,0:1|0:1,0:0:0:0:
171,191,115250,1,6,0:1:0:0:
171,299,115603,2,0,L|236:301,1,60,2|2,0:1|0:1,0:0:0:0:
285,301,115956,1,6,0:1:0:0:
378,247,116309,1,6,0:1:0:0:
378,138,116662,5,6,0:1:0:0:
285,189,117015,2,0,L|220:191,1,60,2|2,0:1|0:1,0:0:0:0:
171,191,117368,1,6,0:1:0:0:
171,80,117721,2,0,L|236:82,1,60,2|2,0:1|0:1,0:0:0:0:
285,82,118074,1,6,0:1:0:0:
378,138,118427,2,0,L|443:136,1,60,2|2,0:1|0:1,0:0:0:0:
492,136,118780,1,6,0:1:0:0:
