osu file format v14

[General]
AudioFilename: audio.mp3
AudioLeadIn: 0
PreviewTime: 23397
Countdown: 0
SampleSet: Soft
StackLeniency: 0.2
Mode: 0
LetterboxInBreaks: 0
EpilepsyWarning: 1
WidescreenStoryboard: 1

[Editor]
DistanceSpacing: 0.1
BeatDivisor: 4
GridSize: 32
TimelineZoom: 3.199999

[Metadata]
Title:Der Wald (kors k Remix)
TitleUnicode:Der Wald (kors k Remix)
Artist:Eleharmonica remixed by kors k
ArtistUnicode:エレハモニカ remixed by kors k
Creator:Cheesecake
Version:Lasse's Extra
Source:pop'n music 20 fantasia
Tags:darky1 xchorse mithew jace rlc lasse hareimu spectator ascendance popn twenty mzd taku sakakibara seiya murai kosuke saito dark opera ダークオペラ the forest
BeatmapID:1498537
BeatmapSetID:581787

[Difficulty]
HPDrainRate:5
CircleSize:4
OverallDifficulty:8.7
ApproachRate:9.2
SliderMultiplier:1.76
SliderTickRate:1

[Events]
//Background and Video events
0,0,"der wald.jpg",0,0
//Break Periods
//Storyboard Layer 0 (Background)
//Storyboard Layer 1 (Fail)
//Storyboard Layer 2 (Pass)
//Storyboard Layer 3 (Foreground)
Sprite,Foreground,Centre,"sb\Naxess_3.png",0,0 M,0,43339,,194,330 C,0,43339,,191,255,0 S,30,43339,43516,0,1 P,0,43339,45724,A F,0,44662,45724,1,0
Sprite,Foreground,Centre,"sb\Naxess_3.png",0,0 M,0,43427,,197,300 C,0,43427,,212,255,0 S,30,43427,43604,0,1 P,0,43427,45724,A F,0,44662,45724,1,0
Sprite,Foreground,Centre,"sb\Naxess_3.png",0,0 M,0,43515,,201,271 C,0,43515,,233,255,0 S,30,43515,43692,0,1 P,0,43515,45724,A F,0,44662,45724,1,0
Sprite,Foreground,Centre,"sb\Naxess_3.png",0,0 M,0,43603,,205,242 C,0,43603,,255,255,0 S,30,43603,43780,0,1 P,0,43603,45724,A F,0,44662,45724,1,0
Sprite,Foreground,Centre,"sb\Naxess_3.png",0,0 M,0,43692,,244,278 C,0,43692,,255,233,0 S,30,43692,43869,0,1 P,0,43692,45724,A F,0,44662,45724,1,0
Sprite,Foreground,Centre,"sb\Naxess_3.png",0,0 M,0,43780,,296,280 C,0,43780,,255,212,0 S,30,43780,43957,0,1 P,0,43780,45724,A F,0,44662,45724,1,0
Sprite,Foreground,Centre,"sb\Naxess_3.png",0,0 M,0,43868,,340,252 C,0,43868,,255,191,0 S,30,43868,44045,0,1 P,0,43868,45724,A F,0,44662,45724,1,0
Sprite,Foreground,Centre,"sb\Naxess_3.png",0,0 M,0,43956,,359,203 C,0,43956,,255,170,0 S,30,43956,44133,0,1 P,0,43956,45724,A F,0,44662,45724,1,0
Sprite,Foreground,Centre,"sb\Naxess_3.png",0,0 M,0,44045,,336,150 C,0,44045,,255,148,0 S,30,44045,44222,0,1 P,0,44045,45724,A F,0,44662,45724,1,0
Sprite,Foreground,Centre,"sb\Naxess_3.png",0,0 M,0,44133,,364,99 C,0,44133,,255,127,0 S,30,44133,44310,0,1 P,0,44133,45724,A F,0,44662,45724,1,0
Sprite,Foreground,Centre,"sb\Naxess_3.png",0,0 M,0,44221,,422,90 C,0,44221,,255,106,0 S,30,44221,44398,0,1 P,0,44221,45724,A F,0,44662,45724,1,0
Sprite,Foreground,Centre,"sb\Naxess_3.png",0,0 M,0,44309,,464,128 C,0,44309,,255,84,0 S,30,44309,44486,0,1 P,0,44309,45724,A F,0,44662,45724,1,0
Sprite,Foreground,Centre,"sb\Naxess_3.png",0,0 M,0,44397,,470,189 C,0,44397,,255,63,0 S,30,44397,44574,0,1 P,0,44397,45724,A F,0,44662,45724,1,0
Sprite,Foreground,Centre,"sb\Naxess_3.png",0,0 M,0,44486,,476,250 C,0,44486,,255,42,0 S,30,44486,44663,0,1 P,0,44486,45724,A F,0,44662,45724,1,0
Sprite,Foreground,Centre,"sb\Naxess_3.png",0,0 M,0,44574,,482,311 C,0,44574,,255,21,0 S,30,44574,44751,0,1 P,0,44574,45724,A F,0,44662,45724,1,0
Sprite,Foreground,Centre,"sb\Circle.png",218,88 F,0,92661,93723,1,0 S,7,92661,93723,0.5,4 P,0,92661,93723,A
Sprite,Foreground,Centre,"sb\Circle.png",374,234 F,0,94073,95135,1,0 S,7,94073,95135,0.5,4 P,0,94073,95135,A
Sprite,Foreground,Centre,"sb\Circle.png",64,295 F,0,95485,96547,1,0 S,7,95485,96547,0.5,4 P,0,95485,96547,A
Sprite,Foreground,Centre,"sb\Circle.png",64,225 F,0,96897,97959,1,0 S,7,96897,97959,0.5,4 P,0,96897,97959,A
Sprite,Foreground,Centre,"sb\Circle.png",292,116 F,0,98308,99370,1,0 S,7,98308,99370,0.5,4 P,0,98308,99370,A
Sprite,Foreground,Centre,"sb\Circle.png",300,236 F,0,99720,100782,1,0 S,7,99720,100782,0.5,4 P,0,99720,100782,A
Sprite,Foreground,Centre,"sb\Circle.png",323,314 F,0,101132,102194,1,0 S,7,101132,102194,0.5,4 P,0,101132,102194,A
Sprite,Foreground,Centre,"sb\Circle.png",118,298 F,0,102544,103606,1,0 S,7,102544,103606,0.5,4 P,0,102544,103606,A
Sprite,Foreground,Centre,"sb\Circle.png",534,91 F,0,103955,105017,1,0 S,7,103955,105017,0.5,4 P,0,103955,105017,A
Sprite,Foreground,Centre,"sb\Circle.png",391,178 F,0,105367,106429,1,0 S,7,105367,106429,0.5,4 P,0,105367,106429,A
Sprite,Foreground,Centre,"sb\Circle.png",383,259 F,0,106779,107841,1,0 S,7,106779,107841,0.5,4 P,0,106779,107841,A
Sprite,Foreground,Centre,"sb\Circle.png",245,372 F,0,108191,109253,1,0 S,7,108191,109253,0.5,4 P,0,108191,109253,A
Sprite,Foreground,Centre,"sb\Circle.png",408,261 F,0,109603,110665,1,0 S,7,109603,110665,0.5,4 P,0,109603,110665,A
Sprite,Foreground,Centre,"sb\Circle.png",547,80 F,0,111015,112077,1,0 S,7,111015,112077,0.5,4 P,0,111015,112077,A
Sprite,Foreground,Centre,"sb\Circle.png",517,191 F,0,111721,112783,1,0 S,7,111721,112783,0.5,4 P,0,111721,112783,A
Sprite,Foreground,Centre,"sb\Circle.png",396,244 F,0,112427,113489,1,0 S,7,112427,113489,0.5,4 P,0,112427,113489,A
Sprite,Foreground,Centre,"sb\Circle.png",453,337 F,0,112780,113842,1,0 S,7,112780,113842,0.5,4 P,0,112780,113842,A
Sprite,Foreground,Centre,"sb\Circle.png",374,418 F,0,113133,114195,1,0 S,7,113133,114195,0.5,4 P,0,113133,114195,A
Sprite,Foreground,Centre,"sb\Circle.png",279,335 F,0,113486,114548,1,0 S,7,113486,114548,0.5,4 P,0,113486,114548,A
Sprite,Foreground,Centre,"sb\Naxess_3.png",211,167 C,0,113839,,147,34,221 S,30,113839,114191,0,1.5 F,2,113839,114544,1,0
Sprite,Foreground,Centre,"sb\Naxess_3.png",548,112 C,0,114192,,239,104,14 S,30,114192,114544,0,1.5 F,2,114192,114897,1,0
Sprite,Foreground,Centre,"sb\Naxess_3.png",562,251 C,0,114368,,239,104,14 S,30,114368,114720,0,1.5 F,2,114368,115073,1,0
Sprite,Foreground,Centre,"sb\Naxess_3.png",576,390 C,0,114545,,239,104,14 S,30,114545,114897,0,1.5 F,2,114545,115250,1,0
Sprite,Foreground,Centre,"sb\Naxess_3.png",92,112 C,0,114897,,105,47,225 S,30,114897,115249,0,1.5 F,2,114897,115602,1,0
Sprite,Foreground,Centre,"sb\Naxess_3.png",78,251 C,0,115074,,105,47,225 S,30,115074,115426,0,1.5 F,2,115074,115779,1,0
Sprite,Foreground,Centre,"sb\Naxess_3.png",64,390 C,0,115250,,105,47,225 S,30,115250,115602,0,1.5 F,2,115250,115955,1,0
Sprite,Foreground,Centre,"sb\Naxess_3.png",320,71 C,0,115603,,221,52,28 S,30,115603,115955,0,1.5 F,2,115603,116308,1,0
Sprite,Foreground,Centre,"sb\Naxess_3.png",320,248 C,0,115780,,221,52,28 S,30,115780,116132,0,1.5 F,2,115780,116485,1,0
Sprite,Foreground,Centre,"sb\Naxess_3.png",320,425 C,0,115956,,221,52,28 S,30,115956,116308,0,1.5 F,2,115956,116661,1,0
Sprite,Foreground,Centre,"sb\Naxess_3.png",92,112 C,0,116309,,147,34,221 S,30,116309,116661,0,1.5 F,2,116309,117014,1,0
Sprite,Foreground,Centre,"sb\Naxess_3.png",576,390 C,0,116662,,147,34,221 S,30,116662,117014,0,1.5 F,2,116662,117367,1,0
Sprite,Foreground,Centre,"sb\Naxess_3.png",548,112 C,0,117015,,239,104,14 S,30,117015,117367,0,1.5 F,2,117015,117720,1,0
Sprite,Foreground,Centre,"sb\Naxess_3.png",320,248 C,0,117192,,239,104,14 S,30,117192,117544,0,1.5 F,2,117192,117897,1,0
Sprite,Foreground,Centre,"sb\Naxess_3.png",64,390 C,0,117368,,239,104,14 S,30,117368,117720,0,1.5 F,2,117368,118073,1,0
Sprite,Foreground,Centre,"sb\Naxess_3.png",92,112 C,0,117721,,105,47,225 S,30,117721,118073,0,1.5 F,2,117721,118426,1,0
Sprite,Foreground,Centre,"sb\Naxess_3.png",320,248 C,0,117897,,105,47,225 S,30,117897,118249,0,1.5 F,2,117897,118602,1,0
Sprite,Foreground,Centre,"sb\Naxess_3.png",576,390 C,0,118074,,105,47,225 S,30,118074,118426,0,1.5 F,2,118074,118779,1,0
Sprite,Foreground,Centre,"sb\Naxess_3.png",0,248 C,0,118427,,221,52,28 MX,0,118427,,64 S,30,118427,118779,0,1.5 F,2,118427,119132,1,0 MX,0,118780,,-300
Sprite,Foreground,Centre,"sb\Naxess_3.png",0,248 C,0,118603,,221,52,28 MX,0,118603,,576 S,30,118603,118955,0,1.5 F,2,118603,119308,1,0 MX,0,118780,,-300
Sprite,Foreground,Centre,"sb\Circle.png",333,432 F,0,89133,89841,1,0 S,22,89133,89841,0,4
Sprite,Foreground,Centre,"sb\Circle.png",294,320 F,0,89309,90017,1,0 S,22,89309,90017,0,4
Sprite,Foreground,Centre,"sb\Circle.png",393,112 F,0,89486,90194,1,0 S,22,89486,90194,0,4
Sprite,Foreground,Centre,"sb\Circle.png",505,71 F,0,89662,90370,1,0 S,22,89662,90370,0,4
Sprite,Foreground,Centre,"sb\Circle.png",316,203 F,0,89839,90547,1,0 S,22,89839,90547,0,4
Sprite,Foreground,TopLeft,"sb\pixel.png",0,130 V,4,12198,12375,0,0.2,12,0.2 MX,0,12198,15022,100,130 F,0,15022,15199,0.5,0 MX,4,15022,15199,130,250 V,4,15022,15199,12,0.2,0,0.2
Sprite,Foreground,BottomLeft,"sb\MapLasse.png",0,130 MX,0,12198,15022,125,140 V,0,12286,12375,0.5,0,0.5,0.5 F,0,14491,15022,0.5,0
//Storyboard Sound Samples

[TimingPoints]
898,352.941176470588,4,2,1,40,1,0
898,-133.333333333333,4,2,1,40,0,0
12192,-114.942528735632,4,2,1,50,0,0
23486,-100,4,2,1,60,0,0
34780,-90.9090909090909,4,2,1,60,0,0
44309,-200,4,2,1,60,0,0
44662,-200,4,2,1,65,0,0
44750,-200,4,2,1,55,0,0
44839,-200,4,2,1,45,0,0
45015,-200,4,2,1,65,0,0
45103,-200,4,2,1,55,0,0
45192,-200,4,2,1,45,0,0
45368,-125,4,2,1,70,0,0
45456,-125,4,2,1,60,0,0
45545,-125,4,2,1,50,0,0
45721,-125,4,2,1,70,0,0
45809,-125,4,2,1,60,0,0
45898,-125,4,2,1,50,0,0
46074,-83.3333333333333,4,2,1,70,0,1
57280,-83.3333333333333,4,2,1,70,0,0
57368,-83.3333333333333,4,2,1,70,0,1
66942,-83.3333333333333,4,2,1,50,0,1
67250,-83.3333333333333,4,2,1,70,0,1
67956,-100,4,2,1,70,0,1
68662,-90.9090909090909,4,2,1,70,0,0
69368,-66.6666666666667,4,2,1,70,0,0
70074,-83.3333333333333,4,2,1,70,0,0
70780,-62.5,4,2,1,70,0,0
71486,-93.2835820895522,4,2,1,70,0,0
73956,-111.111111111111,4,2,1,70,0,0
74309,-90.9090909090909,4,2,1,70,0,0
75015,-66.6666666666667,4,2,1,70,0,0
75721,-83.3333333333333,4,2,1,70,0,0
76427,-62.5,4,2,1,70,0,0
77133,-111.111111111111,4,2,1,70,0,0
77486,-37.037037037037,4,2,1,70,0,0
77839,-100,4,2,1,70,0,0
78192,-33.3333333333333,4,2,1,70,0,0
78545,-62.5,4,2,1,70,0,0
79956,-90.9090909090909,4,2,1,70,0,0
80662,-66.6666666666667,4,2,1,70,0,0
81368,-83.3333333333333,4,2,1,70,0,0
82074,-62.5,4,2,1,70,0,0
82780,-90.9090909090909,4,2,1,70,0,0
83486,-93.2835820895522,4,2,1,70,0,0
84192,-55.5555555555556,4,2,1,70,0,0
84897,-50,4,2,1,70,0,0
85250,-62.5,4,2,1,70,0,0
85603,-50,4,2,1,70,0,0
86486,-76.9230769230769,4,2,1,70,0,0
87015,-90.9090909090909,4,2,1,70,0,0
87721,-66.6666666666667,4,2,1,70,0,0
88427,-71.4285714285714,4,2,1,70,0,0
88471,-71.4285714285714,4,2,0,5,0,0
88603,-71.4285714285714,4,2,1,70,0,0
88647,-71.4285714285714,4,2,0,5,0,0
88780,-71.4285714285714,4,2,1,70,0,0
88824,-71.4285714285714,4,2,0,5,0,0
88956,-71.4285714285714,4,2,1,70,0,0
89000,-71.4285714285714,4,2,0,5,0,0
89133,-142.857142857143,4,2,1,70,0,0
89839,-285.714285714286,4,2,1,70,0,0
91250,-76.9230769230769,4,2,1,70,0,1
99721,-71.4285714285714,4,2,1,70,0,1
101133,-66.6666666666667,4,2,1,70,0,1
102192,-62.5,4,2,1,70,0,1
102456,-62.5,4,2,1,70,0,0
102545,-76.9230769230769,4,2,1,70,0,1
113839,-100,4,2,1,70,0,0

[Colours]
Combo1 : 147,34,221
Combo2 : 239,104,14
Combo3 : 105,47,225
Combo4 : 221,52,28

[HitObjects]
105,46,898,5,0,0:0:0:0:
105,46,1074,1,0,0:0:0:0:
108,123,1250,1,0,0:0:0:0:
108,123,1427,1,0,0:0:0:0:
175,82,1603,6,0,L|257:75,1,66.0000025177003,2|0,0:0|0:0,0:0:0:0:
105,46,1956,2,0,L|22:52,1,66.0000025177003,2|0,0:0|0:0,0:0:0:0:
111,200,2309,5,0,0:0:0:0:
111,200,2486,1,0,0:0:0:0:
108,123,2662,1,0,0:0:0:0:
108,123,2839,1,0,0:0:0:0:
178,159,3015,6,0,L|260:152,1,66.0000025177003,2|0,0:0|0:0,0:0:0:0:
111,200,3368,2,0,L|28:206,1,66.0000025177003,2|0,0:0|0:0,0:0:0:0:
181,236,3721,5,0,0:0:0:0:
114,278,3897,1,0,0:0:0:0:
184,314,4074,1,0,0:0:0:0:
117,356,4250,1,0,0:0:0:0:
184,314,4427,6,0,L|275:307,1,66.0000025177003,2|0,0:0|0:0,0:0:0:0:
391,325,4780,2,0,L|325:330,1,66.0000025177003,2|0,0:0|0:0,0:0:0:0:
467,347,5133,5,0,0:0:0:0:
391,325,5309,1,0,0:0:0:0:
449,271,5486,1,0,0:0:0:0:
374,248,5662,1,0,0:0:0:0:
449,271,5839,5,0,0:0:0:0:
391,325,6015,1,2,0:0:0:0:
372,289,6103,1,2,0:0:0:0:
374,248,6192,1,2,0:0:0:0:
432,195,6368,1,0,0:0:0:0:
449,271,6545,5,0,0:0:0:0:
357,172,6721,1,0,0:0:0:0:
449,271,6897,1,0,0:0:0:0:
357,172,7074,1,0,0:0:0:0:
449,271,7250,6,0,L|456:353,1,66.0000025177003,2|0,0:0|0:0,0:0:0:0:
357,172,7603,2,0,L|350:90,1,66.0000025177003,2|0,0:0|0:0,0:0:0:0:
258,264,7956,5,0,0:0:0:0:
357,172,8133,1,0,0:0:0:0:
258,264,8309,1,0,0:0:0:0:
357,172,8486,1,0,0:0:0:0:
258,264,8662,6,0,L|176:271,1,66.0000025177003,2|0,0:0|0:0,0:0:0:0:
357,172,9015,2,0,L|439:165,1,66.0000025177003,2|0,0:0|0:0,0:0:0:0:
223,104,9368,5,0,0:0:0:0:
223,104,9545,1,0,0:0:0:0:
258,264,9721,1,0,0:0:0:0:
258,264,9897,1,0,0:0:0:0:
223,104,10074,6,0,L|227:29,1,66.0000025177003,2|0,0:0|0:0,0:0:0:0:
258,264,10427,2,0,L|253:338,1,66.0000025177003,2|0,0:0|0:0,0:0:0:0:
101,214,10780,5,0,0:0:0:0:
101,214,10956,1,0,0:0:0:0:
223,104,11133,1,0,0:0:0:0:
223,104,11309,1,0,0:0:0:0:
258,264,11486,5,0,0:0:0:0:
223,104,11662,1,2,0:0:0:0:
208,149,11750,1,2,0:0:0:0:
194,194,11839,1,2,0:0:0:0:
164,284,12015,1,0,0:0:0:0:
258,264,12192,5,0,0:0:0:0:
101,214,12368,1,0,0:0:0:0:
194,194,12545,1,0,0:0:0:0:
164,284,12721,1,0,0:0:0:0:
131,124,12897,6,0,L|125:44,1,76.5600006425171,2|0,0:0|0:0,0:0:0:0:
164,284,13250,2,0,L|170:364,1,76.5600006425171,2|0,0:0|0:0,0:0:0:0:
131,124,13603,5,0,0:0:0:0:
288,174,13780,1,0,0:0:0:0:
195,194,13956,1,0,0:0:0:0:
224,104,14133,1,0,0:0:0:0:
258,264,14309,6,0,L|264:344,1,76.5600006425171,2|0,0:0|0:0,0:0:0:0:
224,104,14662,2,0,L|218:24,1,76.5600006425171,2|0,0:0|0:0,0:0:0:0:
258,264,15015,5,0,0:0:0:0:
258,264,15192,1,0,0:0:0:0:
224,104,15368,1,0,0:0:0:0:
224,104,15545,1,0,0:0:0:0:
258,264,15721,6,0,L|264:344,1,76.5600006425171,2|0,0:0|0:0,0:0:0:0:
224,104,16074,2,0,L|218:24,1,76.5600006425171,2|0,0:0|0:0,0:0:0:0:
379,154,16427,5,0,0:0:0:0:
379,154,16603,1,0,0:0:0:0:
258,264,16780,1,0,0:0:0:0:
258,264,16956,1,0,0:0:0:0:
224,104,17133,5,0,0:0:0:0:
258,264,17309,1,2,0:0:0:0:
273,220,17397,1,2,0:0:0:0:
288,175,17486,1,2,0:0:0:0:
379,154,17662,1,0,0:0:0:0:
417,308,17839,5,0,0:0:0:0:
379,154,18015,1,0,0:0:0:0:
417,308,18192,1,0,0:0:0:0:
379,154,18368,1,0,0:0:0:0:
417,308,18545,6,0,L|409:391,1,76.5600006425171,2|0,0:0|0:0,0:0:0:0:
379,154,18897,2,0,L|387:71,1,76.5600006425171,2|0,0:0|0:0,0:0:0:0:
258,264,19250,5,0,0:0:0:0:
379,154,19427,1,0,0:0:0:0:
258,264,19603,1,0,0:0:0:0:
379,154,19780,1,0,0:0:0:0:
258,264,19956,6,0,L|167:269,1,76.5600006425171,2|0,0:0|0:0,0:0:0:0:
379,154,20309,2,0,L|470:149,1,76.5600006425171,2|0,0:0|0:0,0:0:0:0:
258,264,20662,5,2,0:0:0:0:
148,143,20839,1,0,0:0:0:0:
269,33,21015,1,0,0:0:0:0:
379,154,21192,1,0,0:0:0:0:
148,143,21368,6,0,L|71:138,1,76.5600006425171,2|0,0:0|0:0,0:0:0:0:
379,154,21721,2,0,L|456:159,1,76.5600006425171,0|0,0:0|0:0,0:0:0:0:
148,143,22074,5,2,0:0:0:0:
269,33,22250,1,0,0:0:0:0:
258,264,22427,1,0,0:0:0:0:
379,154,22603,1,0,0:0:0:0:
148,143,22780,6,0,L|71:148,1,76.5600006425171,2|0,0:0|0:0,0:0:0:0:
379,154,23133,2,0,L|456:149,1,76.5600006425171,2|0,0:0|0:0,0:0:0:0:
260,32,23486,6,0,B|199:25|199:25|152:42|152:42|58:32,1,176,2|8,0:1|0:0,0:0:0:0:
208,211,24015,1,0,0:0:0:0:
208,211,24103,1,0,0:0:0:0:
208,211,24192,2,0,L|210:123,1,88,0|2,0:0|0:1,0:0:0:0:
343,300,24545,2,0,L|451:276,1,88,8|0,0:0|0:0,0:0:0:0:
254,285,24809,1,0,0:0:0:0:
242,298,24897,6,0,L|134:322,1,88,2|0,0:1|0:0,0:0:0:0:
337,165,25250,2,0,L|445:141,1,88,8|0,0:0|0:0,0:0:0:0:
475,85,25515,1,0,0:0:0:0:
479,70,25603,1,0,0:0:0:0:
337,165,25780,1,2,0:1:0:0:
199,109,25956,2,0,L|190:3,1,88,8|0,0:0|0:0,0:0:0:0:
156,269,26309,5,2,0:1:0:0:
39,152,26486,1,0,0:0:0:0:
199,109,26662,1,8,0:0:0:0:
156,269,26839,1,0,0:0:0:0:
144,223,26927,1,0,0:0:0:0:
131,176,27015,1,0,0:0:0:0:
106,84,27192,1,2,0:1:0:0:
39,152,27368,1,8,0:0:0:0:
206,116,27545,5,0,0:0:0:0:
206,116,27633,1,0,0:0:0:0:
206,116,27721,2,0,L|312:99,1,88,2|0,0:1|0:0,0:0:0:0:
462,0,28074,1,8,0:0:0:0:
466,199,28250,1,0,0:0:0:0:
292,102,28427,2,0,L|186:85,1,88,0|2,0:0|0:1,0:0:0:0:
343,290,28780,2,0,L|350:203,1,88,8|0,0:0|0:0,0:0:0:0:
407,101,29045,1,0,0:0:0:0:
407,101,29133,6,0,B|348:168|348:168|291:100,1,176,2|8,0:1|0:0,0:0:0:0:
447,322,29662,1,0,0:0:0:0:
447,322,29750,1,0,0:0:0:0:
447,322,29839,2,0,L|465:232,1,88,0|2,0:0|0:1,0:0:0:0:
249,319,30192,2,0,L|224:222,1,88,8|0,0:0|0:0,0:0:0:0:
349,358,30456,1,0,0:0:0:0:
349,340,30545,6,0,L|350:235,1,88,2|0,0:1|0:0,0:0:0:0:
488,116,30897,2,0,L|401:131,1,88,8|0,0:0|0:0,0:0:0:0:
325,110,31162,1,0,0:0:0:0:
311,98,31250,1,0,0:0:0:0:
227,233,31427,1,2,0:1:0:0:
102,96,31603,2,0,L|93:-10,1,88,8|0,0:0|0:0,0:0:0:0:
45,272,31956,5,2,0:1:0:0:
102,96,32133,1,0,0:0:0:0:
227,233,32309,1,8,0:0:0:0:
45,272,32486,1,0,0:0:0:0:
85,236,32574,1,0,0:0:0:0:
124,200,32662,1,0,0:0:0:0:
227,233,32839,1,2,0:1:0:0:
102,96,33015,2,0,L|93:-10,1,88,8|0,0:0|0:0,0:0:0:0:
204,129,33280,1,0,0:0:0:0:
204,129,33368,6,0,L|305:90,1,88,2|0,0:1|0:0,0:0:0:0:
439,269,33721,1,8,0:0:0:0:
512,50,33897,1,0,0:0:0:0:
286,97,34074,2,0,L|180:80,1,88,0|2,0:0|0:1,0:0:0:0:
439,269,34427,2,0,L|545:286,1,88,8|0,0:0|0:0,0:0:0:0:
199,83,34780,6,0,L|102:78,1,96.8000029541017,2|0,0:1|0:0,0:0:0:0:
0,221,35133,1,2,0:1:0:0:
194,276,35309,1,0,0:0:0:0:
194,276,35397,1,0,0:0:0:0:
194,276,35486,2,0,L|199:170,1,96.8000029541017,2|0,0:1|0:0,0:0:0:0:
295,380,35839,2,0,L|391:384,1,96.8000029541017,2|0,0:1|0:0,0:0:0:0:
495,283,36103,1,0,0:0:0:0:
495,283,36192,6,0,L|499:187,1,96.8000029541017,2|0,0:1|0:0,0:0:0:0:
194,276,36545,2,0,L|198:179,1,96.8000029541017,2|0,0:1|0:0,0:0:0:0:
98,76,36809,1,0,0:0:0:0:
98,76,36897,2,0,L|1:71,1,96.8000029541017,2|0,0:1|0:0,0:0:0:0:
302,79,37250,2,0,L|398:83,1,96.8000029541017,2|0,0:1|0:0,0:0:0:0:
194,275,37603,5,2,0:1:0:0:
98,76,37780,1,0,0:0:0:0:
92,273,37956,1,8,0:0:0:0:
200,78,38133,1,0,0:0:0:0:
251,79,38221,1,0,0:0:0:0:
302,79,38309,2,0,L|398:83,1,96.8000029541017,2|0,0:1|0:0,0:0:0:0:
92,273,38662,2,0,L|-4:269,1,96.8000029541017,8|0,0:0|0:0,0:0:0:0:
295,380,39015,5,2,0:1:0:0:
208,86,39192,1,0,0:0:0:0:
208,86,39280,1,0,0:0:0:0:
208,86,39368,1,8,0:0:0:0:
92,273,39545,1,0,0:0:0:0:
411,193,39721,2,0,L|507:197,1,96.8000029541017,2|0,0:1|0:0,0:0:0:0:
208,86,40074,2,0,L|112:82,1,96.8000029541017,8|0,0:0|0:0,0:0:0:0:
385,303,40427,5,2,0:1:0:0:
310,18,40603,1,2,0:1:0:0:
385,303,40780,1,2,0:1:0:0:
310,18,40956,1,2,0:1:0:0:
256,274,41133,5,2,0:1:0:0:
256,274,41221,1,0,0:0:0:0:
256,274,41309,1,2,0:1:0:0:
431,45,41486,1,2,0:1:0:0:
252,272,41662,1,2,0:1:0:0:
81,45,41839,5,2,0:1:0:0:
252,272,42015,1,2,0:1:0:0:
81,45,42192,1,2,0:1:0:0:
252,272,42368,1,2,0:1:0:0:
202,18,42545,5,2,0:1:0:0:
202,18,42633,1,0,0:0:0:0:
202,18,42721,1,2,0:1:0:0:
127,303,42897,1,2,0:1:0:0:
202,18,43074,1,2,0:1:0:0:
127,303,43250,5,0,3:0:0:0:
130,274,43339,1,0,3:0:0:0:
133,244,43427,1,0,3:0:0:0:
137,215,43515,1,0,3:0:0:0:
141,186,43603,5,0,3:0:0:0:
180,222,43692,1,0,3:0:0:0:
232,224,43780,1,0,3:0:0:0:
276,196,43868,1,0,3:0:0:0:
295,147,43956,5,0,3:0:0:0:
272,94,44045,1,0,3:0:0:0:
300,43,44133,1,0,3:0:0:0:
358,34,44221,1,0,3:0:0:0:
400,72,44309,5,0,3:0:0:0:
406,133,44397,1,0,3:0:0:0:
412,194,44486,1,0,3:0:0:0:
418,255,44574,1,0,3:0:0:0:
424,316,44662,6,0,L|428:353,2,22,2|2|2,0:0|0:0|0:0,0:0:0:0:
88,316,45015,2,0,L|84:353,2,22,2|2|2,0:0|0:0|0:0,0:0:0:0:
478,90,45368,6,0,L|512:101,2,35.2,2|2|2,0:0|0:0|0:0,0:0:0:0:
34,90,45721,2,0,L|0:101,2,35.2,2|2|2,0:0|0:0|0:0,0:0:0:0:
255,352,46074,5,6,0:1:0:0:
290,312,46162,1,0,0:0:0:0:
296,261,46250,1,0,0:0:0:0:
273,214,46339,1,0,0:0:0:0:
227,189,46427,1,8,0:0:0:0:
201,144,46515,1,0,0:0:0:0:
201,92,46603,1,0,0:0:0:0:
228,47,46692,1,0,0:0:0:0:
274,23,46780,1,0,0:0:0:0:
326,25,46868,1,0,0:0:0:0:
370,54,46956,1,2,0:1:0:0:
392,101,47045,1,0,0:0:0:0:
388,153,47133,6,0,L|379:212,1,52.7999983886719,10|0,0:0|0:0,0:0:0:0:
126,115,47309,2,0,L|116:56,1,52.7999983886719,2|0,0:0|0:0,0:0:0:0:
52,323,47486,6,0,L|-3:321,3,52.7999983886719,2|0|0|0,0:1|0:0|0:0|0:0,0:0:0:0:
243,252,47839,2,0,L|295:253,3,52.7999983886719,10|0|2|0,0:0|0:0|0:0|0:0,0:0:0:0:
84,211,48192,5,0,0:1:0:0:
82,191,48280,1,0,0:0:0:0:
81,171,48368,1,2,0:1:0:0:
80,151,48456,1,0,0:0:0:0:
78,131,48545,1,8,0:0:0:0:
77,112,48633,1,0,0:0:0:0:
76,92,48721,1,0,0:0:0:0:
74,72,48809,1,0,0:0:0:0:
73,52,48897,5,2,0:0:0:0:
91,100,48986,1,0,0:0:0:0:
136,127,49074,1,0,0:0:0:0:
187,119,49162,1,0,0:0:0:0:
224,83,49250,1,10,0:0:0:0:
273,65,49339,1,0,0:0:0:0:
325,69,49427,1,0,0:0:0:0:
370,95,49515,1,0,0:0:0:0:
401,138,49603,1,2,0:0:0:0:
410,189,49692,1,0,0:0:0:0:
397,240,49780,1,2,0:1:0:0:
364,280,49868,1,0,0:0:0:0:
316,303,49956,6,0,L|252:297,1,52.7999983886719,10|0,0:0|0:0,0:0:0:0:
187,119,50133,2,0,L|134:114,1,52.7999983886719,0|0,0:0|0:0,0:0:0:0:
14,347,50309,6,0,L|7:222,1,105.599996777344,2|0,0:1|0:0,0:0:0:0:
80,65,50574,1,0,0:0:0:0:
80,65,50662,2,0,L|85:170,1,105.599996777344,8|0,0:0|0:0,0:0:0:0:
178,335,50927,1,0,0:0:0:0:
178,335,51015,2,0,L|171:210,1,105.599996777344,2|2,0:0|0:1,0:0:0:0:
244,53,51280,1,0,0:0:0:0:
244,53,51368,2,0,L|251:178,1,105.599996777344,10|0,0:0|0:0,0:0:0:0:
325,345,51721,5,2,0:1:0:0:
360,359,51809,1,0,0:0:0:0:
400,355,51897,1,0,0:0:0:0:
434,335,51986,1,0,0:0:0:0:
455,302,52074,1,8,0:0:0:0:
461,263,52162,1,0,0:0:0:0:
450,226,52250,1,0,0:0:0:0:
423,196,52339,1,0,0:0:0:0:
388,181,52427,5,0,0:0:0:0:
387,207,52515,1,0,0:0:0:0:
378,231,52603,1,2,0:1:0:0:
361,251,52692,1,0,0:0:0:0:
338,263,52780,1,8,0:0:0:0:
311,265,52868,1,0,0:0:0:0:
286,258,52956,1,0,0:0:0:0:
264,243,53045,1,0,0:0:0:0:
251,221,53133,6,0,L|193:225,3,52.7999983886719,2|0|0|0,0:1|0:0|0:0|0:1,0:0:0:0:
388,181,53486,2,0,L|446:177,3,52.7999983886719,8|0|0|0,0:0|0:0|0:0|0:0,0:0:0:0:
236,112,53839,6,0,L|178:116,3,52.7999983886719,0|0|2|0,0:0|0:0|0:1|0:0,0:0:0:0:
373,72,54192,2,0,L|431:68,1,52.7999983886719,10|0,0:0|0:0,0:0:0:0:
251,221,54368,2,0,L|193:225,1,52.7999983886719,2|0,0:0|0:0,0:0:0:0:
388,181,54545,6,0,L|440:178,3,52.7999983886719,2|0|0|0,0:1|0:0|0:0|0:0,0:0:0:0:
236,112,54897,2,0,L|183:116,3,52.7999983886719,8|0|0|0,0:0|0:0|0:0|0:0,0:0:0:0:
26,258,55250,5,0,0:0:0:0:
47,224,55339,1,0,0:0:0:0:
83,207,55427,1,2,0:1:0:0:
121,207,55515,1,0,0:0:0:0:
155,227,55603,1,8,0:0:0:0:
175,260,55692,1,0,0:0:0:0:
177,299,55780,1,0,0:0:0:0:
158,334,55868,1,0,0:0:0:0:
126,356,55956,5,2,0:1:0:0:
124,342,56045,1,0,0:0:0:0:
122,329,56133,1,0,0:0:0:0:
120,316,56221,1,0,0:0:0:0:
119,303,56309,1,8,0:0:0:0:
117,290,56397,1,0,0:0:0:0:
115,277,56486,1,0,0:0:0:0:
114,264,56574,1,0,0:0:0:0:
113,251,56662,6,0,L|-15:242,1,105.599996777344,2|2,0:0|0:0,0:0:0:0:
152,89,56927,1,0,0:0:0:0:
152,89,57015,2,0,L|280:98,1,105.599996777344,10|2,0:0|0:0,0:0:0:0:
512,325,57368,5,6,0:1:0:0:
463,308,57456,1,0,0:0:0:0:
434,266,57545,1,0,0:0:0:0:
435,214,57633,1,0,0:0:0:0:
467,173,57721,1,8,0:0:0:0:
478,122,57809,1,0,0:0:0:0:
463,71,57897,1,0,0:0:0:0:
427,33,57986,1,0,0:0:0:0:
378,15,58074,1,0,0:0:0:0:
326,22,58162,1,0,0:0:0:0:
283,51,58250,1,2,0:1:0:0:
258,97,58339,1,0,0:0:0:0:
257,150,58427,6,0,L|264:206,1,52.7999983886719,10|0,0:0|0:0,0:0:0:0:
51,65,58603,2,0,L|44:9,1,52.7999983886719,2|0,0:0|0:0,0:0:0:0:
59,230,58780,6,0,L|11:253,3,52.7999983886719,2|0|0|0,0:0|0:0|0:0|0:0,0:0:0:0:
263,202,59133,2,0,L|315:206,3,52.7999983886719,10|0|0|0,0:0|0:0|0:0|0:0,0:0:0:0:
179,384,59486,5,2,0:0:0:0:
178,363,59574,1,0,0:0:0:0:
176,343,59662,1,2,0:1:0:0:
174,324,59750,1,0,0:0:0:0:
173,303,59839,1,10,0:0:0:0:
172,284,59927,1,0,0:0:0:0:
170,265,60015,1,0,0:0:0:0:
168,244,60103,1,0,0:0:0:0:
164,224,60192,5,2,0:1:0:0:
113,214,60280,1,0,0:0:0:0:
77,177,60368,1,0,0:0:0:0:
67,126,60456,1,0,0:0:0:0:
88,79,60545,1,8,0:0:0:0:
133,52,60633,1,0,0:0:0:0:
185,55,60721,1,0,0:0:0:0:
226,86,60809,1,0,0:0:0:0:
242,136,60897,1,0,0:0:0:0:
285,164,60986,1,0,0:0:0:0:
337,159,61074,1,2,0:1:0:0:
374,124,61162,1,0,0:0:0:0:
381,72,61250,6,0,L|389:12,1,52.7999983886719,10|0,0:0|0:0,0:0:0:0:
494,211,61427,2,0,L|486:271,1,52.7999983886719,2|0,0:0|0:0,0:0:0:0:
277,361,61603,6,0,L|264:256,1,105.599996777344,2|0,0:1|0:0,0:0:0:0:
88,220,61868,1,0,0:0:0:0:
88,220,61956,2,0,L|192:207,1,105.599996777344,8|0,0:0|0:0,0:0:0:0:
229,31,62221,1,0,0:0:0:0:
229,31,62309,2,0,L|241:135,1,105.599996777344,2|2,0:0|0:1,0:0:0:0:
418,172,62574,1,0,0:0:0:0:
418,172,62662,2,0,L|313:184,1,105.599996777344,8|0,0:0|0:0,0:0:0:0:
61,305,63015,5,6,0:1:0:0:
98,309,63103,1,0,0:0:0:0:
136,295,63192,1,0,0:0:0:0:
163,267,63280,1,0,0:0:0:0:
175,229,63368,1,8,0:0:0:0:
171,190,63456,1,0,0:0:0:0:
150,157,63545,5,0,0:0:0:0:
140,169,63633,1,0,0:0:0:0:
130,181,63721,5,0,0:0:0:0:
79,191,63809,1,0,0:0:0:0:
31,171,63897,1,2,0:1:0:0:
3,127,63986,1,0,0:0:0:0:
6,75,64074,1,8,0:0:0:0:
39,35,64162,1,0,0:0:0:0:
89,20,64250,1,0,0:0:0:0:
138,37,64339,1,0,0:0:0:0:
168,79,64427,5,2,0:1:0:0:
171,131,64515,1,0,0:0:0:0:
202,172,64603,1,0,0:0:0:0:
252,187,64692,1,0,0:0:0:0:
301,171,64780,1,8,0:0:0:0:
332,129,64868,1,0,0:0:0:0:
334,77,64956,1,0,0:0:0:0:
305,34,65045,1,0,0:0:0:0:
256,16,65133,6,0,L|189:9,3,52.7999983886719,2|0|2|0,0:0|0:0|0:1|0:0,0:0:0:0:
434,93,65486,2,0,L|501:100,3,52.7999983886719,10|0|0|0,0:0|0:0|0:0|0:0,0:0:0:0:
202,172,65839,6,0,L|135:165,1,52.7999983886719,2|0,0:1|0:0,0:0:0:0:
342,304,66015,1,0,0:0:0:0:
342,304,66103,1,0,0:0:0:0:
342,304,66192,2,0,L|409:311,1,52.7999983886719,2|0,0:1|0:0,0:0:0:0:
207,299,66368,5,0,0:0:0:0:
207,299,66456,1,0,0:0:0:0:
207,299,66545,2,0,L|140:306,1,52.7999983886719,2|0,0:1|0:0,0:0:0:0:
347,167,66721,1,0,0:0:0:0:
347,167,66809,1,0,0:0:0:0:
347,167,66897,2,0,L|380:163,6,26.399999194336,2|2|2|2|2|2|2,0:1|0:0|0:0|0:0|0:0|0:0|0:0,0:0:0:0:
306,70,67250,6,0,B|248:62|248:62|215:88|215:88|157:81,1,158.399995166016,6|0,0:1|0:0,0:0:0:0:
347,167,67603,2,0,B|404:159|404:159|437:185|437:185|495:178,1,158.399995166016,2|0,0:1|0:0,0:0:0:0:
281,267,67956,6,0,B|286:218|286:218|265:191|265:191|271:143,1,132,4|0,0:3|0:0,0:0:0:0:
386,236,68309,2,0,B|391:284|391:284|370:311|370:311|376:359,1,132,4|0,0:3|0:0,0:0:0:0:
281,267,68662,6,0,B|273:182,2,64.5333353027344,2|0|0,0:0|0:0|0:0,0:0:0:0:
230,333,69015,1,2,0:0:0:0:
146,340,69133,1,0,0:0:0:0:
62,347,69250,1,0,0:0:0:0:
2,243,69368,6,0,B|-17:226|-17:226|41:222|41:222|27:268,1,132.000005035401,2|0,0:0|0:0,0:0:0:0:
195,121,69721,2,0,B|217:109|217:109|161:90|161:90|163:138,1,132.000005035401,0|0,0:0|0:0,0:0:0:0:
281,267,70074,6,0,B|368:273,2,70.3999978515626,2|0|0,0:0|0:0|0:0,0:0:0:0:
216,201,70427,1,2,0:0:0:0:
218,110,70545,1,0,0:0:0:0:
283,47,70662,1,0,0:0:0:0:
403,102,70780,6,0,B|448:116|448:116|487:118|487:118|461:120|461:120|435:130,1,140.8,2|0,0:0|0:0,0:0:0:0:
216,201,71133,2,0,B|171:215|171:215|132:217|132:217|158:219|158:219|184:229,1,140.8,0|0,0:0|0:0,0:0:0:0:
427,315,71486,5,2,0:1:0:0:
427,315,71839,1,0,0:0:0:0:
184,229,72015,1,2,0:1:0:0:
435,130,72192,6,0,B|461:120|461:120|487:118|487:118|448:116|448:116|403:102,1,140.8,8|0,0:0|0:0,0:0:0:0:
379,93,72545,5,0,0:0:0:0:
305,272,72721,1,0,0:0:0:0:
290,57,72897,5,2,0:1:0:0:
342,182,73074,1,0,0:0:0:0:
416,4,73250,5,0,0:0:0:0:
342,182,73427,1,0,0:0:0:0:
361,138,73515,1,2,0:1:0:0:
379,93,73603,5,8,0:0:0:0:
427,315,73780,1,2,0:1:0:0:
184,229,73956,2,0,L|140:225,2,39.5999987915039,0|2|8,0:0|0:1|0:0,0:0:0:0:
379,93,74309,6,0,L|389:0,2,64.5333353027344,2|0|0,0:0|0:0|0:0,0:0:0:0:
351,179,74662,1,2,0:0:0:0:
323,265,74780,1,0,0:0:0:0:
295,351,74897,1,0,0:0:0:0:
184,229,75015,6,0,B|141:226|141:226|106:260|106:260|154:266,1,132.000005035401,2|0,0:0|0:0,0:0:0:0:
351,179,75368,2,0,B|394:182|394:182|429:148|429:148|381:142,1,132.000005035401,0|0,0:0|0:0,0:0:0:0:
162,38,75721,6,0,L|66:28,2,70.3999978515626,2|0|0,0:0|0:0|0:0,0:0:0:0:
233,106,76074,1,2,0:0:0:0:
323,66,76192,1,0,0:0:0:0:
381,145,76309,1,0,0:0:0:0:
488,37,76427,6,0,B|497:25|497:25|420:23|420:23|448:61,1,140.8,2|0,0:0|0:0,0:0:0:0:
463,91,76692,1,0,0:0:0:0:
475,121,76780,1,2,0:0:0:0:
428,262,76956,1,2,0:0:0:0:
251,202,77133,6,2,B|217:203|217:203|173:196|173:196|187:204|187:204|204:222,1,118.799996374512,2|2,0:1|0:1,0:1:0:0:
258,327,77486,6,2,B|274:297|274:297|302:262|302:262|288:270|288:270|264:276,1,118.799996374512,10|0,0:0|0:0,0:1:0:0:
146,270,77662,2,2,B|163:298|163:298|179:340|179:340|179:324|179:324|186:300,1,118.799996374512,2|0,0:0|0:0,0:1:0:0:
251,202,77839,6,2,B|236:201|236:201|232:205|232:205|227:197|227:197|225:205|225:205|173:195|173:195|187:204|187:204|204:222,1,132,2|0,0:1|0:0,0:1:0:0:
258,327,78192,6,2,B|265:314|265:314|263:309|263:309|273:308|273:308|267:302|267:302|302:262|302:262|287:270|287:270|263:276,1,132.000005035401,10|0,0:0|0:0,0:1:0:0:
146,269,78368,2,2,B|153:281|153:281|159:282|159:282|154:291|154:291|163:289|163:289|180:339|180:339|180:322|180:322|187:298,1,132.000005035401,2|0,0:0|0:0,0:1:0:0:
203,221,78545,5,2,0:1:0:0:
100,360,78721,1,2,0:1:0:0:
75,356,78809,1,2,0:1:0:0:
50,352,78897,1,2,0:1:0:0:
8,134,79074,6,0,B|24:93|24:93|20:149|20:149|27:189,1,140.8,2|10,0:1|0:0,0:0:0:0:
214,315,79427,2,0,B|247:324|247:324|297:310,1,70.4,2|0,0:1|0:0,0:0:0:0:
316,178,79603,5,2,0:1:0:0:
322,170,79692,1,2,0:1:0:0:
320,187,79780,1,2,0:1:0:0:
307,177,79868,1,2,0:1:0:0:
280,106,79956,6,0,B|272:21,2,64.5333353027344,6|0|0,0:0|0:0|0:0,0:0:0:0:
320,187,80309,1,2,0:0:0:0:
410,190,80427,1,0,0:0:0:0:
500,193,80545,1,0,0:0:0:0:
394,297,80662,6,0,B|377:282|377:282|435:278|435:278|416:327,1,132.000005035401,2|0,0:0|0:0,0:0:0:0:
255,323,80927,1,0,0:0:0:0:
246,307,81015,2,0,B|227:258|227:258|285:262|285:262|268:276,1,132.000005035401,0|0,0:0|0:0,0:0:0:0:
70,355,81368,6,0,B|-3:353,2,70.3999978515626,2|0|0,0:0|0:0|0:0,0:0:0:0:
142,287,81721,1,2,0:0:0:0:
107,194,81839,1,0,0:0:0:0:
167,116,81956,1,0,0:0:0:0:
306,115,82074,6,0,B|354:112|354:112|389:118|389:118|358:106|358:106|340:89,1,140.8,2|0,0:0|0:0,0:0:0:0:
272,210,82339,1,0,0:0:0:0:
266,192,82427,2,0,B|218:189|218:189|183:195|183:195|214:183|214:183|232:166,1,140.8,0|0,0:0|0:0,0:0:0:0:
431,299,82780,5,2,0:1:0:0:
431,299,83133,1,0,0:0:0:0:
440,103,83309,1,2,0:1:0:0:
266,192,83486,6,0,B|218:189|218:189|183:195|183:195|214:183|214:183|232:166,1,140.8,8|0,0:0|0:0,0:0:0:0:
249,153,83839,5,0,0:0:0:0:
281,280,84015,1,0,0:0:0:0:
415,200,84192,6,0,B|416:156|416:156|395:114|395:114|395:46|395:46|358:128,1,237.599992749024,2|0,0:1|0:0,0:0:0:0:
249,153,84545,2,0,B|195:144|195:144|136:149|136:149|203:123,1,158.399995166016,2|0,0:0|0:0,0:0:0:0:
285,241,84809,1,2,0:1:0:0:
285,241,84897,6,0,B|287:196|287:196|259:126|259:126|261:70,1,176,8|2,0:0|0:1,0:0:0:0:
206,306,85250,2,0,L|191:218,1,70.4,0|2,0:0|0:1,0:0:0:0:
339,324,85427,2,0,L|376:242,1,70.4,8|0,0:0|0:0,0:0:0:0:
391,134,85603,6,0,B|391:103|391:103|375:72|375:72|344:57|344:57|314:57|314:57|283:72|283:72|267:103|267:103|267:134|267:134|283:164|283:164|283:195|283:195|267:226|267:226|237:241|237:241|206:241|206:241|175:226|175:226|160:195|160:195|160:169|160:169|175:134,1,528,2|0,0:1|0:0,0:0:0:0:
174,134,86221,1,0,0:0:0:0:
175,133,86309,1,8,0:0:0:0:
391,134,86486,6,0,B|407:134|407:134|422:126|422:126|452:129,1,57.1999973815919,2|0,0:1|0:0,0:0:0:0:
292,33,86662,5,0,0:0:0:0:
281,62,86750,1,0,0:0:0:0:
283,26,86839,1,0,0:0:0:0:
273,56,86927,1,0,0:0:0:0:
184,18,87015,6,0,B|105:12,2,64.5333353027344,6|0|0,0:0|0:0|0:0,0:0:0:0:
273,56,87368,1,2,0:0:0:0:
368,38,87486,1,0,0:0:0:0:
449,88,87603,1,0,0:0:0:0:
324,190,87721,6,0,B|313:140|313:140|345:124|345:124|338:171|338:171,1,132.000005035401,2|0,0:0|0:0,0:0:0:0:
442,288,87986,1,0,0:0:0:0:
444,267,88074,2,0,B|455:217|455:217|423:201|423:201|430:248|430:248,1,132.000005035401,2|2,0:0|0:0,0:0:0:0:
269,376,88427,22,0,L|245:347,1,30.7999990600586,2|0,0:1|0:0,0:0:0:0:
230,264,88603,2,0,L|223:226,1,30.7999990600586,2|0,0:1|0:0,0:0:0:0:
252,147,88780,2,0,L|265:111,1,30.7999990600586,2|0,0:1|0:0,0:0:0:0:
329,56,88956,2,0,L|358:31,1,30.7999990600586,2|0,0:1|0:0,0:0:0:0:
269,376,89133,6,0,L|245:347,1,30.7999990600586,2|0,0:0|0:0,0:0:0:0:
230,264,89309,2,0,L|223:226,1,30.7999990600586,2|0,0:0|0:0,0:0:0:0:
329,56,89486,2,0,L|358:31,1,30.7999990600586,2|0,0:0|0:0,0:0:0:0:
441,15,89662,2,0,L|478:8,1,30.7999990600586,2|0,0:0|0:0,0:0:0:0:
252,147,89839,6,0,L|265:111,1,30.7999990600586,2|0,0:1|0:0,0:0:0:0:
249,352,90192,2,0,L|269:376,1,30.7999990600586,2|0,0:1|0:0,0:0:0:0:
441,15,90545,6,0,L|471:9,1,30.7999990600586,4|0,0:3|0:0,0:0:0:0:
262,118,90897,2,0,L|252:147,1,30.7999990600586,4|0,0:3|0:0,0:0:0:0:
0,196,91250,5,6,0:1:0:0:
41,154,91339,1,0,0:0:0:0:
98,144,91427,1,0,0:0:0:0:
151,168,91515,1,0,0:0:0:0:
181,217,91603,1,2,0:1:0:0:
232,242,91692,1,0,0:0:0:0:
290,239,91780,1,2,0:0:0:0:
339,207,91868,1,0,0:0:0:0:
363,154,91956,1,2,0:1:0:0:
357,98,92045,1,0,0:0:0:0:
322,50,92133,1,0,0:0:0:0:
269,28,92221,1,0,0:0:0:0:
211,36,92309,6,0,L|145:31,1,57.1999973815919,2|0,0:1|0:0,0:0:0:0:
363,154,92486,2,0,L|429:159,1,57.1999973815919,2|0,0:0|0:0,0:0:0:0:
154,32,92662,5,2,0:1:0:0:
108,21,92750,1,0,0:0:0:0:
65,40,92839,1,0,0:0:0:0:
41,80,92927,1,0,0:0:0:0:
45,126,93015,1,2,0:1:0:0:
76,161,93103,1,0,0:0:0:0:
121,173,93192,1,2,0:0:0:0:
165,182,93280,1,0,0:0:0:0:
196,217,93368,1,2,0:1:0:0:
200,264,93456,1,0,0:0:0:0:
175,305,93545,1,0,0:0:0:0:
133,322,93633,1,0,0:0:0:0:
86,312,93721,6,0,L|65:240,1,57.1999973815919,2|0,0:1|0:0,0:0:0:0:
148,88,93897,2,0,L|153:14,1,57.1999973815919,2|0,0:0|0:0,0:0:0:0:
310,178,94074,6,0,L|448:159,1,114.399994763184,2|0,0:1|0:0,0:0:0:0:
155,95,94339,1,2,0:0:0:0:
155,95,94427,2,0,L|67:107,1,57.1999973815919,2|0,0:1|0:0,0:0:0:0:
288,66,94603,6,0,L|409:49,1,114.399994763184,2|2,0:0|0:1,0:0:0:0:
182,208,94868,1,2,0:0:0:0:
182,208,94956,2,0,L|94:220,1,57.1999973815919,2|0,0:0|0:0,0:0:0:0:
310,178,95133,6,0,L|398:166,1,57.1999973815919,2|0,0:1|0:0,0:0:0:0:
155,95,95309,2,0,L|67:107,1,57.1999973815919,2|0,0:0|0:0,0:0:0:0:
0,239,95486,5,2,0:1:0:0:
25,214,95574,1,0,0:0:0:0:
58,202,95662,1,0,0:0:0:0:
94,202,95750,1,0,0:0:0:0:
126,216,95839,1,2,0:1:0:0:
152,242,95927,1,0,0:0:0:0:
164,275,96015,1,2,0:0:0:0:
165,310,96103,1,0,0:0:0:0:
152,343,96192,6,0,L|89:348,3,57.1999973815919,2|0|2|0,0:1|0:0|0:0|0:0,0:0:0:0:
252,225,96545,2,0,L|315:220,3,57.1999973815919,2|0|2|0,0:1|0:0|0:0|0:0,0:0:0:0:
0,169,96897,5,2,0:1:0:0:
30,136,96986,1,0,0:0:0:0:
74,130,97074,1,2,0:0:0:0:
112,154,97162,1,2,0:0:0:0:
126,197,97250,1,2,0:1:0:0:
140,240,97339,1,0,0:0:0:0:
178,264,97427,1,0,0:0:0:0:
222,258,97515,1,0,0:0:0:0:
252,225,97603,1,2,0:1:0:0:
246,182,97692,1,0,0:0:0:0:
260,143,97780,1,2,0:0:0:0:
292,115,97868,1,2,0:0:0:0:
334,105,97956,6,0,L|393:91,1,57.1999973815919,2|0,0:1|0:0,0:0:0:0:
178,264,98133,2,0,L|122:277,1,57.1999973815919,0|0,0:0|0:0,0:0:0:0:
228,60,98309,6,0,L|212:-28,1,57.1999973815919,2|0,0:1|0:0,0:0:0:0:
492,120,98486,1,2,0:0:0:0:
492,120,98574,1,2,0:0:0:0:
492,120,98662,2,0,L|507:57,1,57.1999973815919,2|0,0:1|0:0,0:0:0:0:
426,299,98839,6,0,L|441:362,1,57.1999973815919,0|0,0:0|0:0,0:0:0:0:
294,184,99015,2,0,L|226:180,1,57.1999973815919,2|0,0:1|0:0,0:0:0:0:
492,120,99192,5,2,0:0:0:0:
492,120,99280,1,2,0:0:0:0:
492,120,99368,2,0,L|507:57,1,57.1999973815919,2|0,0:1|0:0,0:0:0:0:
426,299,99545,2,0,L|441:362,1,57.1999973815919,2|0,0:0|0:0,0:0:0:0:
236,180,99721,6,0,L|159:179,1,61.5999981201172,2|0,0:1|0:0,0:0:0:0:
41,274,99897,1,0,0:0:0:0:
41,274,99986,1,0,0:0:0:0:
41,274,100074,2,0,L|80:207,1,61.5999981201172,2|0,0:1|0:0,0:0:0:0:
57,58,100250,2,0,L|94:125,1,61.5999981201172,2|0,0:0|0:0,0:0:0:0:
174,179,100427,6,0,L|236:180,1,61.5999981201172,0|0,0:0|0:0,0:0:0:0:
369,273,100603,1,0,0:0:0:0:
369,273,100692,1,0,0:0:0:0:
369,273,100780,2,0,L|337:220,1,61.5999981201172,2|0,0:1|0:0,0:0:0:0:
353,57,100956,2,0,L|322:110,1,61.5999981201172,2|0,0:0|0:0,0:0:0:0:
259,258,101133,6,0,L|227:316,1,66.0000025177003,2|0,0:1|0:0,0:0:0:0:
239,92,101309,1,0,0:0:0:0:
239,92,101397,1,0,0:0:0:0:
239,92,101486,2,0,L|207:35,1,66.0000025177003,2|0,0:1|0:0,0:0:0:0:
395,157,101662,2,0,L|461:157,1,66.0000025177003,2|0,0:0|0:0,0:0:0:0:
259,258,101839,6,0,L|227:316,1,66.0000025177003,2|0,0:1|0:0,0:0:0:0:
239,92,102015,2,0,L|207:35,1,66.0000025177003,2|0,0:0|0:0,0:0:0:0:
147,271,102192,6,0,L|96:322,1,70.4,2|0,0:1|0:0,0:0:0:0:
128,79,102368,2,0,L|78:28,1,70.4,2|0,0:0|0:0,0:0:0:0:
54,242,102545,5,6,0:1:0:0:
73,199,102633,1,0,0:0:0:0:
112,172,102721,1,0,0:0:0:0:
159,167,102809,1,0,0:0:0:0:
202,185,102897,1,2,0:1:0:0:
230,222,102986,1,0,0:0:0:0:
239,269,103074,1,2,0:0:0:0:
246,314,103162,1,0,0:0:0:0:
275,351,103250,1,2,0:1:0:0:
318,370,103339,1,0,0:0:0:0:
364,365,103427,1,0,0:0:0:0:
403,337,103515,1,0,0:0:0:0:
424,296,103603,6,0,L|429:227,1,57.1999973815919,2|0,0:1|0:0,0:0:0:0:
230,222,103780,2,0,L|225:153,1,57.1999973815919,2|0,0:0|0:0,0:0:0:0:
470,35,103956,5,2,0:1:0:0:
418,14,104045,1,0,0:0:0:0:
365,27,104133,1,0,0:0:0:0:
331,68,104221,1,0,0:0:0:0:
327,122,104309,1,2,0:1:0:0:
356,168,104397,1,0,0:0:0:0:
406,189,104486,1,2,0:0:0:0:
455,208,104574,1,0,0:0:0:0:
484,254,104662,1,2,0:1:0:0:
479,308,104750,1,0,0:0:0:0:
444,351,104839,1,0,0:0:0:0:
392,362,104927,1,0,0:0:0:0:
340,342,105015,6,0,L|260:331,1,57.1999973815919,2|0,0:1|0:0,0:0:0:0:
143,199,105192,2,0,L|63:188,1,57.1999973815919,2|0,0:0|0:0,0:0:0:0:
327,122,105368,6,0,B|371:87|371:87|336:42,1,114.399994763184,2|0,0:1|0:0,0:0:0:0:
147,203,105633,1,2,0:0:0:0:
147,203,105721,2,0,L|79:193,1,57.1999973815919,2|0,0:1|0:0,0:0:0:0:
319,203,105897,6,0,B|363:168|363:168|328:123,1,114.399994763184,2|0,0:0|0:1,0:0:0:0:
137,283,106162,1,2,0:0:0:0:
137,283,106250,2,0,L|69:273,1,57.1999973815919,2|0,0:0|0:0,0:0:0:0:
319,306,106427,6,0,L|387:296,1,57.1999973815919,2|0,0:1|0:0,0:0:0:0:
147,203,106603,2,0,L|79:193,1,57.1999973815919,2|0,0:0|0:0,0:0:0:0:
319,203,106780,5,2,0:1:0:0:
331,157,106868,1,0,0:0:0:0:
325,111,106956,1,0,0:0:0:0:
303,68,107045,1,0,0:0:0:0:
267,38,107133,1,2,0:1:0:0:
221,25,107221,1,0,0:0:0:0:
174,29,107309,1,2,0:0:0:0:
133,49,107397,1,0,0:0:0:0:
102,85,107486,6,0,L|24:78,3,57.1999973815919,2|0|2|0,0:1|0:0|0:0|0:0,0:0:0:0:
319,203,107839,2,0,L|397:210,3,57.1999973815919,2|0|2|0,0:1|0:0|0:0|0:0,0:0:0:0:
181,316,108192,5,6,0:1:0:0:
204,65,108368,1,2,0:1:0:0:
319,203,108545,1,2,0:1:0:0:
67,178,108721,1,2,0:1:0:0:
273,287,108897,5,2,0:1:0:0:
111,93,109074,1,2,0:1:0:0:
290,110,109250,1,2,0:1:0:0:
94,270,109427,1,2,0:1:0:0:
344,205,109603,5,6,0:1:0:0:
41,175,109780,1,2,0:1:0:0:
207,39,109956,1,2,0:1:0:0:
179,341,110133,1,2,0:1:0:0:
310,94,110309,5,2,0:1:0:0:
75,287,110486,1,2,0:1:0:0:
96,74,110662,1,2,0:1:0:0:
290,306,110839,1,2,0:1:0:0:
483,24,111015,5,4,3:1:0:0:
472,34,111103,1,0,3:0:0:0:
466,49,111192,1,0,3:0:0:0:
465,64,111280,1,0,3:0:0:0:
469,80,111368,1,0,3:0:0:0:
474,94,111456,1,0,3:0:0:0:
473,109,111545,1,0,3:0:0:0:
466,124,111633,1,0,3:0:0:0:
453,135,111721,5,4,3:1:0:0:
437,115,111809,1,0,3:0:0:0:
415,103,111897,1,0,3:0:0:0:
391,99,111986,1,0,3:0:0:0:
367,105,112074,1,0,3:0:0:0:
346,119,112162,1,0,3:0:0:0:
332,139,112250,1,0,3:0:0:0:
327,164,112339,1,0,3:0:0:0:
332,188,112427,5,4,3:1:0:0:
373,182,112515,1,0,3:0:0:0:
407,206,112603,1,0,3:0:0:0:
413,248,112692,1,0,3:0:0:0:
389,281,112780,5,4,3:1:0:0:
349,267,112868,1,0,3:0:0:0:
311,284,112956,1,0,3:0:0:0:
295,323,113045,1,0,3:0:0:0:
310,362,113133,5,4,3:1:0:0:
326,315,113221,1,0,3:0:0:0:
304,272,113309,1,0,3:0:0:0:
258,257,113397,1,0,3:0:0:0:
215,279,113486,5,6,3:2:0:0:
152,271,113574,1,2,3:2:0:0:
110,224,113662,1,2,3:2:0:0:
108,161,113750,1,2,3:2:0:0:
147,111,113839,5,6,0:1:0:0:
484,56,114192,5,2,0:1:0:0:
498,195,114368,1,2,0:1:0:0:
512,334,114545,1,6,0:1:0:0:
28,56,114897,5,2,0:1:0:0:
14,195,115074,1,2,0:1:0:0:
0,334,115250,1,6,0:1:0:0:
256,15,115603,5,2,0:1:0:0:
256,192,115780,1,2,0:1:0:0:
256,369,115956,1,6,0:1:0:0:
28,56,116309,5,6,0:1:0:0:
512,334,116662,1,6,0:1:0:0:
484,56,117015,5,2,0:1:0:0:
256,192,117192,1,2,0:1:0:0:
0,334,117368,1,6,0:1:0:0:
28,56,117721,5,2,0:1:0:0:
256,192,117897,1,2,0:1:0:0:
512,334,118074,1,6,0:1:0:0:
0,192,118427,5,2,0:1:0:0:
512,192,118603,1,2,0:1:0:0:
256,192,118780,5,6,0:1:0:0:
