osu file format v14

[General]
AudioFilename: audio.mp3
AudioLeadIn: 0
PreviewTime: 23397
Countdown: 0
SampleSet: Soft
StackLeniency: 0.4
Mode: 0
LetterboxInBreaks: 0
EpilepsyWarning: 1
WidescreenStoryboard: 1

[Editor]
DistanceSpacing: 1
BeatDivisor: 4
GridSize: 4
TimelineZoom: 1.9

[Metadata]
Title:Der Wald (kors k Remix)
TitleUnicode:Der Wald (kors k Remix)
Artist:Eleharmonica remixed by kors k
ArtistUnicode:エレハモニカ remixed by kors k
Creator:Cheesecake
Version:Entsetzen
Source:pop'n music 20 fantasia
Tags:darky1 xchorse mithew jace rlc lasse hareimu spectator ascendance popn twenty mzd taku sakakibara seiya murai kosuke saito dark opera ダークオペラ the forest
BeatmapID:1543159
BeatmapSetID:581787

[Difficulty]
HPDrainRate:5.4
CircleSize:4.3
OverallDifficulty:9
ApproachRate:9.3
SliderMultiplier:1.8
SliderTickRate:1

[Events]
//Background and Video events
0,0,"der wald.jpg",0,0
//Break Periods
//Storyboard Layer 0 (Background)
//Storyboard Layer 1 (Fail)
//Storyboard Layer 2 (Pass)
//Storyboard Layer 3 (Foreground)
Sprite,Foreground,Centre,"sb\Naxess_3.png",0,0 M,0,43339,,149,186 C,0,43339,,191,255,0 S,30,43339,43516,0,1 P,0,43339,45724,A F,0,44662,45724,1,0
Sprite,Foreground,Centre,"sb\Naxess_3.png",0,0 M,0,43427,,108,202 C,0,43427,,212,255,0 S,30,43427,43604,0,1 P,0,43427,45724,A F,0,44662,45724,1,0
Sprite,Foreground,Centre,"sb\Naxess_3.png",0,0 M,0,43515,,79,236 C,0,43515,,233,255,0 S,30,43515,43692,0,1 P,0,43515,45724,A F,0,44662,45724,1,0
Sprite,Foreground,Centre,"sb\Naxess_3.png",0,0 M,0,43603,,70,280 C,0,43603,,255,255,0 S,30,43603,43780,0,1 P,0,43603,45724,A F,0,44662,45724,1,0
Sprite,Foreground,Centre,"sb\Naxess_3.png",0,0 M,0,43692,,82,323 C,0,43692,,255,233,0 S,30,43692,43869,0,1 P,0,43692,45724,A F,0,44662,45724,1,0
Sprite,Foreground,Centre,"sb\Naxess_3.png",0,0 M,0,43780,,113,355 C,0,43780,,255,212,0 S,30,43780,43957,0,1 P,0,43780,45724,A F,0,44662,45724,1,0
Sprite,Foreground,Centre,"sb\Naxess_3.png",0,0 M,0,43868,,155,368 C,0,43868,,255,191,0 S,30,43868,44045,0,1 P,0,43868,45724,A F,0,44662,45724,1,0
Sprite,Foreground,Centre,"sb\Naxess_3.png",0,0 M,0,43956,,199,360 C,0,43956,,255,170,0 S,30,43956,44133,0,1 P,0,43956,45724,A F,0,44662,45724,1,0
Sprite,Foreground,Centre,"sb\Naxess_3.png",0,0 M,0,44045,,239,325 C,0,44045,,255,148,0 S,30,44045,44222,0,1 P,0,44045,45724,A F,0,44662,45724,1,0
Sprite,Foreground,Centre,"sb\Naxess_3.png",0,0 M,0,44133,,253,273 C,0,44133,,255,127,0 S,30,44133,44310,0,1 P,0,44133,45724,A F,0,44662,45724,1,0
Sprite,Foreground,Centre,"sb\Naxess_3.png",0,0 M,0,44221,,236,223 C,0,44221,,255,106,0 S,30,44221,44398,0,1 P,0,44221,45724,A F,0,44662,45724,1,0
Sprite,Foreground,Centre,"sb\Naxess_3.png",0,0 M,0,44309,,194,192 C,0,44309,,255,84,0 S,30,44309,44486,0,1 P,0,44309,45724,A F,0,44662,45724,1,0
Sprite,Foreground,Centre,"sb\Naxess_3.png",0,0 M,0,44397,,211,241 C,0,44397,,255,63,0 S,30,44397,44574,0,1 P,0,44397,45724,A F,0,44662,45724,1,0
Sprite,Foreground,Centre,"sb\Naxess_3.png",0,0 M,0,44486,,253,273 C,0,44486,,255,42,0 S,30,44486,44663,0,1 P,0,44486,45724,A F,0,44662,45724,1,0
Sprite,Foreground,Centre,"sb\Naxess_3.png",0,0 M,0,44574,,306,276 C,0,44574,,255,21,0 S,30,44574,44751,0,1 P,0,44574,45724,A F,0,44662,45724,1,0
Sprite,Foreground,Centre,"sb\Circle.png",367,74 F,0,92661,93723,1,0 S,7,92661,93723,0.5,4 P,0,92661,93723,A
Sprite,Foreground,Centre,"sb\Circle.png",227,409 F,0,94073,95135,1,0 S,7,94073,95135,0.5,4 P,0,94073,95135,A
Sprite,Foreground,Centre,"sb\Circle.png",428,250 F,0,95485,96547,1,0 S,7,95485,96547,0.5,4 P,0,95485,96547,A
Sprite,Foreground,Centre,"sb\Circle.png",180,331 F,0,96897,97959,1,0 S,7,96897,97959,0.5,4 P,0,96897,97959,A
Sprite,Foreground,Centre,"sb\Circle.png",416,212 F,0,98308,99370,1,0 S,7,98308,99370,0.5,4 P,0,98308,99370,A
Sprite,Foreground,Centre,"sb\Circle.png",297,199 F,0,99720,100782,1,0 S,7,99720,100782,0.5,4 P,0,99720,100782,A
Sprite,Foreground,Centre,"sb\Circle.png",388,311 F,0,101132,102194,1,0 S,7,101132,102194,0.5,4 P,0,101132,102194,A
Sprite,Foreground,Centre,"sb\Circle.png",297,198 F,0,102544,103606,1,0 S,7,102544,103606,0.5,4 P,0,102544,103606,A
Sprite,Foreground,Centre,"sb\Circle.png",333,92 F,0,103955,105017,1,0 S,7,103955,105017,0.5,4 P,0,103955,105017,A
Sprite,Foreground,Centre,"sb\Circle.png",395,178 F,0,105367,106429,1,0 S,7,105367,106429,0.5,4 P,0,105367,106429,A
Sprite,Foreground,Centre,"sb\Circle.png",460,299 F,0,106779,107841,1,0 S,7,106779,107841,0.5,4 P,0,106779,107841,A
Sprite,Foreground,Centre,"sb\Circle.png",475,357 F,0,108191,109253,1,0 S,7,108191,109253,0.5,4 P,0,108191,109253,A
Sprite,Foreground,Centre,"sb\Circle.png",382,373 F,0,109603,110665,1,0 S,7,109603,110665,0.5,4 P,0,109603,110665,A
Sprite,Foreground,Centre,"sb\Circle.png",320,292 F,0,111015,112077,1,0 S,7,111015,112077,0.5,4 P,0,111015,112077,A
Sprite,Foreground,Centre,"sb\Circle.png",384,193 F,0,111721,112783,1,0 S,7,111721,112783,0.5,4 P,0,111721,112783,A
Sprite,Foreground,Centre,"sb\Circle.png",465,359 F,0,112427,113489,1,0 S,7,112427,113489,0.5,4 P,0,112427,113489,A
Sprite,Foreground,Centre,"sb\Circle.png",179,153 F,0,112780,113842,1,0 S,7,112780,113842,0.5,4 P,0,112780,113842,A
Sprite,Foreground,Centre,"sb\Circle.png",511,70 F,0,113133,114195,1,0 S,7,113133,114195,0.5,4 P,0,113133,114195,A
Sprite,Foreground,Centre,"sb\Circle.png",373,400 F,0,113486,114548,1,0 S,7,113486,114548,0.5,4 P,0,113486,114548,A
Sprite,Foreground,Centre,"sb\Naxess_3.png",158,108 C,0,113839,,105,47,225 S,30,113839,114191,0,1.5 F,2,113839,114544,1,0
Sprite,Foreground,Centre,"sb\Naxess_3.png",158,387 C,0,114192,,221,52,28 S,30,114192,114544,0,1.5 F,2,114192,114897,1,0
Sprite,Foreground,Centre,"sb\Naxess_3.png",320,106 C,0,114368,,221,52,28 S,30,114368,114720,0,1.5 F,2,114368,115073,1,0
Sprite,Foreground,Centre,"sb\Naxess_3.png",482,387 C,0,114545,,221,52,28 S,30,114545,114897,0,1.5 F,2,114545,115250,1,0
Sprite,Foreground,Centre,"sb\Naxess_3.png",158,108 C,0,114897,,147,34,221 S,30,114897,115249,0,1.5 F,2,114897,115602,1,0
Sprite,Foreground,Centre,"sb\Naxess_3.png",320,389 C,0,115074,,147,34,221 S,30,115074,115426,0,1.5 F,2,115074,115779,1,0
Sprite,Foreground,Centre,"sb\Naxess_3.png",482,108 C,0,115250,,147,34,221 S,30,115250,115602,0,1.5 F,2,115250,115955,1,0
Sprite,Foreground,Centre,"sb\Naxess_3.png",128,302 C,0,115603,,239,104,14 S,30,115603,115955,0,1.5 F,2,115603,116308,1,0
Sprite,Foreground,Centre,"sb\Naxess_3.png",514,248 C,0,115780,,239,104,14 S,30,115780,116132,0,1.5 F,2,115780,116485,1,0
Sprite,Foreground,Centre,"sb\Naxess_3.png",128,193 C,0,115956,,239,104,14 S,30,115956,116308,0,1.5 F,2,115956,116661,1,0
Sprite,Foreground,Centre,"sb\Naxess_3.png",499,403 C,0,116309,,105,47,225 S,30,116309,116661,0,1.5 F,2,116309,117014,1,0
Sprite,Foreground,Centre,"sb\Naxess_3.png",141,93 C,0,116662,,221,52,28 S,30,116662,117014,0,1.5 F,2,116662,117367,1,0
Sprite,Foreground,Centre,"sb\Naxess_3.png",498,93 C,0,117015,,147,34,221 S,30,117015,117367,0,1.5 F,2,117015,117720,1,0
Sprite,Foreground,Centre,"sb\Naxess_3.png",320,403 C,0,117192,,147,34,221 S,30,117192,117544,0,1.5 F,2,117192,117897,1,0
Sprite,Foreground,Centre,"sb\Naxess_3.png",141,93 C,0,117368,,147,34,221 S,30,117368,117720,0,1.5 F,2,117368,118073,1,0
Sprite,Foreground,Centre,"sb\Naxess_3.png",498,400 C,0,117721,,239,104,14 S,30,117721,118073,0,1.5 F,2,117721,118426,1,0
Sprite,Foreground,Centre,"sb\Naxess_3.png",320,91 C,0,117897,,239,104,14 S,30,117897,118249,0,1.5 F,2,117897,118602,1,0
Sprite,Foreground,Centre,"sb\Naxess_3.png",141,400 C,0,118074,,239,104,14 S,30,118074,118426,0,1.5 F,2,118074,118779,1,0
Sprite,Foreground,Centre,"sb\Naxess_3.png",0,187 C,0,118427,,105,47,225 MX,0,118427,,576 S,30,118427,118779,0,1.5 F,2,118427,119132,1,0 MX,0,118780,,-300
Sprite,Foreground,Centre,"sb\Naxess_3.png",0,248 C,0,118603,,105,47,225 MX,0,118603,,64 S,30,118603,118955,0,1.5 F,2,118603,119308,1,0 MX,0,118780,,-300
Sprite,Foreground,Centre,"sb\Circle.png",253,122 F,0,89133,89841,1,0 S,22,89133,89841,0,4
Sprite,Foreground,Centre,"sb\Circle.png",492,122 F,0,89309,90017,1,0 S,22,89309,90017,0,4
Sprite,Foreground,Centre,"sb\Circle.png",253,218 F,0,89486,90194,1,0 S,22,89486,90194,0,4
Sprite,Foreground,Centre,"sb\Circle.png",492,218 F,0,89662,90370,1,0 S,22,89662,90370,0,4
Sprite,Foreground,Centre,"sb\Circle.png",186,300 F,0,89839,90547,1,0 S,22,89839,90547,0,4
Sprite,Foreground,TopLeft,"sb\pixel.png",0,130 V,4,12198,12375,0,0.2,17.6,0.2 MX,0,12198,15022,100,130 F,0,15022,15199,0.5,0 MX,4,15022,15199,130,306 V,4,15022,15199,17.6,0.2,0,0.2
Sprite,Foreground,BottomLeft,"sb\MapCheesecake.png",0,130 MX,0,12198,15022,125,140 V,0,12286,12375,0.5,0,0.5,0.5 F,0,14491,15022,0.5,0
//Storyboard Sound Samples

[TimingPoints]
898,352.941176470588,4,2,1,40,1,0
1603,-133.333333333333,4,2,1,40,0,0
12192,-133.333333333333,4,2,1,50,0,0
23486,-100,4,2,1,60,0,0
43956,-83.3333333333333,4,2,1,60,0,0
44662,-200,4,2,1,70,0,0
46074,-83.3333333333333,4,2,1,70,0,1
68662,-66.6666666666667,4,2,1,70,0,0
71486,-80,4,2,1,70,0,0
74309,-66.6666666666667,4,2,1,70,0,0
82780,-80,4,2,1,70,0,0
85603,-66.6666666666667,4,2,1,70,0,0
89839,-200,4,2,1,70,0,0
90545,-133.333333333333,4,2,1,70,0,0
91250,-76.9230769230769,4,2,1,70,0,1
99721,-66.6666666666667,4,2,1,70,0,1
102545,-76.9230769230769,4,2,1,70,0,1
113839,-100,4,2,1,70,0,0

[Colours]
Combo1 : 147,34,221
Combo2 : 239,104,14
Combo3 : 105,47,225
Combo4 : 221,52,28

[HitObjects]
176,116,898,5,0,0:0:0:0:
147,184,1074,1,0,0:0:0:0:
176,253,1250,1,0,0:0:0:0:
244,281,1427,1,0,0:0:0:0:
313,253,1603,2,0,L|318:185,1,67.5000025749208,2|0,0:0|0:0,0:0:0:0:
381,282,1956,2,0,L|387:361,1,67.5000025749208,2|0,0:0|0:0,0:0:0:0:
456,185,2309,5,0,0:0:0:0:
387,213,2486,1,0,0:0:0:0:
318,185,2662,1,0,0:0:0:0:
290,116,2839,1,0,0:0:0:0:
318,47,3015,2,0,L|391:38,1,67.5000025749208,2|0,0:0|0:0,0:0:0:0:
290,116,3368,2,0,L|217:107,1,67.5000025749208,2|0,0:0|0:0,0:0:0:0:
53,168,3721,5,0,0:0:0:0:
53,242,3897,1,0,0:0:0:0:
101,299,4074,1,0,0:0:0:0:
174,312,4250,1,0,0:0:0:0:
239,275,4427,2,0,L|251:205,1,67.5000025749208,2|0,0:0|0:0,0:0:0:0:
175,101,4780,2,0,L|187:168,1,67.5000025749208,2|0,0:0|0:0,0:0:0:0:
387,213,5133,5,0,0:0:0:0:
416,144,5309,1,0,0:0:0:0:
348,115,5486,1,0,0:0:0:0:
318,184,5662,1,0,0:0:0:0:
461,203,5839,1,0,0:0:0:0:
273,123,6015,1,2,0:0:0:0:
273,123,6103,1,2,0:0:0:0:
273,123,6192,1,2,0:0:0:0:
387,213,6368,1,0,0:0:0:0:
339,42,6545,5,0,0:0:0:0:
265,75,6721,1,0,0:0:0:0:
185,90,6897,1,0,0:0:0:0:
104,90,7074,1,0,0:0:0:0:
25,73,7250,2,0,L|26:149,1,67.5000025749208,2|0,0:0|0:0,0:0:0:0:
78,293,7603,2,0,L|79:226,1,67.5000025749208,2|0,0:0|0:0,0:0:0:0:
185,90,7956,5,0,0:0:0:0:
247,143,8133,1,0,0:0:0:0:
269,221,8309,1,0,0:0:0:0:
247,299,8486,1,0,0:0:0:0:
185,352,8662,2,0,L|115:362,1,67.5000025749208,2|0,0:0|0:0,0:0:0:0:
326,280,9015,2,0,L|396:290,1,67.5000025749208,2|0,0:0|0:0,0:0:0:0:
340,82,9368,5,0,0:0:0:0:
326,163,9545,1,0,0:0:0:0:
269,221,9721,1,0,0:0:0:0:
191,241,9897,1,0,0:0:0:0:
114,213,10074,2,0,L|25:227,1,67.5000025749208,2|0,0:0|0:0,0:0:0:0:
130,85,10427,2,0,L|197:96,1,67.5000025749208,2|0,0:0|0:0,0:0:0:0:
451,236,10780,5,0,0:0:0:0:
406,169,10956,1,0,0:0:0:0:
326,163,11133,1,0,0:0:0:0:
269,221,11309,1,0,0:0:0:0:
281,300,11486,1,0,0:0:0:0:
371,96,11662,1,2,0:0:0:0:
377,80,11750,1,2,0:0:0:0:
384,65,11839,1,2,0:0:0:0:
358,249,12015,1,0,0:0:0:0:
196,95,12192,5,0,0:0:0:0:
119,137,12368,1,0,0:0:0:0:
84,218,12545,1,0,0:0:0:0:
107,303,12721,1,0,0:0:0:0:
177,355,12897,2,0,L|251:347,1,67.5000025749208,2|0,0:0|0:0,0:0:0:0:
151,225,13250,2,0,L|83:217,1,67.5000025749208,2|0,0:0|0:0,0:0:0:0:
303,205,13603,5,0,0:0:0:0:
378,158,13780,1,0,0:0:0:0:
386,69,13956,1,0,0:0:0:0:
323,9,14133,1,0,0:0:0:0:
236,20,14309,2,0,L|152:27,1,67.5000025749208,2|0,0:0|0:0,0:0:0:0:
235,199,14662,2,0,L|319:206,1,67.5000025749208,2|0,0:0|0:0,0:0:0:0:
166,133,15015,5,0,0:0:0:0:
142,217,15192,1,0,0:0:0:0:
180,295,15368,1,0,0:0:0:0:
267,306,15545,1,0,0:0:0:0:
333,249,15721,2,0,L|341:162,1,67.5000025749208,2|0,0:0|0:0,0:0:0:0:
501,264,16074,2,0,L|507:331,1,67.5000025749208,2|0,0:0|0:0,0:0:0:0:
450,163,16427,5,0,0:0:0:0:
415,82,16603,1,0,0:0:0:0:
339,37,16780,1,0,0:0:0:0:
252,45,16956,1,0,0:0:0:0:
186,102,17133,1,0,0:0:0:0:
23,65,17309,1,2,0:0:0:0:
23,65,17397,1,2,0:0:0:0:
23,65,17486,1,2,0:0:0:0:
149,265,17662,1,0,0:0:0:0:
328,115,17839,5,0,0:0:0:0:
358,201,18015,1,0,0:0:0:0:
317,283,18192,1,0,0:0:0:0:
229,310,18368,1,0,0:0:0:0:
149,265,18545,2,0,L|77:268,1,67.5000025749208,2|0,0:0|0:0,0:0:0:0:
186,102,18897,2,0,L|118:104,1,67.5000025749208,2|0,0:0|0:0,0:0:0:0:
266,206,19250,5,0,0:0:0:0:
358,201,19427,1,0,0:0:0:0:
418,132,19603,1,0,0:0:0:0:
412,38,19780,1,0,0:0:0:0:
318,50,19956,2,0,L|241:54,1,67.5000025749208,2|0,0:0|0:0,0:0:0:0:
81,267,20309,2,0,L|14:264,1,67.5000025749208,2|0,0:0|0:0,0:0:0:0:
267,231,20662,5,2,0:0:0:0:
159,141,20839,1,0,0:0:0:0:
278,223,21015,1,0,0:0:0:0:
95,186,21192,1,0,0:0:0:0:
193,271,21368,5,2,0:0:0:0:
295,123,21545,1,0,0:0:0:0:
202,285,21721,1,0,0:0:0:0:
223,96,21897,1,0,0:0:0:0:
358,201,22074,5,2,0:0:0:0:
95,186,22250,1,0,0:0:0:0:
370,224,22427,1,0,0:0:0:0:
159,141,22603,1,0,0:0:0:0:
202,285,22780,5,2,0:0:0:0:
209,54,22956,1,0,0:0:0:0:
187,307,23133,1,2,0:0:0:0:
197,30,23309,1,0,0:0:0:0:
280,197,23486,6,0,L|378:199,1,90,2|0,0:1|0:0,0:0:0:0:
118,103,23839,1,8,0:0:0:0:
155,227,24015,1,0,0:0:0:0:
155,227,24103,1,0,0:0:0:0:
155,227,24192,2,0,L|158:182,1,45
101,298,24368,1,2,0:1:0:0:
280,106,24545,2,0,L|378:108,1,90,8|0,0:0|0:0,0:0:0:0:
245,234,24897,6,0,P|201:227|156:227,1,90,2|0,0:1|0:0,0:0:0:0:
28,110,25250,2,0,P|72:103|117:103,1,90,8|0,0:0|0:0,0:0:0:0:
358,235,25603,1,0,0:0:0:0:
330,200,25692,1,0,0:0:0:0:
327,156,25780,1,2,0:1:0:0:
350,117,25868,1,0,0:0:0:0:
391,99,25956,2,0,L|483:97,1,90,8|0,0:0|0:0,0:0:0:0:
424,281,26309,5,2,0:1:0:0:
424,281,26486,1,0,0:0:0:0:
271,95,26662,2,0,L|175:97,1,90,8|0,0:0|0:0,0:0:0:0:
54,186,27015,1,0,0:0:0:0:
96,172,27103,1,0,0:0:0:0:
141,172,27192,1,2,0:1:0:0:
183,186,27280,1,0,0:0:0:0:
219,213,27368,1,8,0:0:0:0:
125,297,27545,1,0,0:0:0:0:
181,96,27721,6,0,P|184:51|181:-5,1,90,2|0,0:1|0:0,0:0:0:0:
54,186,28074,1,8,0:0:0:0:
229,203,28250,1,0,0:0:0:0:
229,203,28339,1,0,0:0:0:0:
229,203,28427,2,0,L|272:199,1,45
85,97,28603,1,2,0:1:0:0:
72,279,28780,2,0,L|70:377,1,90,8|0,0:0|0:0,0:0:0:0:
341,286,29133,6,0,B|299:273|299:273|254:276,1,90,2|0,0:1|0:0,0:0:0:0:
140,60,29486,1,8,0:0:0:0:
177,83,29574,1,0,0:0:0:0:
207,117,29662,1,0,0:0:0:0:
224,159,29750,1,0,0:0:0:0:
229,203,29839,1,0,0:0:0:0:
86,193,30015,1,2,0:1:0:0:
350,112,30192,2,0,L|451:115,1,90,8|0,0:0|0:0,0:0:0:0:
313,258,30545,6,0,B|358:263|358:263|401:250,1,90,2|0,0:1|0:0,0:0:0:0:
350,112,30897,1,8,0:0:0:0:
365,339,31074,1,0,0:0:0:0:
365,339,31162,1,0,0:0:0:0:
365,339,31250,2,0,L|407:325,1,45
353,186,31427,1,2,0:1:0:0:
197,302,31603,2,0,L|106:305,1,90,8|0,0:0|0:0,0:0:0:0:
350,112,31956,5,2,0:1:0:0:
365,339,32133,1,0,0:0:0:0:
455,56,32309,1,8,0:0:0:0:
470,283,32486,1,0,0:0:0:0:
250,157,32662,1,0,0:0:0:0:
211,178,32750,1,0,0:0:0:0:
186,216,32839,1,2,0:1:0:0:
181,260,32927,1,0,0:0:0:0:
197,302,33015,2,0,L|289:305,1,90,8|0,0:0|0:0,0:0:0:0:
288,65,33368,6,0,B|244:62|244:62|192:72,1,90,2|0,0:1|0:0,0:0:0:0:
100,96,33721,1,8,0:0:0:0:
119,274,33897,1,0,0:0:0:0:
119,274,33986,1,0,0:0:0:0:
119,274,34074,2,0,L|124:229,1,45
120,369,34250,1,2,0:1:0:0:
100,96,34427,2,0,L|6:102,1,90,8|0,0:0|0:0,0:0:0:0:
331,336,34780,6,0,L|421:340,1,90,2|0,0:1|0:0,0:0:0:0:
334,240,35133,2,0,L|424:236,1,90,2|0,0:1|0:0,0:0:0:0:
337,143,35486,1,2,0:1:0:0:
381,136,35574,1,0,0:0:0:0:
426,129,35662,1,0,0:0:0:0:
340,47,35839,2,0,L|427:24,1,90,2|0,0:1|0:0,0:0:0:0:
181,336,36192,6,0,L|91:340,1,90,2|0,0:1|0:0,0:1:0:0:
178,240,36545,2,0,L|88:236,1,90,2|0,0:1|0:0,0:0:0:0:
175,143,36897,1,2,0:1:0:0:
130,136,36986,1,0,0:0:0:0:
85,129,37074,1,0,0:0:0:0:
172,47,37250,2,0,L|84:24,1,90,2|0,0:1|0:0,0:0:0:0:
178,240,37603,5,2,0:1:0:0:
381,136,37780,1,0,0:0:0:0:
130,136,37956,1,8,0:0:0:0:
334,240,38133,1,0,0:0:0:0:
213,27,38309,1,2,0:1:0:0:
256,16,38397,1,0,0:0:0:0:
299,27,38486,1,0,0:1:0:0:
256,192,38662,2,0,L|256:282,1,90,8|0,0:0|0:0,0:0:0:0:
447,228,39015,5,2,0:1:0:0:
130,136,39192,1,0,0:0:0:0:
382,136,39368,1,8,0:0:0:0:
65,228,39545,1,0,0:0:0:0:
299,357,39721,1,2,0:1:0:0:
256,368,39809,1,0,0:0:0:0:
213,357,39897,1,0,0:0:0:0:
256,102,40074,2,0,L|256:192,1,90,8|0,0:0|0:0,0:0:0:0:
172,47,40427,5,2,0:1:0:0:
382,136,40603,1,2,0:1:0:0:
130,136,40780,5,2,0:1:0:0:
369,267,40956,1,2,0:1:0:0:
88,225,41133,5,2,0:1:0:0:
88,225,41221,1,0,0:0:0:0:
88,225,41309,1,2,0:1:0:0:
299,27,41486,1,2,0:1:0:0:
256,192,41662,1,2,0:1:0:0:
73,55,41839,5,2,0:1:0:0:
96,311,42015,1,2,0:1:0:0:
199,46,42192,5,2,0:1:0:0:
195,303,42368,1,2,0:1:0:0:
325,37,42545,5,2,0:1:0:0:
325,37,42633,1,0,0:0:0:0:
325,37,42721,1,2,0:1:0:0:
98,221,42897,1,2,0:1:0:0:
369,267,43074,1,2,0:1:0:0:
130,136,43250,5,0,0:0:0:0:
85,130,43339,1,0,0:0:0:0:
44,146,43427,1,0,0:0:0:0:
15,180,43515,1,0,0:0:0:0:
6,224,43603,1,0,0:0:0:0:
18,267,43692,1,0,0:0:0:0:
49,299,43780,1,0,0:0:0:0:
91,312,43868,1,0,0:0:0:0:
135,304,43956,5,0,0:0:0:0:
175,269,44045,1,0,0:0:0:0:
189,217,44133,1,0,0:0:0:0:
172,167,44221,1,0,0:0:0:0:
130,136,44309,5,0,0:0:0:0:
147,185,44397,1,0,0:0:0:0:
189,217,44486,1,0,0:0:0:0:
242,220,44574,1,0,0:0:0:0:
286,193,44662,6,0,P|284:144|286:93,3,90,2|0|0|0,0:0|0:0|0:0|0:0,0:0:0:0:
225,298,46074,5,6,0:1:0:0:
173,313,46162,1,0,0:0:0:0:
120,300,46250,1,0,0:0:0:0:
79,263,46339,1,0,0:0:0:0:
61,211,46427,1,8,0:0:0:0:
69,157,46515,1,0,0:0:0:0:
101,113,46603,1,0,0:0:0:0:
150,90,46692,1,0,0:0:0:0:
203,93,46780,1,0,0:0:0:0:
245,125,46868,1,0,0:0:0:0:
297,138,46956,1,2,0:1:0:0:
350,128,47045,1,0,0:0:0:0:
394,97,47133,6,0,P|400:62|400:38,1,53.9999983520508,10|0,0:0|0:0,0:0:0:0:
342,241,47309,2,0,P|336:276|336:300,1,53.9999983520508,2|0,0:0|0:0,0:0:0:0:
150,90,47486,5,2,0:1:0:0:
107,58,47574,1,0,0:0:0:0:
54,63,47662,1,0,0:0:0:0:
18,101,47750,1,0,0:0:0:0:
15,153,47839,2,0,P|19:181|20:212,1,53.9999983520508,10|0,0:0|0:0,0:0:0:0:
124,364,48015,2,0,P|127:337|132:311,1,53.9999983520508,2|0,0:0|0:0,0:0:0:0:
191,209,48192,5,0,0:1:0:0:
197,155,48280,1,0,0:0:0:0:
245,125,48368,1,2,0:1:0:0:
297,138,48456,1,0,0:0:0:0:
324,186,48545,1,8,0:0:0:0:
348,234,48633,1,0,0:0:0:0:
400,246,48721,1,0,0:0:0:0:
445,216,48809,1,0,0:0:0:0:
451,160,48897,5,2,0:0:0:0:
405,134,48986,1,0,0:0:0:0:
350,127,49074,1,0,0:0:0:0:
297,138,49162,1,0,0:0:0:0:
249,166,49250,5,10,0:0:0:0:
300,156,49339,1,0,0:0:0:0:
350,127,49427,1,0,0:0:0:0:
387,92,49515,1,0,0:0:0:0:
410,41,49603,5,2,0:0:0:0:
375,79,49692,1,0,0:0:0:0:
350,127,49780,1,2,0:1:0:0:
346,180,49868,1,0,0:0:0:0:
353,234,49956,5,10,0:0:0:0:
360,181,50045,1,0,0:0:0:0:
350,127,50133,1,0,0:0:0:0:
323,81,50221,1,0,0:0:0:0:
283,42,50309,5,2,0:1:0:0:
283,95,50397,1,0,0:0:0:0:
257,143,50486,1,0,0:0:0:0:
213,174,50574,1,0,0:0:0:0:
159,178,50662,1,8,0:0:0:0:
106,166,50750,1,0,0:0:0:0:
54,182,50839,1,0,0:0:0:0:
15,219,50927,1,0,0:0:0:0:
0,270,51015,5,2,0:0:0:0:
0,270,51103,1,0,0:0:0:0:
0,270,51192,2,0,P|34:277|57:278,1,53.9999983520508,2|0,0:1|0:0,0:0:0:0:
266,166,51368,1,10,0:0:0:0:
266,166,51456,1,0,0:0:0:0:
266,166,51545,2,0,P|239:168|212:174,1,53.9999983520508
272,278,51721,5,2,0:1:0:0:
323,262,51809,1,0,0:0:0:0:
361,224,51897,1,0,0:0:0:0:
377,172,51986,1,0,0:0:0:0:
368,118,52074,1,8,0:0:0:0:
334,76,52162,1,0,0:0:0:0:
284,54,52250,1,0,0:0:0:0:
229,58,52339,1,0,0:0:0:0:
181,82,52427,5,0,0:0:0:0:
192,134,52515,1,0,0:0:0:0:
225,175,52603,1,2,0:1:0:0:
273,197,52692,1,0,0:0:0:0:
326,193,52780,1,8,0:0:0:0:
377,172,52868,1,0,0:0:0:0:
406,127,52956,1,0,0:0:0:0:
413,74,53045,1,0,0:0:0:0:
396,23,53133,5,2,0:1:0:0:
367,68,53221,1,0,0:0:0:0:
360,121,53309,1,0,0:0:0:0:
377,172,53397,1,0,0:1:0:0:
407,198,53486,1,8,0:0:0:0:
447,231,53574,1,0,0:0:0:0:
450,283,53662,1,0,0:0:0:0:
414,321,53750,1,0,0:0:0:0:
362,321,53839,1,0,0:0:0:0:
319,290,53927,1,0,0:0:0:0:
266,278,54015,1,2,0:1:0:0:
213,290,54103,1,0,0:0:0:0:
170,324,54192,6,0,P|138:326|108:324,1,53.9999983520508,10|0,0:0|0:0,0:0:0:0:
72,188,54368,2,0,P|87:210|99:234,1,53.9999983520508,2|0,0:0|0:0,0:0:0:0:
6,341,54545,5,2,0:1:0:0:
6,341,54633,1,0,0:0:0:0:
6,341,54721,2,0,P|17:316|32:293,1,53.9999983520508
229,115,54897,1,8,0:0:0:0:
229,115,54986,1,0,0:0:0:0:
229,115,55074,2,0,P|218:139|203:162,1,53.9999983520508
119,88,55250,5,0,0:0:0:0:
151,38,55339,1,0,0:0:0:0:
203,11,55427,1,2,0:1:0:0:
261,12,55515,1,0,0:0:0:0:
312,39,55603,1,8,0:0:0:0:
345,88,55692,1,0,0:0:0:0:
397,115,55780,1,0,0:0:0:0:
455,114,55868,1,0,0:0:0:0:
508,86,55956,5,2,0:1:0:0:
475,38,56045,1,0,0:0:0:0:
423,11,56133,1,0,0:0:0:0:
364,12,56221,1,0,0:0:0:0:
312,39,56309,1,8,0:0:0:0:
281,88,56397,1,0,0:0:0:0:
229,115,56486,1,0,0:0:0:0:
170,114,56574,1,0,0:0:0:0:
119,88,56662,6,0,P|92:85|65:86,1,53.9999983520508,2|0,0:0|0:0,0:0:0:0:
296,180,56839,2,0,P|323:178|350:179,1,53.9999983520508,2|0,0:0|0:0,0:0:0:0:
87,179,57015,2,0,P|54:177|24:179,1,53.9999983520508,10|0,0:0|0:0,0:0:0:0:
269,272,57192,2,0,P|301:270|331:272,1,53.9999983520508,2|0,0:0|0:0,0:0:0:0:
90,307,57368,5,6,0:1:0:0:
62,262,57456,1,0,0:0:0:0:
80,213,57545,1,0,0:0:0:0:
130,198,57633,1,0,0:0:0:0:
173,228,57721,1,8,0:0:0:0:
221,251,57809,1,0,0:0:0:0:
275,249,57897,1,0,0:0:0:0:
321,223,57986,1,0,0:0:0:0:
351,179,58074,1,0,0:0:0:0:
355,124,58162,1,0,0:0:0:0:
334,73,58250,1,2,0:1:0:0:
291,38,58339,1,0,0:0:0:0:
237,29,58427,6,0,P|208:32|173:30,1,53.9999983520508,10|0,0:0|0:0,0:0:0:0:
386,194,58603,2,0,P|415:197|450:195,1,53.9999983520508,2|0,0:0|0:0,0:0:0:0:
245,141,58780,5,2,0:0:0:0:
196,165,58868,1,0,0:0:0:0:
162,208,58956,1,0,0:0:0:0:
144,259,59045,1,0,0:0:0:0:
143,314,59133,5,10,0:0:0:0:
161,266,59221,1,0,0:0:0:0:
162,208,59309,1,0,0:0:0:0:
150,159,59397,1,0,0:0:0:0:
119,113,59486,5,2,0:0:0:0:
134,162,59574,1,0,0:0:0:0:
162,208,59662,1,2,0:1:0:0:
205,239,59750,1,0,0:0:0:0:
255,261,59839,5,10,0:0:0:0:
213,229,59927,1,0,0:0:0:0:
162,208,60015,1,0,0:0:0:0:
107,208,60103,1,0,0:0:0:0:
54,220,60192,5,2,0:1:0:0:
98,251,60280,1,0,0:0:0:0:
148,270,60368,1,0,0:0:0:0:
202,273,60456,1,0,0:0:0:0:
255,261,60545,1,8,0:0:0:0:
301,234,60633,1,0,0:0:0:0:
339,195,60721,1,0,0:0:0:0:
364,148,60809,1,0,0:0:0:0:
374,95,60897,1,0,0:0:0:0:
343,51,60986,1,0,0:0:0:0:
293,34,61074,1,2,0:1:0:0:
243,51,61162,1,0,0:0:0:0:
213,94,61250,6,0,P|211:119|215:148,1,53.9999983520508,10|0,0:0|0:0,0:0:0:0:
302,287,61427,2,0,P|304:260|301:234,1,53.9999983520508,2|0,0:0|0:0,0:0:0:0:
53,124,61603,5,2,0:1:0:0:
53,124,61692,1,0,0:0:0:0:
53,124,61780,2,0,P|80:129|107:130,1,53.9999983520508
396,57,61956,1,8,0:0:0:0:
396,57,62045,1,0,0:0:0:0:
396,57,62133,2,0,P|369:52|342:51,1,53.9999983520508
101,262,62309,5,2,0:0:0:0:
101,262,62397,1,0,0:0:0:0:
101,262,62486,2,0,P|124:248|145:232,1,53.9999983520508,2|0,0:1|0:0,0:0:0:0:
228,42,62662,1,8,0:0:0:0:
228,42,62750,1,0,0:0:0:0:
228,42,62839,2,0,P|218:67|212:93,1,53.9999983520508
359,182,63015,5,2,0:1:0:0:
329,137,63103,1,0,0:0:0:0:
282,111,63192,1,0,0:0:0:0:
229,110,63280,1,0,0:0:0:0:
181,135,63368,1,8,0:0:0:0:
151,179,63456,1,0,0:0:0:0:
145,232,63545,2,0,P|150:260|163:284,1,53.9999983520508
282,111,63721,5,0,0:0:0:0:
323,63,63809,1,0,0:0:0:0:
382,46,63897,1,2,0:1:0:0:
445,62,63986,1,0,0:0:0:0:
487,107,64074,1,8,0:0:0:0:
503,167,64162,1,0,0:0:0:0:
487,227,64250,1,0,0:0:0:0:
440,272,64339,1,0,0:0:0:0:
380,290,64427,5,2,0:1:0:0:
326,258,64515,1,0,0:0:0:0:
318,195,64603,1,0,0:0:0:0:
364,150,64692,1,0,0:0:0:0:
428,157,64780,1,8,0:0:0:0:
461,212,64868,1,0,0:0:0:0:
440,272,64956,1,0,0:0:0:0:
386,309,65045,1,0,0:0:0:0:
325,333,65133,5,2,0:0:0:0:
325,333,65221,1,0,0:0:0:0:
325,333,65309,2,0,P|295:338|265:341,1,53.9999983520508,2|0,0:1|0:0,0:0:0:0:
145,232,65486,1,10,0:0:0:0:
145,232,65574,1,0,0:0:0:0:
145,232,65662,2,0,P|171:229|198:229,1,53.9999983520508
60,335,65839,5,2,0:1:0:0:
60,335,65927,1,0,0:0:0:0:
60,335,66015,2,0,L|63:275,1,53.9999983520508
188,49,66192,1,2,0:1:0:0:
188,49,66280,1,0,0:0:0:0:
188,49,66368,2,0,L|191:109,1,53.9999983520508
316,335,66545,1,2,0:1:0:0:
316,335,66633,1,0,0:0:0:0:
316,335,66721,2,0,L|319:275,1,53.9999983520508
452,49,66897,6,0,L|482:50,1,26.9999991760254,2|0,0:1|0:0,0:0:0:0:
450,75,66986,2,0,L|480:76,1,26.9999991760254,2|0,0:0|0:0,0:0:0:0:
448,101,67074,2,0,L|478:102,1,26.9999991760254,2|0,0:0|0:0,0:0:0:0:
446,127,67162,2,0,L|476:128,1,26.9999991760254,2|0,0:0|0:0,0:0:0:0:
444,153,67250,5,2,0:1:0:0:
68,231,67603,1,2,0:1:0:0:
419,292,67956,5,4,0:3:0:0:
92,91,68309,1,4,0:3:0:0:
256,192,68662,6,0,B|309:182|309:182|345:186,2,90.0000034332277,2|2|2,0:0|0:0|0:0,0:0:0:0:
231,273,69015,2,0,B|186:283|186:283|141:279,2,90.0000034332277,2|2|2,0:0|0:0|0:0,0:0:0:0:
211,120,69368,2,0,L|107:129,2,90.0000034332277,2|2|2,0:0|0:0|0:0,0:0:0:0:
397,127,69721,2,0,B|412:124|413:142|401:165|373:158|365:128|365:128|386:78|376:8,1,180.000006866455
475,89,70074,6,0,B|484:138|484:138|473:186,2,90.0000034332277,2|2|2,0:0|0:0|0:0,0:0:0:0:
397,127,70427,2,0,B|388:176|388:176|396:215,2,90.0000034332277,2|2|2,0:0|0:0|0:0,0:0:0:0:
469,266,70780,2,0,B|478:315|478:315|469:354,2,90.0000034332277,2|2|2,0:0|0:0|0:0,0:0:0:0:
214,265,71133,2,0,B|280:270|280:270|319:295|319:295|388:301,1,180.000006866455
181,137,71486,6,0,B|153:142|153:142|126:137|126:137|99:142|99:142|70:137,1,112.5,2|0,0:1|0:0,0:0:0:0:
264,184,71839,6,0,B|291:185|291:185|295:186|295:186|330:189,1,56.25
157,120,72015,1,2,0:1:0:0:
344,205,72192,6,0,P|303:66|157:120,1,337.5,8|0,0:0|0:0,0:0:0:0:
225,246,72897,2,0,B|265:229|308:232|308:232|299:273|308:316|308:316|266:353|146:344,1,337.5,2|0,0:1|0:0,0:0:0:0:
72,206,73515,5,2,0:1:0:0:
72,206,73603,2,0,B|69:263,1,56.25,8|0,0:0|0:0,0:0:0:0:
79,94,73780,1,2,0:1:0:0:
228,188,74045,5,2,0:1:0:0:
228,189,74133,2,0,B|224:245,1,56.25,8|0,0:0|0:0,0:0:0:0:
309,164,74309,5,2,0:0:0:0:
380,172,74427,1,2,0:0:0:0:
337,229,74545,1,2,0:0:0:0:
352,107,74662,5,2,0:0:0:0:
423,115,74780,1,2,0:0:0:0:
380,172,74897,1,2,0:0:0:0:
395,50,75015,5,2,0:0:0:0:
466,58,75133,1,2,0:0:0:0:
423,115,75250,1,2,0:0:0:0:
428,74,75368,6,0,B|450:180|414:137|440:260,1,180.000006866455
323,353,75721,5,2,0:0:0:0:
365,295,75839,1,2,0:0:0:0:
393,361,75956,1,2,0:0:0:0:
295,287,76074,5,2,0:0:0:0:
337,229,76192,1,2,0:0:0:0:
365,295,76309,1,2,0:0:0:0:
267,221,76427,5,2,0:0:0:0:
309,164,76545,1,2,0:0:0:0:
337,229,76662,1,2,0:0:0:0:
304,205,76780,6,0,L|227:201,1,67.5000025749208,2|0,0:0|0:0,0:0:0:0:
327,53,76956,2,0,L|404:49,1,67.5000025749208,2|0,0:0|0:0,0:0:0:0:
188,136,77133,6,0,B|153:131|133:104|133:104|100:129|94:160,1,135.000005149842,2|0,0:1|0:0,0:0:0:0:
149,276,77397,1,2,0:1:0:0:
149,276,77486,2,0,B|154:242|154:242|156:209,1,67.5000025749208,10|0,0:0|0:0,0:0:0:0:
327,53,77662,2,0,B|328:86|328:86|333:119,1,67.5000025749208,2|0,0:0|0:0,0:0:0:0:
435,201,77839,6,0,B|384:191|384:191|335:201|335:201|287:191|287:191|234:201,1,202.500007724762,2|0,0:1|0:0,0:0:0:0:
226,296,78192,2,0,B|292:284,1,67.5000025749208,10|0,0:0|0:0,0:0:0:0:
94,160,78368,2,0,B|59:157|59:157|27:148,1,67.5000025749208,2|0,0:0|0:0,0:0:0:0:
213,51,78545,5,2,0:1:0:0:
292,284,78721,1,2,0:1:0:0:
367,284,78809,1,2,0:1:0:0:
442,284,78897,1,2,0:1:0:0:
334,120,79074,1,2,0:1:0:0:
149,276,79250,6,0,L|147:346,1,67.5000025749208,10|0,0:0|0:0,0:0:0:0:
214,118,79427,2,0,L|212:48,1,67.5000025749208,2|0,0:1|0:0,0:0:0:0:
299,255,79603,1,2,0:1:0:0:
367,284,79692,1,2,0:1:0:0:
439,267,79780,1,2,0:1:0:0:
492,215,79868,1,2,0:1:0:0:
494,140,79956,6,0,B|480:85|480:85|486:49,2,90.0000034332277,6|2|2,0:0|0:0|0:0,0:0:0:0:
426,178,80309,2,0,B|439:223|439:223|439:266,2,90.0000034332277,2|2|2,0:0|0:0|0:0,0:0:0:0:
306,48,80662,2,0,B|352:37|352:37|394:41,2,90.0000034332277,2|2|2,0:0|0:0|0:0,0:0:0:0:
251,172,81015,2,0,B|159:192|179:144|159:192|139:144|159:192|238:129,1,180.000006866455
328,123,81368,6,0,B|341:171|341:171|331:218,2,90.0000034332277,2|2|2,0:0|0:0|0:0,0:0:0:0:
251,172,81721,2,0,B|238:220|238:220|248:267,2,90.0000034332277,2|2|2,0:0|0:0|0:0,0:0:0:0:
332,310,82074,2,0,B|380:323|380:323|427:312,2,90.0000034332277,2|2|2,0:0|0:0|0:0,0:0:0:0:
450,125,82427,2,0,B|419:111|419:111|419:223|419:223|450:209,1,180.000006866455
237,129,82780,6,0,B|205:136|205:136|180:123|180:123|158:130|158:130|125:133,1,112.5,2|0,0:1|0:0,0:0:0:0:
173,264,83133,6,0,L|176:208,1,56.25
169,348,83309,1,2,0:1:0:0:
43,82,83486,6,0,B|139:82|179:164|179:164|219:82|315:82,1,337.5,8|0,0:0|0:0,0:0:0:0:
340,185,84192,6,0,P|268:177|279:249,1,168.75,2|0,0:1|0:0,0:0:0:0:
271,328,84545,2,0,B|240:323|219:308|219:308|188:307|150:329,1,112.5,2|0,0:0|0:0,0:0:0:0:
74,284,84809,5,2,0:1:0:0:
74,284,84897,2,0,P|69:311|69:339,1,56.25,8|0,0:0|0:0,0:0:0:0:
100,191,85074,1,2,0:1:0:0:
206,85,85339,5,2,0:1:0:0:
206,84,85427,2,0,P|181:98|159:115,1,56.25,8|0,0:0|0:0,0:0:0:0:
341,186,85603,6,0,B|349:156|334:120|334:120|280:168|298:284|409:309|471:191|414:96,1,405.000015449525,2|0,0:1|0:0,0:0:0:0:
413,11,86221,1,0,0:0:0:0:
413,11,86309,2,0,P|347:33|273:36,1,135.000005149842,8|2,0:0|0:1,0:0:0:0:
238,229,86662,6,2,B|242:246|242:246|238:278|238:278|242:296,3,67.5000025749208
157,214,87015,5,2,0:0:0:0:
86,222,87133,1,2,0:0:0:0:
129,279,87250,1,2,0:0:0:0:
114,157,87368,5,2,0:0:0:0:
43,165,87486,1,2,0:0:0:0:
86,222,87603,1,2,0:0:0:0:
71,100,87721,5,2,0:0:0:0:
0,108,87839,1,2,0:0:0:0:
43,165,87956,1,2,0:0:0:0:
38,124,88074,6,0,L|47:52,1,67.5000025749208,2|0,0:0|0:0,0:0:0:0:
129,279,88250,2,0,L|138:351,1,67.5000025749208,2|0,0:0|0:0,0:0:0:0:
189,66,88427,5,2,0:1:0:0:
428,66,88603,1,2,0:1:0:0:
189,162,88780,5,2,0:1:0:0:
428,162,88956,1,2,0:1:0:0:
189,66,89133,6,0,B|175:69|180:62|160:68|150:49|151:57|144:66|121:57|126:61|117:58,1,67.5000025749208,2|0,0:0|0:0,0:0:0:0:
428,66,89309,2,0,B|442:69|437:62|457:68|467:49|466:57|473:66|496:57|491:61|500:58,1,67.5000025749208,2|0,0:0|0:0,0:0:0:0:
189,162,89486,6,0,B|174:163|180:157|159:161|151:141|151:149|144:158|122:147|126:151|117:147,1,67.5000025749208,2|0,0:0|0:0,0:0:0:0:
428,162,89662,2,0,B|442:163|436:157|457:161|465:141|465:149|472:158|494:147|490:151|499:147,1,67.5000025749208,2|0,0:0|0:0,0:0:0:0:
122,244,89839,5,2,0:1:0:0:
428,162,90192,1,2,0:1:0:0:
47,119,90545,5,4,0:3:0:0:
502,242,90897,1,4,0:3:0:0:
331,40,91250,6,0,P|334:69|334:99,1,58.4999973220826,6|0,0:1|0:0,0:0:0:0:
168,270,91427,1,0,0:0:0:0:
191,233,91515,1,0,0:0:0:0:
219,200,91603,2,0,P|243:183|269:169,1,58.4999973220826,2|0,0:1|0:0,0:0:0:0:
281,360,91780,2,0,P|255:348|230:333,1,58.4999973220826,2|0,0:0|0:0,0:0:0:0:
226,83,91956,5,2,0:1:0:0:
282,73,92045,1,0,0:0:0:0:
334,99,92133,1,0,0:0:0:0:
362,149,92221,1,0,0:0:0:0:
355,206,92309,2,0,P|348:235|335:261,1,58.4999973220826,2|0,0:1|0:0,0:0:0:0:
152,143,92486,2,0,P|138:116|131:88,1,58.4999973220826,2|0,0:0|0:0,0:0:0:0:
303,18,92662,6,0,P|295:46|282:72,1,58.4999973220826,2|0,0:1|0:0,0:0:0:0:
63,255,92839,1,0,0:0:0:0:
78,213,92927,1,0,0:0:0:0:
106,178,93015,2,0,P|127:159|152:143,1,58.4999973220826,2|0,0:1|0:0,0:0:0:0:
230,333,93192,2,0,P|200:331|172:324,1,58.4999973220826,2|0,0:0|0:0,0:0:0:0:
263,208,93368,5,2,0:1:0:0:
321,202,93456,1,0,0:0:0:0:
378,214,93545,1,0,0:0:0:0:
429,242,93633,1,0,0:0:0:0:
470,283,93721,2,0,P|482:319|488:344,1,58.4999973220826,2|0,0:1|0:0,0:0:0:0:
321,202,93897,2,0,P|313:173|304:146,1,58.4999973220826,2|0,0:0|0:0,0:0:0:0:
163,353,94074,6,0,P|192:356|221:357,1,58.4999973220826,2|0,0:1|0:0,0:0:0:0:
131,88,94250,1,0,0:0:0:0:
88,101,94339,1,0,0:0:0:0:
55,129,94427,2,0,P|37:152|22:177,1,58.4999973220826,2|0,0:1|0:0,0:0:0:0:
304,146,94603,2,0,P|292:119|278:93,1,58.4999973220826,2|0,0:0|0:0,0:0:0:0:
174,210,94780,5,2,0:1:0:0:
210,255,94868,1,0,0:0:0:0:
261,283,94956,1,0,0:0:0:0:
319,289,95045,1,0,0:0:0:0:
375,273,95133,2,0,P|407:259|433:234,1,58.4999973220826,2|0,0:1|0:0,0:0:0:0:
152,117,95309,2,0,P|120:131|94:156,1,58.4999973220826,2|0,0:0|0:0,0:0:0:0:
364,194,95486,6,0,P|377:161|378:125,1,58.4999973220826,2|0,0:1|0:0,0:0:0:0:
174,210,95662,1,0,0:0:0:0:
140,238,95750,1,0,0:0:0:0:
116,275,95839,2,0,P|104:301|100:330,1,58.4999973220826,2|0,0:1|0:0,0:0:0:0:
304,146,96015,2,0,P|286:122|263:104,1,58.4999973220826,2|0,0:0|0:0,0:0:0:0:
241,335,96192,6,0,P|269:331|296:320,1,58.4999973220826,2|0,0:1|0:0,0:0:0:0:
102,146,96368,2,0,P|73:149|46:160,1,58.4999973220826,2|0,0:0|0:0,0:0:0:0:
364,194,96545,2,0,P|392:190|419:179,1,58.4999973220826,2|0,0:1|0:0,0:0:0:0:
225,5,96721,2,0,P|195:8|168:19,1,58.4999973220826,2|0,0:0|0:0,0:0:0:0:
116,275,96897,5,2,0:1:0:0:
264,105,97074,1,2,0:0:0:0:
264,105,97162,1,2,0:0:0:0:
264,105,97250,2,0,L|258:163,1,58.4999973220826,2|0,0:1|0:0,0:0:0:0:
241,335,97427,1,2,0:0:0:0:
53,30,97603,5,2,0:1:0:0:
111,24,97692,1,0,0:0:0:0:
169,19,97780,1,0,0:0:0:0:
227,14,97868,1,0,0:0:0:0:
286,9,97956,1,2,0:1:0:0:
106,177,98133,2,0,L|165:172,1,58.4999973220826,2|0,0:0|0:0,0:0:0:0:
352,156,98309,5,2,0:1:0:0:
241,335,98486,1,2,0:0:0:0:
241,335,98574,1,2,0:0:0:0:
241,335,98662,2,0,L|299:329,1,58.4999973220826,2|0,0:1|0:0,0:0:0:0:
471,312,98839,1,2,0:0:0:0:
153,56,99015,5,2,0:1:0:0:
159,114,99103,1,0,0:0:0:0:
164,172,99192,1,0,0:0:0:0:
169,230,99280,1,0,0:0:0:0:
174,289,99368,1,2,0:1:0:0:
440,55,99545,2,0,P|411:53|382:56,1,58.4999973220826,2|0,0:0|0:0,0:0:0:0:
233,143,99721,6,0,B|196:148|162:134|162:134|135:144|104:151|104:151|75:137|34:143,1,202.500007724762,2|0,0:1|0:0,0:0:0:0:
161,317,100074,2,0,P|165:283|166:250,1,67.5000025749208,2|0,0:1|0:0,0:0:0:0:
209,32,100250,2,0,B|265:24|311:50|327:86|327:86|359:56|382:56,1,202.500007724762,2|0,0:0|0:0,0:0:0:0:
410,233,100603,2,0,P|410:199|406:166,1,67.5000025749208
233,143,100780,6,0,P|233:176|237:210,1,67.5000025749208,2|0,0:1|0:0,0:0:0:0:
501,83,100956,2,0,P|500:49|496:15,1,67.5000025749208,2|0,0:0|0:0,0:0:0:0:
324,255,101133,6,0,B|394:260|466:230|466:230|437:240|410:233,1,202.500007724762,2|0,0:1|0:0,0:0:0:0:
237,75,101486,2,0,P|234:108|233:142,1,67.5000025749208,2|0,0:1|0:0,0:0:0:0:
433,162,101662,2,0,P|432:128|428:94,1,67.5000025749208,2|0,0:0|0:0,0:0:0:0:
256,322,101839,5,2,0:1:0:0:
327,38,102015,1,2,0:0:0:0:
327,38,102103,1,2,0:0:0:0:
327,38,102192,1,2,0:1:0:0:
476,331,102368,1,2,0:0:0:0:
233,142,102545,6,0,P|203:141|174:145,1,58.4999973220826,6|0,0:1|0:0,0:0:0:0:
17,286,102721,1,0,0:0:0:0:
59,301,102809,1,0,0:0:0:0:
102,313,102897,2,0,P|131:317|161:317,1,58.4999973220826,2|0,0:1|0:0,0:0:0:0:
285,168,103074,2,0,P|259:153|233:142,1,58.4999973220826,2|0,0:0|0:0,0:0:0:0:
266,279,103250,5,2,0:1:0:0:
323,273,103339,1,0,0:0:0:0:
370,239,103427,1,0,0:0:0:0:
394,186,103515,1,0,0:0:0:0:
389,129,103603,2,0,P|383:97|368:62,1,58.4999973220826,2|0,0:1|0:0,0:0:0:0:
176,260,103780,2,0,P|165:287|160:316,1,58.4999973220826,2|0,0:0|0:0,0:0:0:0:
269,36,103956,6,0,P|240:31|211:32,1,58.4999973220826,2|0,0:1|0:0,0:0:0:0:
94,177,104133,1,0,0:0:0:0:
138,176,104221,1,0,0:0:0:0:
181,168,104309,2,0,P|208:157|232:141,1,58.4999973220826,2|0,0:1|0:0,0:0:0:0:
6,143,104486,2,0,P|1:171|2:200,1,58.4999973220826,2|0,0:0|0:0,0:0:0:0:
161,316,104662,5,2,0:1:0:0:
215,296,104750,1,0,0:0:0:0:
251,251,104839,1,0,0:0:0:0:
257,193,104927,1,0,0:0:0:0:
232,141,105015,2,0,P|207:118|168:103,1,58.4999973220826,2|0,0:1|0:0,0:0:0:0:
103,322,105192,2,0,P|132:323|161:316,1,58.4999973220826,2|0,0:0|0:0,0:0:0:0:
331,122,105368,6,0,P|360:121|389:129,1,58.4999973220826,2|0,0:1|0:0,0:0:0:0:
251,251,105545,1,0,0:0:0:0:
207,244,105633,1,0,0:0:0:0:
167,225,105721,2,0,P|141:208|122:187,1,58.4999973220826,2|0,0:1|0:0,0:0:0:0:
174,11,105897,2,0,P|203:13|231:21,1,58.4999973220826,2|0,0:0|0:0,0:0:0:0:
389,129,106074,5,2,0:1:0:0:
403,185,106162,1,0,0:0:0:0:
396,243,106250,1,0,0:0:0:0:
369,294,106339,1,0,0:0:0:0:
324,331,106427,2,0,P|295:354|263:362,1,58.4999973220826,2|0,0:1|0:0,0:0:0:0:
65,187,106603,2,0,P|93:182|122:187,1,58.4999973220826,2|0,0:0|0:0,0:0:0:0:
396,243,106780,6,0,P|367:247|338:242,1,58.4999973220826,2|0,0:1|0:0,0:0:0:0:
231,21,106956,1,0,0:0:0:0:
259,54,107045,1,0,0:0:0:0:
278,92,107133,2,0,P|285:127|286:154,1,58.4999973220826,2|0,0:1|0:0,0:0:0:0:
215,301,107309,2,0,P|208:266|207:239,1,58.4999973220826,2|0,0:0|0:0,0:0:0:0:
389,129,107486,6,0,L|447:126,1,58.4999973220826,2|0,0:1|0:0,0:0:0:0:
104,264,107662,2,0,L|45:266,1,58.4999973220826,2|0,0:0|0:0,0:0:0:0:
361,57,107839,2,0,L|419:54,1,58.4999973220826,2|0,0:1|0:0,0:0:0:0:
65,187,108015,2,0,L|6:189,1,58.4999973220826,2|0,0:0|0:0,0:0:0:0:
411,301,108192,5,6,0:1:0:0:
419,54,108368,1,2,0:1:0:0:
310,301,108545,5,2,0:1:0:0:
313,53,108721,1,2,0:1:0:0:
201,301,108897,5,2,0:1:0:0:
198,53,109074,1,2,0:1:0:0:
101,301,109250,5,2,0:1:0:0:
93,54,109427,1,2,0:1:0:0:
318,317,109603,5,6,0:1:0:0:
189,33,109780,1,2,0:1:0:0:
302,325,109956,5,2,0:1:0:0:
322,33,110133,1,2,0:1:0:0:
286,333,110309,5,2,0:1:0:0:
179,9,110486,1,2,0:1:0:0:
270,341,110662,5,2,0:1:0:0:
332,9,110839,1,2,0:1:0:0:
256,236,111015,5,4,3:1:0:0:
198,236,111103,1,0,3:0:0:0:
151,203,111192,1,0,3:0:0:0:
131,149,111280,1,0,3:0:0:0:
147,93,111368,1,0,3:0:0:0:
192,57,111456,1,0,3:0:0:0:
249,53,111545,1,0,3:0:0:0:
298,83,111633,1,0,3:0:0:0:
320,137,111721,5,4,3:1:0:0:
263,145,111809,1,0,3:0:0:0:
218,182,111897,1,0,3:0:0:0:
198,236,111986,1,0,3:0:0:0:
208,293,112074,1,0,3:0:0:0:
246,336,112162,1,0,3:0:0:0:
301,355,112250,1,0,3:0:0:0:
357,342,112339,1,0,3:0:0:0:
401,303,112427,5,4,3:1:0:0:
417,246,112515,1,0,3:0:0:0:
415,187,112603,2,0,P|411:151|405:128,1,58.4999973220826,0|0,3:0|3:0,3:0:0:0:
115,97,112780,5,4,3:1:0:0:
111,161,112868,1,0,3:0:0:0:
143,216,112956,2,0,P|169:228|198:236,1,58.4999973220826,0|0,3:0|3:0,3:0:0:0:
447,14,113133,5,4,3:1:0:0:
376,16,113221,1,0,3:0:0:0:
315,51,113309,2,0,P|291:67|270:87,1,58.4999973220826,0|0,3:0|3:0,3:0:0:0:
309,344,113486,5,4,3:1:0:0:
379,313,113574,1,0,3:0:0:0:
410,244,113662,2,0,P|416:213|413:181,1,58.4999973220826,0|0,3:0|3:0,3:0:0:0:
94,52,113839,5,6,0:1:0:0:
94,331,114192,5,2,0:1:0:0:
256,50,114368,1,2,0:1:0:0:
418,331,114545,1,6,0:1:0:0:
94,52,114897,5,2,0:1:0:0:
256,333,115074,1,2,0:1:0:0:
418,52,115250,1,6,0:1:0:0:
64,246,115603,5,2,0:1:0:0:
450,192,115780,1,2,0:1:0:0:
64,137,115956,1,6,0:1:0:0:
435,347,116309,5,6,0:1:0:0:
77,37,116662,5,6,0:1:0:0:
434,37,117015,5,2,0:1:0:0:
256,347,117192,1,2,0:1:0:0:
77,37,117368,1,6,0:1:0:0:
434,344,117721,5,2,0:1:0:0:
256,35,117897,1,2,0:1:0:0:
77,344,118074,1,6,0:1:0:0:
512,131,118427,5,2,0:1:0:0:
0,192,118603,1,2,0:1:0:0:
512,251,118780,1,6,0:1:0:0:
