osu file format v14

[General]
AudioFilename: audio.mp3
AudioLeadIn: 0
PreviewTime: 23397
Countdown: 0
SampleSet: Soft
StackLeniency: 0.4
Mode: 0
LetterboxInBreaks: 0
EpilepsyWarning: 1
WidescreenStoryboard: 1

[Editor]
DistanceSpacing: 1
BeatDivisor: 4
GridSize: 4
TimelineZoom: 1.9

[Metadata]
Title:Der Wald (kors k Remix)
TitleUnicode:Der Wald (kors k Remix)
Artist:Eleharmonica remixed by kors k
ArtistUnicode:エレハモニカ remixed by kors k
Creator:Cheesecake
Version:Easy
Source:pop'n music 20 fantasia
Tags:darky1 xchorse mithew jace rlc lasse hareimu spectator ascendance popn twenty mzd taku sakakibara seiya murai kosuke saito dark opera ダークオペラ the forest
BeatmapID:1395149
BeatmapSetID:581787

[Difficulty]
HPDrainRate:2
CircleSize:2.5
OverallDifficulty:2
ApproachRate:3
SliderMultiplier:0.899999999999999
SliderTickRate:1

[Events]
//Background and Video events
0,0,"der wald.jpg",0,0
//Break Periods
//Storyboard Layer 0 (Background)
//Storyboard Layer 1 (Fail)
//Storyboard Layer 2 (Pass)
//Storyboard Layer 3 (Foreground)
Sprite,Foreground,Centre,"sb\Circle.png",162,173 F,0,92661,93723,1,0 S,7,92661,93723,0.5,4 P,0,92661,93723,A
Sprite,Foreground,Centre,"sb\Circle.png",322,246 F,0,94073,95135,1,0 S,7,94073,95135,0.5,4 P,0,94073,95135,A
Sprite,Foreground,Centre,"sb\Circle.png",576,102 F,0,95485,96547,1,0 S,7,95485,96547,0.5,4 P,0,95485,96547,A
Sprite,Foreground,Centre,"sb\Circle.png",246,140 F,0,96897,97959,1,0 S,7,96897,97959,0.5,4 P,0,96897,97959,A
Sprite,Foreground,Centre,"sb\Circle.png",278,224 F,0,98308,99370,1,0 S,7,98308,99370,0.5,4 P,0,98308,99370,A
Sprite,Foreground,Centre,"sb\Circle.png",188,211 F,0,99720,100782,1,0 S,7,99720,100782,0.5,4 P,0,99720,100782,A
Sprite,Foreground,Centre,"sb\Circle.png",246,140 F,0,101132,102194,1,0 S,7,101132,102194,0.5,4 P,0,101132,102194,A
Sprite,Foreground,Centre,"sb\Circle.png",560,228 F,0,102544,103606,1,0 S,7,102544,103606,0.5,4 P,0,102544,103606,A
Sprite,Foreground,Centre,"sb\Circle.png",417,325 F,0,103955,105017,1,0 S,7,103955,105017,0.5,4 P,0,103955,105017,A
Sprite,Foreground,Centre,"sb\Circle.png",123,338 F,0,105367,106429,1,0 S,7,105367,106429,0.5,4 P,0,105367,106429,A
Sprite,Foreground,Centre,"sb\Circle.png",262,299 F,0,106779,107841,1,0 S,7,106779,107841,0.5,4 P,0,106779,107841,A
Sprite,Foreground,Centre,"sb\Circle.png",200,234 F,0,108191,109253,1,0 S,7,108191,109253,0.5,4 P,0,108191,109253,A
Sprite,Foreground,Centre,"sb\Circle.png",565,173 F,0,109603,110665,1,0 S,7,109603,110665,0.5,4 P,0,109603,110665,A
Sprite,Foreground,Centre,"sb\Circle.png",565,173 F,0,111015,112077,1,0 S,7,111015,112077,0.5,4 P,0,111015,112077,A
Sprite,Foreground,Centre,"sb\Circle.png",379,388 F,0,111721,112783,1,0 S,7,111721,112783,0.5,4 P,0,111721,112783,A
Sprite,Foreground,Centre,"sb\Circle.png",379,388 F,0,112427,113489,1,0 S,7,112427,113489,0.5,4 P,0,112427,113489,A
Sprite,Foreground,Centre,"sb\Circle.png",291,280 F,0,112780,113842,1,0 S,7,112780,113842,0.5,4 P,0,112780,113842,A
Sprite,Foreground,Centre,"sb\Circle.png",291,280 F,0,113133,114195,1,0 S,7,113133,114195,0.5,4 P,0,113133,114195,A
Sprite,Foreground,Centre,"sb\Circle.png",467,255 F,0,113486,114548,1,0 S,7,113486,114548,0.5,4 P,0,113486,114548,A
Sprite,Foreground,Centre,"sb\Naxess_3.png",467,255 C,0,113839,,221,52,28 S,30,113839,114191,0,1.5 F,2,113839,114544,1,0
Sprite,Foreground,Centre,"sb\Naxess_3.png",437,169 C,0,114192,,221,52,28 S,30,114192,114544,0,1.5 F,2,114192,114897,1,0
Sprite,Foreground,Centre,"sb\Naxess_3.png",280,100 C,0,114897,,221,52,28 S,30,114897,115249,0,1.5 F,2,114897,115602,1,0
Sprite,Foreground,Centre,"sb\Naxess_3.png",126,155 C,0,115603,,221,52,28 S,30,115603,115955,0,1.5 F,2,115603,116308,1,0
Sprite,Foreground,Centre,"sb\Naxess_3.png",160,329 C,0,116309,,221,52,28 S,30,116309,116661,0,1.5 F,2,116309,117014,1,0
Sprite,Foreground,Centre,"sb\Naxess_3.png",184,415 C,0,116662,,147,34,221 S,30,116662,117014,0,1.5 F,2,116662,117367,1,0
Sprite,Foreground,Centre,"sb\Naxess_3.png",258,365 C,0,117015,,147,34,221 S,30,117015,117367,0,1.5 F,2,117015,117720,1,0
Sprite,Foreground,Centre,"sb\Naxess_3.png",415,296 C,0,117721,,147,34,221 S,30,117721,118073,0,1.5 F,2,117721,118426,1,0
Sprite,Foreground,Centre,"sb\Naxess_3.png",0,211 C,0,118427,,147,34,221 MX,0,118427,,553 S,30,118427,118779,0,1.5 F,2,118427,119132,1,0 MX,0,118780,,-300
Sprite,Foreground,Centre,"sb\Circle.png",169,392 F,0,89133,89841,1,0 S,22,89133,89841,0,4
Sprite,Foreground,Centre,"sb\Circle.png",340,359 F,0,89839,90547,1,0 S,22,89839,90547,0,4
Sprite,Foreground,TopLeft,"sb\pixel.png",0,130 V,4,12198,12375,0,0.2,17.6,0.2 MX,0,12198,15022,100,130 F,0,15022,15199,0.5,0 MX,4,15022,15199,130,306 V,4,15022,15199,17.6,0.2,0,0.2
Sprite,Foreground,BottomLeft,"sb\MapCheesecake.png",0,130 MX,0,12198,15022,125,140 V,0,12286,12375,0.5,0,0.5,0.5 F,0,14491,15022,0.5,0
//Storyboard Sound Samples

[TimingPoints]
898,352.941176470588,4,2,1,40,1,0
898,-100,4,2,1,40,0,0
12192,-100,4,2,1,50,0,0
23486,-100,4,2,1,60,0,0
44662,-100,4,2,1,70,0,0
46074,-100,4,2,1,70,0,1
68662,-100,4,2,1,70,0,0
71486,-100,4,2,1,70,0,0
74309,-100,4,2,1,70,0,0
82780,-100,4,2,1,70,0,0
85603,-100,4,2,1,70,0,0
89839,-100,4,2,1,70,0,0
90545,-100,4,2,1,70,0,0
91250,-100,4,2,1,70,0,1
99721,-100,4,2,1,70,0,1
102545,-100,4,2,1,70,0,1
113839,-100,4,2,1,70,0,0

[Colours]
Combo1 : 147,34,221
Combo2 : 239,104,14
Combo3 : 105,47,225
Combo4 : 221,52,28

[HitObjects]
89,248,898,6,0,B|245:205|224:273|364:229,1,270,0|2,0:0|0:0,0:0:0:0:
413,162,2309,2,0,P|374:70|273:153,1,270,0|2,0:0|0:0,0:0:0:0:
252,238,3721,6,0,B|159:273|75:257|75:257|106:227|121:179,1,270,0|2,0:0|0:0,0:0:0:0:
76,101,5133,2,0,P|41:133|21:172,2,89.9999999999999,0|0|0,0:0|0:0|0:0,0:0:0:0:
155,56,6192,1,2,0:0:0:0:
200,135,6545,6,0,B|248:146|287:126|287:126|376:144|376:144|417:119|466:135,1,270,0|2,0:0|0:0,0:0:0:0:
427,217,7956,2,0,B|367:274|351:331|351:331|302:285|298:214,1,270,0|2,0:0|0:0,0:0:0:0:
284,126,9368,6,0,B|215:98|106:106|106:106|110:143|153:196,1,270,0|2,0:0|0:0,0:0:0:0:
212,245,10780,2,0,P|209:294|214:337,2,89.9999999999999,0|0|0,0:0|0:0|0:0,0:0:0:0:
298,215,11839,1,2,0:0:0:0:
383,243,12192,6,0,P|423:208|382:16,1,270,0|2,0:0|0:0,0:0:0:0:
317,76,13603,2,0,B|154:101|211:49|50:56,1,270,0|2,0:0|0:0,0:0:0:0:
14,139,15015,6,0,B|7:234|25:317|25:317|63:309|104:275,1,270,0|2,0:0|0:0,0:0:0:0:
191,249,16427,2,0,P|250:242|291:243,2,89.9999999999999,0|0|0,0:0|0:0|0:0,0:0:0:0:
168,336,17486,1,2,0:0:0:0:
257,329,17839,6,0,P|352:295|312:158,1,270,0|2,0:0|0:0,0:0:0:0:
238,109,19250,2,0,B|140:111|99:94|99:94|80:153|85:231,1,270,0|2,0:0|0:0,0:0:0:0:
159,272,20662,6,0,P|204:270|252:265,1,89.9999999999999,2|0,0:0|0:0,0:0:0:0:
327,221,21368,2,0,P|371:222|416:227,1,89.9999999999999,2|0,0:0|0:0,0:0:0:0:
493,179,22074,2,0,P|491:134|486:86,1,89.9999999999999,2|0,0:0|0:0,0:0:0:0:
417,31,22780,2,0,P|372:35|327:37,1,89.9999999999999,2|2,0:0|0:0,0:0:0:0:
256,93,23486,6,0,L|166:91,1,89.9999999999999,2|8,0:1|0:0,0:0:0:0:
82,124,24192,2,0,B|89:172|88:221,1,89.9999999999999,0|8,0:0|0:0,0:0:0:0:
88,303,24897,2,0,B|42:296|42:296|-11:302,2,89.9999999999999,2|8|0,0:1|0:0|0:0,0:0:0:0:
176,316,25956,1,8,0:0:0:0:
256,276,26309,6,0,P|313:273|347:277,1,89.9999999999999,2|8,0:1|0:0,0:0:0:0:
404,208,27015,2,0,B|412:164|411:104,1,89.9999999999999,0|8,0:0|0:0,0:0:0:0:
328,81,27721,2,0,B|282:88|282:88|229:82,2,89.9999999999999,2|8|0,0:1|0:0|0:0,0:0:0:0:
402,30,28780,1,8,0:0:0:0:
485,64,29133,6,0,L|498:163,1,89.9999999999999,2|8,0:1|0:0,0:0:0:0:
464,237,29839,2,0,P|418:238|370:250,1,89.9999999999999,0|8,0:0|0:0,0:0:0:0:
290,277,30545,2,0,L|196:270,1,89.9999999999999,2|8,0:1|0:0,0:0:0:0:
116,238,31250,2,0,P|106:192|107:143,1,89.9999999999999,0|8,0:0|0:0,0:0:0:0:
154,72,31956,6,0,B|202:80|202:80|249:95,2,89.9999999999999,2|8|0,0:1|0:0|0:0,0:0:0:0:
63,69,33015,1,8,0:0:0:0:
14,144,33368,2,0,L|10:236,1,89.9999999999999,2|8,0:1|0:0,0:0:0:0:
56,311,34074,2,0,P|103:307|151:307,1,89.9999999999999,0|8,0:0|0:0,0:0:0:0:
232,332,34780,6,0,L|323:328,1,89.9999999999999,2|2,0:1|0:1,0:0:0:0:
410,324,35486,2,0,L|501:320,1,89.9999999999999,2|2,0:1|0:1,0:0:0:0:
499,229,36192,2,0,L|408:225,1,89.9999999999999,2|2,0:1|0:1,0:0:0:0:
321,221,36897,2,0,L|230:217,1,89.9999999999999,2|2,0:1|0:1,0:0:0:0:
170,150,37603,6,0,P|125:157|76:159,2,89.9999999999999,2|8|2,0:1|0:0|0:1,0:0:0:0:
248,104,38662,1,8,0:0:0:0:
335,81,39015,2,0,P|379:83|424:90,2,89.9999999999999,2|8|2,0:1|0:0|0:1,0:0:0:0:
312,168,40074,1,8,0:0:0:0:
256,192,40427,12,2,44662,0:0:0:0:
120,76,46074,6,0,B|172:75|208:88|208:88|296:64|296:64|332:73|388:76,1,270,6|10,0:1|0:0,0:0:0:0:
465,115,47486,2,0,P|471:168|480:211,2,89.9999999999999,2|10|0,0:1|0:0|0:1,0:0:0:0:
459,24,48545,1,8,0:0:0:0:
384,76,48897,6,0,P|377:120|378:165,1,89.9999999999999,2|10,0:0|0:0,0:0:0:0:
405,250,49603,2,0,P|429:287|461:320,1,89.9999999999999,2|10,0:0|0:0,0:0:0:0:
386,370,50309,2,0,L|296:367,1,89.9999999999999,2|8,0:1|0:0,0:0:0:0:
228,307,51015,2,0,B|184:300|184:300|130:308,1,89.9999999999999,2|10,0:0|0:0,0:0:0:0:
61,260,51721,6,0,P|57:206|60:160,1,89.9999999999999,2|8,0:1|0:0,0:0:0:0:
124,108,52427,2,0,B|197:96|345:137|345:137|299:187|223:213,1,360,0|0,0:0|0:0,0:0:0:0:
152,252,54192,1,10,0:0:0:0:
203,326,54545,6,0,P|253:330|296:327,1,89.9999999999999,2|8,0:1|0:0,0:0:0:0:
380,306,55250,2,0,P|477:187|480:72,1,270,0|8,0:0|0:0,0:0:0:0:
391,64,56662,2,0,P|361:68|287:67,1,89.9999999999999,2|10,0:0|0:0,0:0:0:0:
211,59,57368,6,0,P|146:77|178:247,1,270,6|10,0:1|0:0,0:0:0:0:
241,288,58780,2,0,P|284:295|329:295,1,89.9999999999999,2|10,0:0|0:0,0:0:0:0:
415,270,59486,2,0,P|452:246|485:215,1,89.9999999999999,2|10,0:0|0:0,0:0:0:0:
484,125,60192,6,0,B|491:77|491:77|486:28,2,89.9999999999999,2|8|0,0:1|0:0|0:0,0:0:0:0:
405,168,61250,1,10,0:0:0:0:
325,125,61603,2,0,P|277:121|229:129,1,89.9999999999999,2|8,0:1|0:0,0:0:0:0:
192,206,62309,2,0,P|144:210|96:202,1,89.9999999999999,2|8,0:0|0:0,0:0:0:0:
13,191,63015,6,0,L|11:281,1,89.9999999999999,2|8,0:1|0:0,0:0:0:0:
82,336,63721,2,0,B|234:283|204:370|345:317,1,270,0|8,0:0|0:0,0:0:0:0:
391,239,65133,2,0,P|396:180|394:136,1,89.9999999999999,2|10,0:0|0:0,0:0:0:0:
331,85,65839,6,0,L|235:92,1,89.9999999999999,2|2,0:1|0:1,0:0:0:0:
155,61,66545,2,0,L|59:68,1,89.9999999999999,2|2,0:1|0:1,0:0:0:0:
18,144,67250,2,0,B|13:195|13:195|17:239,1,89.9999999999999,2|2,0:1|0:1,0:0:0:0:
105,221,67956,2,0,B|110:272|110:272|106:316,1,89.9999999999999,4|4,0:3|0:3,0:0:0:0:
195,326,68662,6,0,B|246:337|280:308|280:308|368:328|368:328|415:309|459:309,1,270,2|0,0:0|0:0,0:0:0:0:
418,226,70074,2,0,P|313:156|221:240,1,270,2|0,0:0|0:0,0:0:0:0:
195,326,71486,5,2,0:1:0:0:
107,307,71839,1,0,0:0:0:0:
55,233,72192,2,0,B|55:193|55:193|57:185|57:185|57:125,1,89.9999999999999,8|0,0:0|0:0,0:0:0:0:
122,81,72897,2,0,B|207:58|300:56|300:56|342:81|401:82,1,270,2|0,0:1|0:0,0:0:0:0:
452,141,74309,6,0,B|466:186|447:319|447:319|402:314|372:271,1,270,2|0,0:0|0:0,0:0:0:0:
299,219,75721,2,0,B|161:202|177:245|30:220,1,270,2|2,0:0|0:0,0:0:0:0:
17,131,77133,6,0,B|16:91|16:91|36:41,1,89.9999999999999,2|10,0:1|0:0,0:0:0:0:
123,27,77839,2,0,B|124:67|124:67|105:113,1,89.9999999999999,2|10,0:1|0:0,0:0:0:0:
166,179,78545,2,0,L|259:175,2,89.9999999999999,2|2|10,0:1|0:1|0:0,0:0:0:0:
105,246,79603,1,2,0:1:0:0:
175,301,79956,6,0,B|244:269|312:268|312:268|375:289|441:284,1,270,6|0,0:0|0:0,0:0:0:0:
476,202,81368,2,0,B|472:124|419:48|419:48|351:77|365:142,1,270,2|0,0:0|0:0,0:0:0:0:
365,216,82780,5,2,0:1:0:0:
280,246,83133,1,0,0:0:0:0:
194,217,83486,2,0,B|154:217|154:217|146:219|146:219|86:219,1,89.9999999999999,8|0,0:0|0:0,0:0:0:0:
44,151,84192,2,0,B|83:130|83:130|128:130,1,89.9999999999999,2|2,0:1|0:0,0:0:0:0:
218,130,84897,2,0,B|257:151|257:151|302:151,1,89.9999999999999,8|0,0:0|0:0,0:0:0:0:
392,155,85603,6,0,P|434:150|398:54,1,180,2|8,0:1|0:0,0:0:0:0:
316,59,86662,1,2,0:0:0:0:
303,151,87015,2,0,B|271:153|236:150|236:150|172:166|172:166|104:150|104:150|73:153|36:150,1,270,2|2,0:0|0:0,0:0:0:0:
8,236,88427,6,0,B|5:282|5:282|18:333,1,89.9999999999999,2|2,0:1|0:1,0:0:0:0:
105,336,89133,2,0,B|111:336|121:328|127:324|136:326|141:321|149:320|155:323|163:325|169:328|177:328|187:328|193:336,1,89.9999999999999,2|2,0:0|0:0,0:0:0:0:
276,303,89839,2,0,B|279:264|279:264|274:213,1,89.9999999999999,2|2,0:1|0:1,0:0:0:0:
186,226,90545,2,0,B|182:187|182:187|187:136,1,89.9999999999999,4|4,0:3|0:3,0:0:0:0:
249,71,91250,6,0,P|297:75|347:71,2,89.9999999999999,6|2|2,0:1|0:1|0:1,0:0:0:0:
160,52,92309,1,2,0:1:0:0:
98,117,92662,2,0,P|50:113|0:117,2,89.9999999999999,2|2|2,0:1|0:1|0:1,0:0:0:0:
187,136,93721,1,2,0:1:0:0:
258,190,94074,6,0,L|351:186,1,89.9999999999999,2|2,0:1|0:1,0:0:0:0:
421,132,94780,2,0,P|465:130|510:136,1,89.9999999999999,2|2,0:1|0:1,0:0:0:0:
512,46,95486,2,0,B|467:39|467:39|422:42,1,89.9999999999999,2|2,0:1|0:1,0:0:0:0:
342,84,96192,1,2,0:1:0:0:
262,42,96545,1,2,0:1:0:0:
182,84,96897,6,0,B|134:79|134:79|92:84|92:84|29:78,2,135,2|2|2,0:1|0:0|0:1,0:0:0:0:
214,168,98309,2,0,B|257:180|303:185|303:185|339:176|364:163,2,135,2|2|2,0:1|0:0|0:1,0:0:0:0:
124,155,99721,6,0,B|106:193|104:226|104:226|121:254|117:302,2,135,2|2|2,0:1|0:0|0:1,0:0:0:0:
182,84,101133,2,0,B|219:79|219:79|248:82|270:88,1,89.9999999999999,2|2,0:1|0:1,0:0:0:0:
341,144,101839,1,2,0:1:0:0:
426,117,102192,1,2,0:1:0:0:
496,172,102545,6,0,B|474:278|512:249|503:349,1,180,6|2,0:1|0:1,0:0:0:0:
413,337,103603,1,2,0:1:0:0:
353,269,103956,2,0,P|279:247|182:286,1,180,2|2,0:1|0:1,0:0:0:0:
123,346,105015,1,2,0:1:0:0:
59,282,105368,6,0,B|23:189|81:112|81:112|122:123|138:185,1,270,2|2,0:1|0:1,0:0:0:0:
198,243,106780,2,0,P|245:244|295:236,1,89.9999999999999,2|2,0:1|0:1,0:0:0:0:
310,150,107486,2,0,B|268:150|268:150|263:149|263:149|213:157,1,89.9999999999999,2|2,0:1|0:1,0:0:0:0:
136,178,108192,6,0,B|68:174|23:138|3:75|3:75|266:-5|210:96|460:44,1,629.999999999999,6|2,0:1|0:1,0:0:0:0:
501,117,111015,6,0,B|513:208|513:208|488:308,1,180,4|4,3:1|3:1,0:0:0:0:
315,332,112427,2,0,B|269:328|269:328|227:315,1,89.9999999999999,4|4,3:1|3:1,0:0:0:0:
227,224,113133,2,0,B|269:210|269:210|314:207,1,89.9999999999999,4|4,3:1|3:1,0:0:0:0:
403,199,113839,5,6,0:1:0:0:
373,113,114192,2,0,B|282:105,1,89.9999999999999,2|6,0:1|0:1,0:0:0:0:
216,44,114897,2,0,B|125:36,1,89.9999999999999,2|6,0:1|0:1,0:0:0:0:
62,99,115603,2,0,B|61:145|61:145|72:187,1,89.9999999999999,2|6,0:1|0:1,0:0:0:0:
96,273,116309,1,6,0:1:0:0:
120,359,116662,5,6,0:1:0:0:
194,309,117015,2,0,B|285:301,1,89.9999999999999,2|6,0:1|0:1,0:0:0:0:
351,240,117721,2,0,B|440:232,1,89.9999999999999,2|6,0:1|0:1,0:0:0:0:
489,155,118427,1,2,0:1:0:0:
440,80,118780,1,6,0:1:0:0:
