osu file format v14

[General]
AudioFilename: audio.mp3
AudioLeadIn: 0
PreviewTime: 27616
Countdown: 0
SampleSet: Soft
StackLeniency: 0.6
Mode: 0
LetterboxInBreaks: 0
WidescreenStoryboard: 1

[Editor]
Bookmarks: 44347,59116,81270,88665,118193,177270
DistanceSpacing: 1.5
BeatDivisor: 2
GridSize: 4
TimelineZoom: 2.6

[Metadata]
Title:Whispers From The Sea
TitleUnicode:Whispers From The Sea
Artist:Electus
ArtistUnicode:Electus
Creator:deetz
Version:normal
Source:
Tags:chillstep future bass dubstep
BeatmapID:938117
BeatmapSetID:434334

[Difficulty]
HPDrainRate:2
CircleSize:2
OverallDifficulty:3
ApproachRate:3
SliderMultiplier:1
SliderTickRate:1

[Events]
//Background and Video events
0,0,"47790113_p0.png",0,0
//Break Periods
2,88854,90907
//Storyboard Layer 0 (Background)
//Storyboard Layer 1 (Fail)
//Storyboard Layer 2 (Pass)
//Storyboard Layer 3 (Foreground)
//Storyboard Sound Samples

[TimingPoints]
40,461.538461538462,4,2,2,40,1,0
36501,-100,4,2,3,40,0,0
36732,-100,4,2,2,40,0,0
40193,-100,4,2,6,40,0,0
40347,-100,4,2,7,40,0,0
40501,-100,4,2,8,40,0,0
40655,-100,4,2,2,40,0,1
41463,-100,4,2,3,40,0,1
41693,-100,4,2,4,40,0,1
41924,-100,4,2,2,40,0,1
43424,-100,4,2,2,40,0,0
43886,-100,4,2,10,40,0,0
44347,-100,4,2,2,40,0,0
51270,-100,4,2,3,40,0,0
51501,-100,4,2,2,40,0,0
54963,-100,4,2,6,40,0,0
55116,-100,4,2,7,40,0,0
55270,-100,4,2,8,40,0,0
55424,-100,4,2,2,40,0,1
56232,-100,4,2,3,40,0,1
56463,-100,4,2,4,40,0,1
56693,-100,4,2,2,40,0,1
57270,-100,4,2,2,40,0,0
66040,-100,4,2,3,40,0,0
66270,-100,4,2,2,40,0,0
69732,-100,4,2,6,40,0,0
69886,-100,4,2,7,40,0,0
70040,-100,4,2,8,40,0,0
70193,-100,4,2,2,40,0,1
71001,-100,4,2,3,40,0,1
71232,-100,4,2,4,40,0,1
71463,-100,4,2,2,40,0,1
72963,-100,4,2,2,40,0,0
73424,-100,4,2,10,40,0,0
73886,-100,4,2,2,40,0,0
80809,-100,4,2,3,40,0,0
81040,-100,4,2,2,40,0,0
84501,-100,4,2,6,40,0,0
84655,-100,4,2,7,40,0,0
84809,-100,4,2,8,40,0,0
84963,-100,4,2,2,40,0,1
85770,-100,4,2,3,40,0,1
86001,-100,4,2,4,40,0,1
86232,-100,4,2,2,40,0,1
86809,-100,4,2,2,40,0,0
87732,-100,4,2,51,40,0,0
88193,-100,4,2,54,40,0,0
88655,-100,4,2,2,40,0,0
92347,-100,4,2,2,10,0,0
96040,-100,4,2,2,15,0,0
99732,-100,4,2,2,20,0,0
103424,-100,4,2,2,25,0,0
107116,-100,4,2,2,30,0,0
110809,-100,4,2,2,35,0,0
112655,-100,4,2,2,40,0,0
125116,-100,4,2,3,40,0,0
125347,-100,4,2,2,40,0,0
128809,-100,4,2,6,40,0,0
128963,-100,4,2,7,40,0,0
129116,-100,4,2,8,40,0,0
129270,-100,4,2,2,40,0,1
130078,-100,4,2,3,40,0,1
130309,-100,4,2,4,40,0,1
130540,-100,4,2,2,40,0,1
132040,-100,4,2,2,40,0,0
139886,-100,4,2,3,40,0,0
140116,-100,4,2,2,40,0,0
143578,-100,4,2,6,40,0,0
143732,-100,4,2,7,40,0,0
143886,-100,4,2,8,40,0,0
144040,-100,4,2,2,40,0,1
144847,-100,4,2,3,40,0,1
145078,-100,4,2,4,40,0,1
145309,-100,4,2,2,40,0,1
145886,-100,4,2,2,40,0,0
146809,-100,4,2,51,40,0,0
147270,-100,4,2,54,40,0,0
147732,-100,4,2,2,40,0,0
154655,-100,4,2,3,40,0,0
154886,-100,4,2,2,40,0,0
158347,-100,4,2,6,40,0,0
158501,-100,4,2,7,40,0,0
158655,-100,4,2,8,40,0,0
158809,-100,4,2,2,40,0,1
159616,-100,4,2,3,40,0,1
159847,-100,4,2,4,40,0,1
160078,-100,4,2,2,40,0,1
161578,-100,4,2,2,40,0,0
169424,-100,4,2,3,40,0,0
169655,-100,4,2,2,40,0,0
173116,-100,4,2,6,40,0,0
173270,-100,4,2,7,40,0,0
173424,-100,4,2,8,40,0,0
173578,-100,4,2,2,40,0,1
174386,-100,4,2,3,40,0,1
174616,-100,4,2,4,40,0,1
174847,-100,4,2,2,40,0,1
175424,-100,4,2,2,40,0,0
176347,-100,4,2,51,40,0,0
176809,-100,4,2,54,40,0,0
177270,-100,4,2,2,40,0,0

[Colours]
Combo1 : 255,94,55
Combo2 : 173,255,95
Combo3 : 17,254,176
Combo4 : 255,88,100

[HitObjects]
274,227,27732,5,0,0:0:0:0:
274,227,29578,6,0,P|312:220|374:225,2,100,4|4|8,0:0|0:0|0:0,0:0:0:0:
156,134,30963,2,0,L|147:78,2,50,4|0|0,0:0|0:0|0:0,0:0:0:0:
116,278,31886,1,4,0:0:0:0:
263,254,32347,1,8,0:0:0:0:
402,309,32809,2,0,P|408:283|410:252,1,50,0|0,0:0|0:0,0:0:0:0:
469,213,33270,6,0,P|404:202|350:123,1,150,4|4,0:0|0:0,0:0:0:0:
371,66,34193,1,8,0:0:0:0:
235,130,34655,2,0,P|247:171|245:231,1,100,4|0,0:0|0:0,0:0:0:0:
115,302,35578,1,4,0:0:0:0:
250,366,36040,1,8,0:0:0:0:
377,287,36501,2,0,L|381:235,1,50,2|0,0:0|0:0,0:0:0:0:
407,166,36963,6,0,P|368:173|262:151,1,150,4|4,0:0|0:0,0:0:0:0:
224,85,37886,1,8,0:0:0:0:
126,199,38347,2,0,P|90:179|24:166,2,100,4|0|4,0:0|0:0|0:0,0:0:0:0:
147,347,39732,2,0,P|195:337|240:314,1,100,8|2,0:0|0:0,0:0:0:0:
383,357,40655,6,0,P|370:320|394:205,1,150,4|4,0:0|0:0,0:0:0:0:
446,165,41578,1,2,0:0:0:0:
318,85,42040,2,0,B|196:97|258:33|120:50,1,200,4|4,0:0|0:0,0:0:0:0:
33,166,43424,2,0,P|28:227|35:270,1,100,8|2,0:0|0:0,0:0:0:0:
165,337,44347,6,0,P|203:344|265:339,2,100,4|4|8,0:0|0:0|0:0,0:0:0:0:
205,192,45732,2,0,P|229:189|254:193,2,50,4|0|0,0:0|0:0|0:0,0:0:0:0:
60,232,46655,1,4,0:0:0:0:
165,339,47116,1,8,0:0:0:0:
310,303,47578,2,0,P|315:278|318:253,1,50,0|0,0:0|0:0,0:0:0:0:
376,206,48040,6,0,P|336:131|351:58,1,150,4|4,0:0|0:0,0:0:0:0:
410,31,48963,1,8,0:0:0:0:
481,162,49424,2,0,P|489:210|472:262,1,100,4|0,0:0|0:0,0:0:0:0:
336,319,50347,1,4,0:0:0:0:
236,206,50809,1,8,0:0:0:0:
100,269,51270,2,0,L|84:221,1,50,2|0,0:0|0:0,0:0:0:0:
27,171,51732,6,0,P|96:154|172:89,1,150,4|4,0:0|0:0,0:0:0:0:
189,38,52655,1,8,0:0:0:0:
275,160,53116,2,0,P|323:169|368:192,2,100,4|0|4,0:0|0:0|0:0,0:0:0:0:
252,308,54501,2,0,P|207:331|158:340,1,100,8|2,0:0|0:0,0:0:0:0:
19,284,55424,6,0,P|6:247|30:132,1,150,4|4,0:0|0:0,0:0:0:0:
87,100,56347,1,2,0:0:0:0:
219,169,56809,2,0,L|328:158,1,100,4|4,0:0|0:0,0:0:0:0:
318,158,59116,6,0,P|312:207|320:256,2,100,4|4|8,0:0|0:0|0:0,0:0:0:0:
459,106,60501,2,0,P|456:80|450:50,2,50,4|0|0,0:0|0:0|0:0,0:0:0:0:
433,253,61424,1,4,0:0:0:0:
318,158,61886,1,8,0:0:0:0:
187,232,62347,2,0,P|184:256|178:281,1,50,0|0,0:0|0:0,0:0:0:0:
245,316,62809,6,0,P|300:300|411:323,1,150,4|4,0:0|0:0,0:0:0:0:
448,360,63732,1,8,0:0:0:0:
501,219,64193,2,0,P|503:169|490:121,1,100,4|0,0:0|0:0,0:0:0:0:
340,126,65116,1,4,0:0:0:0:
234,232,65578,1,8,0:0:0:0:
95,175,66040,2,0,L|91:224,1,50,2|0,0:0|0:0,0:0:0:0:
105,298,66501,6,0,P|181:313|244:351,1,150,4|4,0:0|0:0,0:0:0:0:
312,323,67424,1,8,0:0:0:0:
273,178,67886,2,0,P|282:129|305:84,2,100,4|0|4,0:0|0:0|0:0,0:0:0:0:
126,209,69270,2,0,P|81:232|32:241,1,100,8|2,0:0|0:0,0:0:0:0:
137,350,70193,6,0,P|165:312|258:274,1,150,4|4,0:0|0:0,0:0:0:0:
328,299,71116,1,2,0:0:0:0:
409,172,71578,2,0,B|287:184|349:120|211:137,1,200,4|4,0:0|0:0,0:0:0:0:
75,89,72963,2,0,P|70:150|77:193,1,100,8|2,0:0|0:0,0:0:0:0:
127,329,73886,6,0,P|77:334|28:326,2,100,4|4|8,0:0|0:0|0:0,0:0:0:0:
237,227,75270,2,0,P|261:224|286:228,2,50,4|0|0,0:0|0:0|0:0,0:0:0:0:
93,182,76193,1,4,0:0:0:0:
127,329,76655,1,8,0:0:0:0:
271,370,77116,2,0,P|276:345|279:320,1,50,0|0,0:0|0:0,0:0:0:0:
226,266,77578,6,0,P|228:219|192:102,1,150,4|4,0:0|0:0,0:0:0:0:
148,67,78501,1,8,0:0:0:0:
34,165,78963,2,0,P|30:214|46:271,1,100,4|0,0:0|0:0,0:0:0:0:
167,345,79886,1,4,0:0:0:0:
289,258,80347,1,8,0:0:0:0:
422,325,80809,2,0,L|434:274,1,50,2|0,0:0|0:0,0:0:0:0:
473,212,81270,6,0,P|404:195|328:130,1,150,4|4,0:0|0:0,0:0:0:0:
311,79,82193,1,8,0:0:0:0:
202,182,82655,2,0,P|157:159|108:149,2,100,4|0|4,0:0|0:0|0:0,0:0:0:0:
256,322,84040,2,0,P|304:312|349:290,1,100,8|2,0:0|0:0,0:0:0:0:
485,349,84963,6,0,P|498:312|474:197,1,150,4|4,0:0|0:0,0:0:0:0:
447,137,85886,2,0,P|398:129|331:127,2,100,2|4|4,0:0|0:0|0:0,0:0:0:0:
216,329,87732,5,8,0:0:0:0:
126,209,88193,2,0,P|112:273|91:315,1,100,8|2,0:0|0:0,0:0:0:0:
83,298,92347,6,0,P|134:279|277:337,1,200,2|0,0:0|0:0,0:0:0:0:
484,118,94193,2,0,P|387:98|300:143,2,200,0|0|2,0:0|0:0|0:0,0:0:0:0:
288,345,96963,5,0,0:0:0:0:
58,151,97886,2,0,P|42:200|143:341,1,200,0|0,0:0|0:0,0:0:0:0:
407,325,99732,2,0,P|466:247|454:151,2,200,0|0|0,0:0|0:0|0:0,0:0:0:0:
255,66,102501,1,0,0:0:0:0:
113,330,103424,6,0,P|97:283|108:173,1,150,2|0,0:0|0:0,0:0:0:0:
151,126,104347,1,0,0:0:0:0:
404,286,105270,6,0,P|289:279|235:351,2,200,0|0|2,0:0|0:0|0:0,0:0:0:0:
153,119,108040,1,0,0:0:0:0:
446,58,108963,2,0,P|440:129|356:190,1,150,0|0,0:0|0:0,0:0:0:0:
311,173,109886,1,0,0:0:0:0:
50,321,110809,6,0,P|110:288|238:366,1,200,2|0,0:0|0:0,0:0:0:0:
499,218,112655,2,0,P|439:251|311:173,1,200,0|0,0:0|0:0,0:0:0:0:
256,192,114501,12,0,116347,0:0:0:0:
132,271,118193,6,0,P|82:276|33:268,2,100,4|4|8,0:0|0:0|0:0,0:0:0:0:
226,154,119578,2,0,L|217:98,2,50,4|0|0,0:0|0:0|0:0,0:0:0:0:
307,280,120501,1,4,0:0:0:0:
433,200,120963,1,8,0:0:0:0:
354,72,121424,2,0,P|351:96|345:121,1,50,0|0,0:0|0:0,0:0:0:0:
307,185,121886,6,0,P|245:153|152:153,1,150,4|4,0:0|0:0,0:0:0:0:
106,194,122809,1,8,0:0:0:0:
43,330,123270,2,0,P|91:317|140:319,1,100,4|0,0:0|0:0,0:0:0:0:
281,266,124193,1,4,0:0:0:0:
415,333,124655,1,8,0:0:0:0:
446,186,125116,2,0,L|450:134,1,50,2|0,0:0|0:0,0:0:0:0:
379,108,125578,6,0,P|340:115|234:93,1,150,4|4,0:0|0:0,0:0:0:0:
173,47,126501,1,8,0:0:0:0:
153,195,126963,2,0,P|201:204|246:227,2,100,4|0|4,0:0|0:0|0:0,0:0:0:0:
11,245,128347,2,0,P|38:286|53:333,1,100,8|2,0:0|0:0,0:0:0:0:
203,346,129270,6,0,P|252:332|359:351,1,150,4|4,0:0|0:0,0:0:0:0:
417,315,130193,1,2,0:0:0:0:
351,180,130655,2,0,B|229:192|291:128|153:145,1,200,4|4,0:0|0:0,0:0:0:0:
115,287,132040,2,0,P|176:292|219:285,1,100,0|0,0:0|0:0,0:0:0:0:
351,226,132963,6,0,P|389:233|451:228,2,100,4|4|8,0:0|0:0|0:0,0:0:0:0:
214,163,134347,2,0,P|189:158|164:161,2,50,4|0|0,0:0|0:0|0:0,0:0:0:0:
217,313,135270,1,4,0:0:0:0:
75,264,135732,1,8,0:0:0:0:
43,117,136193,2,0,P|69:105|97:103,1,50,0|0,0:0|0:0,0:0:0:0:
131,40,136655,6,0,P|206:80|279:65,1,150,4|4,0:0|0:0,0:0:0:0:
335,38,137578,1,8,0:0:0:0:
427,156,138040,2,0,P|435:204|418:256,1,100,4|0,0:0|0:0,0:0:0:0:
289,326,138963,1,4,0:0:0:0:
215,194,139424,1,8,0:0:0:0:
76,252,139886,2,0,L|60:204,1,50,2|0,0:0|0:0,0:0:0:0:
15,144,140347,6,0,P|86:139|168:97,1,150,4|4,0:0|0:0,0:0:0:0:
189,38,141270,1,8,0:0:0:0:
279,157,141732,2,0,P|327:148|372:125,2,100,4|0|4,0:0|0:0|0:0,0:0:0:0:
237,301,143116,2,0,P|192:278|143:269,1,100,8|2,0:0|0:0,0:0:0:0:
23,178,144040,6,0,P|79:153|176:142,1,150,4|4,0:0|0:0,0:0:0:0:
228,182,144963,1,2,0:0:0:0:
366,123,145424,2,0,P|377:171|371:220,1,100,4|4,0:0|0:0,0:0:0:0:
74,265,146809,5,8,0:0:0:0:
178,157,147270,1,8,0:0:0:0:
256,284,147732,6,0,P|305:290|354:282,2,100,4|4|8,0:0|0:0|0:0,0:0:0:0:
114,333,149116,2,0,P|85:322|43:315,2,50,4|0|0,0:0|0:0|0:0,0:0:0:0:
146,186,150040,1,4,0:0:0:0:
269,270,150501,1,8,0:0:0:0:
393,185,150963,2,0,P|393:210|398:237,1,50,0|0,0:0|0:0,0:0:0:0:
465,267,151424,6,0,P|424:320|347:360,1,150,4|4,0:0|0:0,0:0:0:0:
278,370,152347,1,8,0:0:0:0:
148,294,152809,2,0,P|146:244|159:196,1,100,4|0,0:0|0:0,0:0:0:0:
69,75,153732,1,4,0:0:0:0:
218,83,154193,1,8,0:0:0:0:
367,69,154655,2,0,L|363:118,1,50,2|0,0:0|0:0,0:0:0:0:
389,189,155116,6,0,P|313:204|250:242,1,150,4|4,0:0|0:0,0:0:0:0:
216,307,156040,1,8,0:0:0:0:
90,224,156501,2,0,P|81:175|58:130,2,100,4|0|4,0:0|0:0|0:0,0:0:0:0:
216,307,157886,2,0,P|264:297|309:275,1,100,8|2,0:0|0:0,0:0:0:0:
434,192,158809,6,0,P|362:170|313:116,1,150,4|4,0:0|0:0,0:0:0:0:
311,40,159732,1,2,0:0:0:0:
210,151,160193,2,0,B|88:163|150:99|12:116,1,200,4|4,0:0|0:0,0:0:0:0:
104,237,161578,2,0,P|109:298|102:341,1,100,8|0,0:0|0:0,0:0:0:0:
253,333,162501,6,0,P|302:340|351:335,2,100,4|4|8,0:0|0:0|0:0,0:0:0:0:
334,206,163886,2,0,P|358:203|383:207,2,50,4|0|0,0:0|0:0|0:0,0:0:0:0:
224,103,164809,1,4,0:0:0:0:
110,201,165270,1,8,0:0:0:0:
239,276,165732,2,0,P|235:300|231:325,1,50,0|0,0:0|0:0,0:0:0:0:
171,372,166193,6,0,P|88:369|25:348,1,150,4|4,0:0|0:0,0:0:0:0:
7,275,167116,1,8,0:0:0:0:
115,171,167578,2,0,P|127:122|123:73,1,100,4|0,0:0|0:0,0:0:0:0:
271,47,168501,1,4,0:0:0:0:
265,197,168963,1,8,0:0:0:0:
402,136,169424,2,0,L|409:189,1,50,2|0,0:0|0:0,0:0:0:0:
475,220,169886,6,0,P|411:259|358:334,1,150,4|4,0:0|0:0,0:0:0:0:
305,362,170809,1,8,0:0:0:0:
196,258,171270,2,0,P|151:235|102:225,2,100,4|0|4,0:0|0:0|0:0,0:0:0:0:
293,144,172655,2,0,P|341:134|386:112,1,100,8|2,0:0|0:0,0:0:0:0:
495,214,173578,6,0,P|516:285|500:357,1,150,4|4,0:0|0:0,0:0:0:0:
425,349,174501,2,0,P|376:341|309:339,2,100,2|4|4,0:0|0:0|0:0,0:0:0:0:
457,50,176347,5,8,0:0:0:0:
363,167,176809,2,0,P|420:180|493:212,1,100,8|2,0:0|0:0,0:0:0:0:
