osu file format v14

[General]
AudioFilename: audio.mp3
AudioLeadIn: 0
PreviewTime: 27616
Countdown: 0
SampleSet: Soft
StackLeniency: 0.6
Mode: 0
LetterboxInBreaks: 0
WidescreenStoryboard: 1

[Editor]
Bookmarks: 44347,59116,81270,88665,118193,177270
DistanceSpacing: 1.4
BeatDivisor: 4
GridSize: 4
TimelineZoom: 2.6

[Metadata]
Title:Whispers From The Sea
TitleUnicode:Whispers From The Sea
Artist:Electus
ArtistUnicode:Electus
Creator:deetz
Version:advanced
Source:
Tags:chillstep future bass dubstep
BeatmapID:938115
BeatmapSetID:434334

[Difficulty]
HPDrainRate:3
CircleSize:2.3
OverallDifficulty:4.5
ApproachRate:5
SliderMultiplier:1.3
SliderTickRate:1

[Events]
//Background and Video events
0,0,"47790113_p0.png",0,0
//Break Periods
2,88854,91147
//Storyboard Layer 0 (Background)
//Storyboard Layer 1 (Fail)
//Storyboard Layer 2 (Pass)
//Storyboard Layer 3 (Foreground)
//Storyboard Sound Samples

[TimingPoints]
40,461.538461538462,4,2,2,40,1,0
36501,-100,4,2,3,40,0,0
36732,-100,4,2,2,40,0,0
40193,-100,4,2,6,40,0,0
40347,-100,4,2,7,40,0,0
40501,-100,4,2,8,40,0,0
40655,-100,4,2,2,40,0,1
41463,-100,4,2,3,40,0,1
41693,-100,4,2,4,40,0,1
41924,-100,4,2,2,40,0,1
43424,-100,4,2,2,40,0,0
43886,-100,4,2,10,40,0,0
44347,-100,4,2,2,40,0,0
51270,-100,4,2,3,40,0,0
51501,-100,4,2,2,40,0,0
54963,-100,4,2,6,40,0,0
55116,-100,4,2,7,40,0,0
55270,-100,4,2,8,40,0,0
55424,-100,4,2,2,40,0,1
56232,-100,4,2,3,40,0,1
56463,-100,4,2,4,40,0,1
56693,-100,4,2,2,40,0,1
57270,-100,4,2,2,40,0,0
66040,-100,4,2,3,40,0,0
66270,-100,4,2,2,40,0,0
69732,-100,4,2,6,40,0,0
69886,-100,4,2,7,40,0,0
70040,-100,4,2,8,40,0,0
70193,-100,4,2,2,40,0,1
71001,-100,4,2,3,40,0,1
71232,-100,4,2,4,40,0,1
71463,-100,4,2,2,40,0,1
72963,-100,4,2,2,40,0,0
73424,-100,4,2,10,40,0,0
73886,-100,4,2,2,40,0,0
80809,-100,4,2,3,40,0,0
81040,-100,4,2,2,40,0,0
84501,-100,4,2,6,40,0,0
84655,-100,4,2,7,40,0,0
84809,-100,4,2,8,40,0,0
84963,-100,4,2,2,40,0,1
85770,-100,4,2,3,40,0,1
86001,-100,4,2,4,40,0,1
86232,-100,4,2,2,40,0,1
86809,-100,4,2,2,40,0,0
87732,-100,4,2,51,40,0,0
88193,-100,4,2,54,40,0,0
88655,-100,4,2,2,40,0,0
92347,-100,4,2,2,10,0,0
96040,-100,4,2,2,15,0,0
99732,-100,4,2,2,20,0,0
103424,-100,4,2,2,25,0,0
107116,-100,4,2,2,30,0,0
110809,-100,4,2,2,35,0,0
112655,-100,4,2,2,40,0,0
125116,-100,4,2,3,40,0,0
125347,-100,4,2,2,40,0,0
128809,-100,4,2,6,40,0,0
128963,-100,4,2,7,40,0,0
129116,-100,4,2,8,40,0,0
129270,-100,4,2,2,40,0,1
130078,-100,4,2,3,40,0,1
130309,-100,4,2,4,40,0,1
130540,-100,4,2,2,40,0,1
132040,-100,4,2,2,40,0,0
139886,-100,4,2,3,40,0,0
140116,-100,4,2,2,40,0,0
143578,-100,4,2,6,40,0,0
143732,-100,4,2,7,40,0,0
143886,-100,4,2,8,40,0,0
144040,-100,4,2,2,40,0,1
144847,-100,4,2,3,40,0,1
145078,-100,4,2,4,40,0,1
145309,-100,4,2,2,40,0,1
145886,-100,4,2,2,40,0,0
146809,-100,4,2,51,40,0,0
147270,-100,4,2,54,40,0,0
147732,-100,4,2,2,40,0,0
154655,-100,4,2,3,40,0,0
154886,-100,4,2,2,40,0,0
158347,-100,4,2,6,40,0,0
158501,-100,4,2,7,40,0,0
158655,-100,4,2,8,40,0,0
158809,-100,4,2,2,40,0,1
159616,-100,4,2,3,40,0,1
159847,-100,4,2,4,40,0,1
160078,-100,4,2,2,40,0,1
161578,-100,4,2,2,40,0,0
169424,-100,4,2,3,40,0,0
169655,-100,4,2,2,40,0,0
173116,-100,4,2,6,40,0,0
173270,-100,4,2,7,40,0,0
173424,-100,4,2,8,40,0,0
173578,-100,4,2,2,40,0,1
174386,-100,4,2,3,40,0,1
174616,-100,4,2,4,40,0,1
174847,-100,4,2,2,40,0,1
175424,-100,4,2,2,40,0,0
176347,-100,4,2,51,40,0,0
176809,-100,4,2,54,40,0,0
177270,-100,4,2,2,40,0,0

[Colours]
Combo1 : 255,94,55
Combo2 : 173,255,95
Combo3 : 17,254,176
Combo4 : 255,88,100

[HitObjects]
205,261,27732,5,0,0:0:0:0:
205,261,29578,6,0,P|256:252|338:280,2,130,4|4|8,0:0|0:0|0:0,0:0:0:0:
48,354,30963,6,0,L|38:286,1,65,4|0,0:0|0:0,0:0:0:0:
103,225,31424,2,0,L|113:157,1,65,0|0,0:0|0:0,0:0:0:0:
42,101,31886,2,0,L|32:33,2,65,4|0|8,0:0|0:0|0:0,0:0:0:0:
223,80,32809,1,0,0:0:0:0:
244,260,33270,6,0,P|279:249|429:315,1,195,4|4,0:0|0:0,0:0:0:0:
501,260,34193,1,8,0:0:0:0:
347,162,34655,2,0,P|309:157|277:162,1,65,4|0,0:0|0:0,0:0:0:0:
194,182,35116,2,0,P|158:154|58:154,1,130,0|4,0:0|0:0,0:0:0:0:
21,321,36040,1,8,0:0:0:0:
21,321,36501,5,2,0:0:0:0:
101,278,36732,1,0,0:0:0:0:
183,317,36963,2,0,P|258:363|376:314,1,195,4|4,0:0|0:0,0:0:0:0:
394,253,37886,1,8,0:0:0:0:
394,253,38347,6,0,L|322:236,1,65,4|0,0:0|0:0,0:0:0:0:
248,198,38809,2,0,L|176:215,1,65,0|0,0:0|0:0,0:0:0:0:
140,292,39270,2,0,L|68:275,2,65,4|0|8,0:0|0:0|0:0,0:0:0:0:
94,115,40193,1,2,0:0:0:0:
276,117,40655,5,4,0:0:0:0:
276,117,40886,2,0,P|298:164|282:260,1,130,4|4,0:0|0:0,0:0:0:0:
339,317,41578,2,0,L|415:305,1,65,2|0,0:0|0:0,0:0:0:0:
480,257,42040,6,0,P|469:198|461:128,2,130,4|0|4,0:0|0:0|0:0,0:0:0:0:
403,306,43193,1,0,0:0:0:0:
312,295,43424,1,8,0:0:0:0:
193,156,43886,1,2,0:0:0:0:
105,315,44347,6,0,P|161:264|220:264,2,130,4|4|8,0:0|0:0|0:0,0:0:0:0:
50,141,45732,6,0,L|122:160,1,65,4|0,0:0|0:0,0:0:0:0:
196,121,46193,2,0,L|268:102,1,65,0|0,0:0|0:0,0:0:0:0:
295,188,46655,2,0,L|367:207,2,65,4|0|8,0:0|0:0|0:0,0:0:0:0:
431,67,47578,1,0,0:0:0:0:
473,244,48040,6,0,P|394:254|327:357,1,195,4|4,0:0|0:0,0:0:0:0:
238,356,48963,1,8,0:0:0:0:
96,241,49424,2,0,P|134:252|166:257,1,65,4|0,0:0|0:0,0:0:0:0:
236,208,49886,2,0,P|228:144|233:53,1,130,0|4,0:0|0:0,0:0:0:0:
399,144,50809,1,8,0:0:0:0:
399,144,51270,1,2,0:0:0:0:
357,224,51501,1,0,0:0:0:0:
392,307,51732,6,0,P|346:330|199:330,1,195,4|4,0:0|0:0,0:0:0:0:
158,254,52655,1,8,0:0:0:0:
238,91,53116,6,0,L|223:175,1,65,4|0,0:0|0:0,0:0:0:0:
137,135,53578,2,0,L|68:169,1,65,0|0,0:0|0:0,0:0:0:0:
135,235,54040,2,0,L|138:318,2,65,4|0|8,0:0|0:0|0:0,0:0:0:0:
309,183,54963,1,2,0:0:0:0:
437,319,55424,5,4,0:0:0:0:
437,319,55655,2,0,P|430:253|439:171,1,130,4|4,0:0|0:0,0:0:0:0:
478,109,56347,2,0,P|457:100|410:104,1,65,2|0,0:0|0:0,0:0:0:0:
331,139,56809,6,0,P|273:157|185:149,1,130,4|4,0:0|0:0,0:0:0:0:
204,154,59116,6,0,P|219:215|220:302,2,130,4|4|8,0:0|0:0|0:0,0:0:0:0:
366,237,60501,6,0,L|445:228,1,65,4|0,0:0|0:0,0:0:0:0:
467,145,60963,2,0,L|388:136,1,65,0|0,0:0|0:0,0:0:0:0:
317,103,61424,2,0,L|308:32,2,65,4|0|8,0:0|0:0|0:0,0:0:0:0:
181,224,62347,2,0,L|172:288,1,65,0|0,0:0|0:0,0:0:0:0:
247,341,62809,6,0,P|308:309|438:338,1,195,4|4,0:0|0:0,0:0:0:0:
476,253,63732,1,8,0:0:0:0:
403,86,64193,2,0,P|363:126|343:135,1,65,4|0,0:0|0:0,0:0:0:0:
319,213,64655,2,0,P|265:204|174:200,1,130,0|4,0:0|0:0,0:0:0:0:
284,355,65578,1,8,0:0:0:0:
284,355,66040,1,2,0:0:0:0:
203,314,66270,1,0,0:0:0:0:
116,341,66501,6,0,P|111:303|57:142,1,195,4|4,0:0|0:0,0:0:0:0:
135,98,67424,1,8,0:0:0:0:
217,260,67886,6,0,L|298:244,1,65,4|0,0:0|0:0,0:0:0:0:
348,308,68347,2,0,L|413:343,1,65,0|0,0:0|0:0,0:0:0:0:
432,251,68809,2,0,L|497:216,2,65,4|0|8,0:0|0:0|0:0,0:0:0:0:
318,108,69732,1,2,0:0:0:0:
182,229,70193,5,4,0:0:0:0:
182,229,70424,2,0,P|110:229|57:273,1,130,4|4,0:0|0:0,0:0:0:0:
82,351,71116,2,0,P|126:354|152:346,1,65,2|0,0:0|0:0,0:0:0:0:
229,311,71578,6,0,P|308:296|365:311,2,130,4|0|4,0:0|0:0|0:0,0:0:0:0:
181,233,72732,1,0,0:0:0:0:
196,143,72963,1,8,0:0:0:0:
29,214,73424,1,2,0:0:0:0:
170,329,73886,6,0,P|217:319|309:332,2,130,4|4|8,0:0|0:0|0:0,0:0:0:0:
241,161,75270,6,0,L|310:138,1,65,4|0,0:0|0:0,0:0:0:0:
357,213,75732,2,0,L|426:236,1,65,0|0,0:0|0:0,0:0:0:0:
496,185,76193,2,0,L|492:117,2,65,4|0|8,0:0|0:0|0:0,0:0:0:0:
379,325,77116,1,0,0:0:0:0:
226,224,77578,6,0,P|173:222|100:333,1,195,4|4,0:0|0:0,0:0:0:0:
184,360,78501,1,8,0:0:0:0:
326,246,78963,2,0,P|372:231|403:229,1,65,4|0,0:0|0:0,0:0:0:0:
472,264,79424,2,0,P|479:229|421:146,1,130,0|4,0:0|0:0,0:0:0:0:
254,184,80347,1,8,0:0:0:0:
254,184,80809,1,2,0:0:0:0:
231,95,81040,1,0,0:0:0:0:
141,110,81270,6,0,P|158:180|173:323,1,195,4|4,0:0|0:0,0:0:0:0:
89,339,82193,1,8,0:0:0:0:
270,347,82655,6,0,L|344:337,1,65,4|0,0:0|0:0,0:0:0:0:
368,253,83116,2,0,L|294:243,1,65,0|0,0:0|0:0,0:0:0:0:
244,174,83578,2,0,L|240:106,2,65,4|0|8,0:0|0:0|0:0,0:0:0:0:
94,278,84501,1,2,0:0:0:0:
270,347,84963,5,4,0:0:0:0:
270,347,85193,2,0,P|321:325|411:327,1,130,4|4,0:0|0:0,0:0:0:0:
481,294,85886,2,0,P|483:257|474:226,1,65,2|0,0:0|0:0,0:0:0:0:
397,183,86347,6,0,P|383:149|386:44,1,130,4|4,0:0|0:0,0:0:0:0:
382,56,87732,5,8,0:0:0:0:
292,214,88193,2,0,P|268:158|223:98,1,130,8|2,0:0|0:0,0:0:0:0:
267,284,92347,6,0,P|304:267|408:360,1,195,2|0,0:0|0:0,0:0:0:0:
494,322,93270,1,0,0:0:0:0:
494,322,94193,6,0,P|487:271|495:115,1,195,0|0,0:0|0:0,0:0:0:0:
420,72,95116,2,0,L|277:56,1,130,0|0,0:0|0:0,0:0:0:0:
108,51,96040,6,0,P|125:142|88:266,1,195,2|0,0:0|0:0,0:0:0:0:
32,298,96963,1,0,0:0:0:0:
210,262,97424,1,0,0:0:0:0:
377,334,97886,6,0,P|354:239|371:144,1,195,0|0,0:0|0:0,0:0:0:0:
442,87,98809,1,0,0:0:0:0:
261,67,99270,1,0,0:0:0:0:
125,189,99732,6,0,P|194:180|359:274,3,260,0|0|0|0,0:0|0:0|0:0|0:0,0:0:0:0:
428,101,102963,1,0,0:0:0:0:
453,281,103424,6,0,P|406:353|297:347,1,195,2|0,0:0|0:0,0:0:0:0:
230,300,104347,2,0,P|190:295|76:312,1,130,0|0,0:0|0:0,0:0:0:0:
12,145,105270,6,0,P|70:161|210:131,1,195,0|0,0:0|0:0,0:0:0:0:
284,171,106193,2,0,P|328:173|426:155,1,130,0|0,0:0|0:0,0:0:0:0:
494,321,107116,6,0,P|430:308|365:309,1,130,2|0,0:0|0:0,0:0:0:0:
185,338,108040,1,0,0:0:0:0:
16,269,108501,1,0,0:0:0:0:
111,113,108963,6,0,P|111:204|84:372,1,260,0|0,0:0|0:0,0:0:0:0:
242,280,110347,1,0,0:0:0:0:
412,344,110809,6,0,P|428:308|333:215,1,195,2|0,0:0|0:0,0:0:0:0:
333,123,111732,2,0,P|269:137|204:141,1,130,0|0,0:0|0:0,0:0:0:0:
61,253,112655,6,0,P|111:257|233:340,1,195,0|0,0:0|0:0,0:0:0:0:
318,315,113578,2,0,P|364:310|450:320,1,130,0|0,0:0|0:0,0:0:0:0:
256,192,114501,12,0,116347,0:0:0:0:
142,303,118193,6,0,P|185:303|297:318,2,130,4|4|8,0:0|0:0|0:0,0:0:0:0:
268,171,119578,6,0,P|273:139|273:106,1,65,4|0,0:0|0:0,0:0:0:0:
183,91,120040,2,0,P|150:91|118:85,1,65,0|0,0:0|0:0,0:0:0:0:
54,150,120501,2,0,L|85:223,1,65,4|0,0:0|0:0,0:0:0:0:
39,292,120963,1,8,0:0:0:0:
217,256,121424,1,0,0:0:0:0:
376,343,121886,6,0,P|406:289|370:157,1,195,4|4,0:0|0:0,0:0:0:0:
291,135,122809,1,8,0:0:0:0:
215,300,123270,2,0,P|166:284|143:282,1,65,4|0,0:0|0:0,0:0:0:0:
64,306,123732,2,0,P|53:257|72:169,1,130,0|4,0:0|0:0,0:0:0:0:
226,92,124655,1,8,0:0:0:0:
226,92,125116,1,2,0:0:0:0:
226,183,125347,1,0,0:0:0:0:
317,180,125578,6,0,P|312:235|408:333,1,195,4|4,0:0|0:0,0:0:0:0:
482,290,126501,1,8,0:0:0:0:
503,109,126963,6,0,P|468:97|437:91,1,65,4|0,0:0|0:0,0:0:0:0:
356,57,127424,2,0,P|321:69|290:75,1,65,0|0,0:0|0:0,0:0:0:0:
216,123,127886,2,0,P|191:73|179:54,1,65,4|0,0:0|0:0,0:0:0:0:
114,121,128347,1,8,0:0:0:0:
243,248,128809,1,2,0:0:0:0:
75,318,129270,5,4,0:0:0:0:
75,318,129501,2,0,P|77:263|42:184,1,130,4|4,0:0|0:0,0:0:0:0:
114,121,130193,2,0,P|172:111|190:106,1,65,2|0,0:0|0:0,0:0:0:0:
240,176,130655,6,0,P|300:162|382:173,2,130,4|0|4,0:0|0:0|0:0,0:0:0:0:
202,258,131809,1,0,0:0:0:0:
253,333,132040,1,8,0:0:0:0:
253,333,132963,6,0,P|193:326|102:340,2,130,4|4|8,0:0|0:0|0:0,0:0:0:0:
433,355,134347,6,0,P|458:320|466:285,1,65,4|0,0:0|0:0,0:0:0:0:
386,251,134809,2,0,P|361:216|353:181,1,65,0|0,0:0|0:0,0:0:0:0:
400,116,135270,2,0,P|451:102|466:102,1,65,4|0,0:0|0:0,0:0:0:0:
454,193,135732,1,8,0:0:0:0:
305,88,136193,1,0,0:0:0:0:
133,149,136655,6,0,P|226:175|242:271,1,195,4|4,0:0|0:0,0:0:0:0:
198,339,137578,1,8,0:0:0:0:
336,220,138040,2,0,P|341:180|359:140,1,65,4|0,0:0|0:0,0:0:0:0:
421,100,138501,2,0,P|449:103|510:196,1,130,0|4,0:0|0:0,0:0:0:0:
391,314,139424,1,8,0:0:0:0:
391,314,139886,1,2,0:0:0:0:
301,298,140116,1,0,0:0:0:0:
211,280,140347,6,0,P|217:232|200:73,1,195,4|4,0:0|0:0,0:0:0:0:
126,38,141270,1,8,0:0:0:0:
302,83,141732,6,0,P|344:90|371:86,1,65,4|0,0:0|0:0,0:0:0:0:
446,129,142193,2,0,P|421:163|397:175,1,65,0|0,0:0|0:0,0:0:0:0:
316,208,142655,2,0,L|306:291,1,65,4|0,0:0|0:0,0:0:0:0:
355,350,143116,1,8,0:0:0:0:
172,360,143578,1,2,0:0:0:0:
100,192,144040,5,4,0:0:0:0:
100,192,144270,2,0,P|149:158|237:145,1,130,4|4,0:0|0:0,0:0:0:0:
279,77,144963,2,0,P|310:89|350:97,1,65,2|0,0:0|0:0,0:0:0:0:
422,55,145424,6,0,P|439:116|443:197,1,130,4|2,0:0|0:0,0:0:0:0:
443,182,146809,5,8,0:0:0:0:
276,254,147270,1,8,0:0:0:0:
201,87,147732,6,0,P|241:90|293:178,2,130,4|4|8,0:0|0:0|0:0,0:0:0:0:
24,45,149116,6,0,P|32:81|35:120,1,65,4|0,0:0|0:0,0:0:0:0:
106,165,149578,2,0,P|98:201|95:240,1,65,0|0,0:0|0:0,0:0:0:0:
169,282,150040,2,0,L|239:271,1,65,4|0,0:0|0:0,0:0:0:0:
311,318,150501,1,8,0:0:0:0:
380,149,150963,1,0,0:0:0:0:
497,287,151424,6,0,P|463:244|319:233,1,195,4|4,0:0|0:0,0:0:0:0:
256,175,152347,1,8,0:0:0:0:
153,325,152809,2,0,P|152:293|137:251,1,65,4|0,0:0|0:0,0:0:0:0:
60,222,153270,2,0,P|57:173|71:84,1,130,0|4,0:0|0:0,0:0:0:0:
246,130,154193,1,8,0:0:0:0:
246,130,154655,1,2,0:0:0:0:
334,107,154886,1,0,0:0:0:0:
407,160,155116,6,0,P|405:230|431:362,1,195,4|4,0:0|0:0,0:0:0:0:
337,365,156040,1,8,0:0:0:0:
156,343,156501,6,0,P|147:300|129:268,1,65,4|0,0:0|0:0,0:0:0:0:
203,217,156963,2,0,P|212:174|230:142,1,65,0|0,0:0|0:0,0:0:0:0:
307,126,157424,2,0,P|339:125|382:113,1,65,4|0,0:0|0:0,0:0:0:0:
425,191,157886,1,8,0:0:0:0:
320,339,158347,1,2,0:0:0:0:
203,199,158809,5,4,0:0:0:0:
203,199,159040,2,0,P|155:238|83:257,1,130,4|4,0:0|0:0,0:0:0:0:
69,345,159732,2,0,P|107:345|150:349,1,65,2|0,0:0|0:0,0:0:0:0:
224,351,160193,6,0,P|290:331|348:352,2,130,4|0|4,0:0|0:0|0:0,0:0:0:0:
181,270,161347,1,0,0:0:0:0:
183,178,161578,1,8,0:0:0:0:
183,178,162501,6,0,P|246:169|322:176,2,130,4|4|8,0:0|0:0|0:0,0:0:0:0:
60,313,163886,6,0,P|45:269|43:241,1,65,4|0,0:0|0:0,0:0:0:0:
80,167,164347,2,0,P|95:123|97:95,1,65,0|0,0:0|0:0,0:0:0:0:
181,70,164809,2,0,P|211:83|251:89,1,65,4|0,0:0|0:0,0:0:0:0:
326,52,165270,1,8,0:0:0:0:
250,217,165732,1,0,0:0:0:0:
407,308,166193,6,0,P|352:305|218:358,1,195,4|4,0:0|0:0,0:0:0:0:
133,335,167116,1,8,0:0:0:0:
199,165,167578,2,0,P|204:122|186:83,1,65,4|0,0:0|0:0,0:0:0:0:
111,131,168040,2,0,P|104:178|164:253,1,130,0|4,0:0|0:0,0:0:0:0:
304,154,168963,1,8,0:0:0:0:
304,154,169424,1,2,0:0:0:0:
391,179,169655,1,0,0:0:0:0:
359,264,169886,6,0,P|296:255|173:325,1,195,4|4,0:0|0:0,0:0:0:0:
92,300,170809,1,8,0:0:0:0:
25,130,171270,6,0,P|76:115|99:118,1,65,4|0,0:0|0:0,0:0:0:0:
157,57,171732,2,0,P|186:69|219:71,1,65,0|0,0:0|0:0,0:0:0:0:
225,162,172193,2,0,P|227:197|239:236,1,65,4|0,0:0|0:0,0:0:0:0:
326,232,172655,1,8,0:0:0:0:
471,123,173116,1,2,0:0:0:0:
487,304,173578,5,4,0:0:0:0:
487,304,173809,2,0,P|435:295|338:337,1,130,4|4,0:0|0:0,0:0:0:0:
280,357,174501,2,0,P|236:354|214:346,1,65,2|0,0:0|0:0,0:0:0:0:
147,286,174963,6,0,P|105:284|23:350,1,130,4|4,0:0|0:0,0:0:0:0:
33,330,176347,5,8,0:0:0:0:
215,335,176809,2,0,P|187:291|166:206,1,130,8|2,0:0|0:0,0:0:0:0:
