osu file format v14

[General]
AudioFilename: audio.mp3
AudioLeadIn: 0
PreviewTime: -1
Countdown: 1
SampleSet: Normal
StackLeniency: 0.7
Mode: 0
LetterboxInBreaks: 0
WidescreenStoryboard: 1

[Editor]
Bookmarks: 48513
DistanceSpacing: 0.8
BeatDivisor: 1
GridSize: 4
TimelineZoom: 1

[Metadata]
Title:How the West was Won - C&C: Red Alert 3
TitleUnicode:How the West was Won - C&C: Red Alert 3
Artist:Electronic Arts (EA)
ArtistUnicode:Electronic Arts (EA)
Creator:Lefurtif126
Version:Normal
Source:Youtube
Tags:command conquer red alert 3 rock EA
BeatmapID:1475632
BeatmapSetID:696675

[Difficulty]
HPDrainRate:4
CircleSize:4
OverallDifficulty:4
ApproachRate:8
SliderMultiplier:1.4
SliderTickRate:2

[Events]
//Background and Video events
0,0,"4192616-cc-red-alert-3-HD.jpg",0,0
//Break Periods
2,55613,64413
//Storyboard Layer 0 (Background)
//Storyboard Layer 1 (Fail)
//Storyboard Layer 2 (Pass)
//Storyboard Layer 3 (Foreground)
//Storyboard Sound Samples

[TimingPoints]
1413.12569558269,300,4,1,0,100,1,0

[Colours]
Combo1 : 134,183,232
Combo2 : 177,212,223
Combo3 : 199,199,199
Combo4 : 223,210,177

[HitObjects]
216,192,17013,5,0,0:0:0:0:
296,192,17313,1,0,0:0:0:0:
376,192,17613,2,0,P|376:336|376:348,1,140,0|8,0:0|0:0,0:0:0:0:
296,332,18213,2,0,P|148:332|136:332,1,140,0|8,0:0|0:0,0:0:0:0:
156,256,18813,2,0,L|156:112,1,140,0|8,0:0|0:0,0:0:0:0:
232,116,19413,2,0,L|392:116,1,140,0|8,0:0|0:0,0:0:0:0:
448,116,20013,6,0,P|448:264|384:264,1,140,0|8,0:0|0:0,0:0:0:0:
416,184,20613,2,0,P|480:320|560:284,1,140,0|8,0:0|0:0,0:0:0:0:
510,307,21213,2,0,P|510:165|437:145,1,140,0|8,0:0|0:0,0:0:0:0:
464,232,21813,2,0,P|504:76|588:72,1,140,0|8,0:0|0:0,0:0:0:0:
432,44,22413,1,0,0:0:0:0:
356,28,22713,1,8,0:0:0:0:
280,28,23013,6,0,L|120:28,1,140,0|8,0:0|0:0,0:0:0:0:
72,28,23613,1,0,0:0:0:0:
72,104,23913,1,8,0:0:0:0:
140,104,24213,2,0,L|292:104,1,140,0|8,0:0|0:0,0:0:0:0:
344,104,24813,2,0,L|464:12,2,140,0|8|0,0:0|0:0|0:0,0:0:0:0:
344,172,25713,2,0,L|452:260,2,140,8|0|8,0:0|0:0|0:0,0:0:0:0:
288,124,26613,5,0,0:0:0:0:
212,124,26913,1,8,0:0:0:0:
136,124,27213,2,0,P|-28:124|136:196,1,420
160,236,28413,1,0,0:0:0:0:
232,236,28713,1,0,0:0:0:0:
304,236,29013,2,0,L|460:236,1,140
448,168,29613,5,0,0:0:0:0:
372,168,29913,2,0,L|232:168,1,140
160,168,30513,1,0,0:0:0:0:
160,96,30813,2,0,L|324:96,1,140
368,96,31413,1,0,0:0:0:0:
368,164,31713,2,0,L|216:164,1,140
160,164,32313,1,0,0:0:0:0:
160,232,32613,6,0,L|296:288,1,140
364,284,33213,2,0,L|500:224,1,140
492,160,33813,2,0,L|360:96,1,140
296,100,34413,1,0,0:0:0:0:
220,100,34713,2,0,L|80:100,2,140
220,168,35613,1,0,0:0:0:0:
220,236,35913,2,0,L|80:236,2,140
256,192,37113,12,0,39513,0:0:0:0:
184,192,40413,6,0,L|340:192,2,140
84,192,41313,1,0,0:0:0:0:
112,120,41613,1,0,0:0:0:0:
172,72,41913,1,0,0:0:0:0:
256,56,42213,1,0,0:0:0:0:
336,72,42513,1,0,0:0:0:0:
396,124,42813,1,0,0:0:0:0:
416,196,43113,1,0,0:0:0:0:
396,268,43413,1,0,0:0:0:0:
336,312,43713,1,0,0:0:0:0:
260,336,44013,1,0,0:0:0:0:
176,324,44313,1,0,0:0:0:0:
120,268,44613,1,0,0:0:0:0:
88,196,44913,1,0,0:0:0:0:
180,192,45213,6,0,L|320:192,2,140
104,144,46113,2,0,L|172:8,1,140
180,144,46713,2,0,L|248:8,1,140
256,144,47313,2,0,L|324:8,1,140
332,144,47913,2,0,L|400:8,1,140
408,144,48513,2,0,P|580:144|408:216,1,420
408,216,49713,6,0,L|352:348,1,140
328,216,50313,2,0,L|272:344,1,140
248,216,50913,2,0,L|192:344,1,140
168,216,51513,2,0,L|112:344,1,140
40,344,52113,5,0,0:0:0:0:
40,276,52413,1,0,0:0:0:0:
40,212,52713,1,0,0:0:0:0:
40,148,53013,1,0,0:0:0:0:
40,84,53313,1,0,0:0:0:0:
40,20,53613,1,0,0:0:0:0:
108,20,53913,6,0,L|392:20,1,280
392,84,54813,2,0,L|104:84,1,280
256,192,65613,5,0,0:0:0:0:
256,132,65913,1,0,0:0:0:0:
256,72,66213,1,0,0:0:0:0:
320,72,66513,2,0,L|472:72,1,140
460,136,67113,5,0,0:0:0:0:
460,196,67413,1,0,0:0:0:0:
396,196,67713,2,0,L|256:196,1,140
192,196,68313,5,0,0:0:0:0:
192,136,68613,1,0,0:0:0:0:
192,76,68913,2,0,L|52:76,1,140
52,140,69513,5,0,0:0:0:0:
52,200,69813,1,0,0:0:0:0:
52,260,70113,2,0,L|192:260,1,140
252,260,70713,5,0,0:0:0:0:
316,260,71013,1,0,0:0:0:0:
376,260,71313,2,0,L|376:120,1,140
312,120,71913,5,0,0:0:0:0:
248,120,72213,1,0,0:0:0:0:
184,120,72513,2,0,L|184:260,1,140
248,260,73113,5,0,0:0:0:0:
312,260,73413,1,0,0:0:0:0:
312,196,75213,6,0,P|312:56|232:56,1,140
280,124,75813,1,0,0:0:0:0:
228,180,76113,2,0,P|284:48|328:64,1,140
280,124,76713,1,0,0:0:0:0:
336,68,77013,2,0,P|284:208|220:184,1,140
260,192,77613,6,0,P|200:324|272:356,1,140
260,268,78213,1,0,0:0:0:0:
328,224,78513,2,0,P|244:348|188:308,1,140
260,268,79113,1,0,0:0:0:0:
188,268,79413,6,0,L|48:200,1,140
188,192,80013,2,0,L|56:128,1,140
188,112,80613,2,0,L|52:48,1,140
268,112,81213,6,0,L|396:56,1,140
272,192,81813,2,0,L|400:136,1,140
276,268,82413,2,0,L|404:212,1,140
464,180,83013,5,0,0:0:0:0:
464,116,83313,1,0,0:0:0:0:
464,52,83613,1,0,0:0:0:0:
400,52,83913,2,0,L|96:52,1,280
120,116,84813,5,0,0:0:0:0:
120,184,85113,2,0,L|272:184,3,140
260,252,86313,1,0,0:0:0:0:
260,320,86613,2,0,L|412:320,3,140
400,256,87813,5,0,0:0:0:0:
400,192,88113,2,0,L|252:192,1,140
256,128,88713,2,0,L|396:128,1,140
400,64,89313,2,0,L|252:64,1,140
196,64,89913,2,0,L|48:64,1,140
56,128,90513,2,0,L|196:128,1,140
196,192,91113,2,0,L|48:192,1,140
0,192,91713,5,0,0:0:0:0:
0,252,92013,1,0,0:0:0:0:
0,312,92313,1,0,0:0:0:0:
84,312,92613,6,0,P|224:64|280:48,1,280
272,72,93513,2,0,P|400:320|384:376,1,280
256,184,94413,1,4,0:0:0:0:
