osu file format v14

[General]
AudioFilename: audio.mp3
AudioLeadIn: 0
PreviewTime: -1
Countdown: 1
SampleSet: None
StackLeniency: 0.7
Mode: 0
LetterboxInBreaks: 0
WidescreenStoryboard: 1

[Editor]
Bookmarks: 48513
DistanceSpacing: 0.8
BeatDivisor: 2
GridSize: 4
TimelineZoom: 1

[Metadata]
Title:How the West was Won - C&C: Red Alert 3
TitleUnicode:How the West was Won - C&C: Red Alert 3
Artist:Electronic Arts (EA)
ArtistUnicode:Electronic Arts (EA)
Creator:Lefurtif126
Version:Hard
Source:Youtube
Tags:command conquer red alert 3 rock EA
BeatmapID:1499784
BeatmapSetID:696675

[Difficulty]
HPDrainRate:6
CircleSize:4
OverallDifficulty:3
ApproachRate:8
SliderMultiplier:1.4
SliderTickRate:2

[Events]
//Background and Video events
0,0,"4192616-cc-red-alert-3-HD.jpg",0,0
//Break Periods
2,56213,64863
//Storyboard Layer 0 (Background)
//Storyboard Layer 1 (Fail)
//Storyboard Layer 2 (Pass)
//Storyboard Layer 3 (Foreground)
//Storyboard Sound Samples

[TimingPoints]
1413.12569558269,300,4,1,0,100,1,0

[Colours]
Combo1 : 134,183,232
Combo2 : 177,212,223
Combo3 : 199,199,199
Combo4 : 223,210,177

[HitObjects]
128,232,17013,5,0,0:0:0:0:
184,128,17313,1,0,0:0:0:0:
240,232,17613,1,0,0:0:0:0:
300,128,17913,1,0,0:0:0:0:
240,20,18213,1,0,0:0:0:0:
224,20,18363,2,0,L|148:24,1,70
176,144,18813,5,0,0:0:0:0:
68,116,19113,1,0,0:0:0:0:
88,240,19413,1,0,0:0:0:0:
100,252,19563,2,0,L|160:288,1,70
232,192,20013,5,0,0:0:0:0:
264,312,20313,1,0,0:0:0:0:
360,232,20613,1,0,0:0:0:0:
372,220,20763,2,0,L|408:156,1,70
288,124,21213,5,0,0:0:0:0:
328,28,21513,1,0,0:0:0:0:
216,36,21813,1,0,0:0:0:0:
200,36,21963,2,0,L|112:48,1,70
176,168,22413,5,0,0:0:0:0:
52,132,22713,1,0,0:0:0:0:
84,248,23013,1,0,0:0:0:0:
92,264,23163,2,0,L|136:320,1,70
228,192,23613,5,0,0:0:0:0:
252,324,23913,1,0,0:0:0:0:
352,248,24213,1,0,0:0:0:0:
368,220,24363,1,0,0:0:0:0:
380,188,24513,1,0,0:0:0:0:
380,156,24663,1,0,0:0:0:0:
372,120,24813,1,4,0:0:0:0:
300,64,25113,1,0,0:0:0:0:
268,60,25263,1,4,0:0:0:0:
176,72,25563,1,0,0:0:0:0:
152,96,25713,1,4,0:0:0:0:
132,184,26013,1,0,0:0:0:0:
140,216,26163,1,4,0:0:0:0:
236,296,26613,1,4,0:0:0:0:
368,280,26913,1,4,0:0:0:0:
264,196,27213,5,4,0:0:0:0:
272,180,27363,2,0,L|316:124,1,70
440,76,27813,1,0,0:0:0:0:
428,64,27963,2,0,L|368:20,1,70
228,16,28413,5,0,0:0:0:0:
184,128,28713,1,0,0:0:0:0:
104,24,29013,1,0,0:0:0:0:
92,32,29163,2,0,L|48:100,1,70
164,156,29613,5,0,0:0:0:0:
48,200,29913,1,0,0:0:0:0:
148,280,30213,1,0,0:0:0:0:
160,292,30363,2,0,L|232:312,1,70
224,200,30813,5,0,0:0:0:0:
268,324,31113,1,0,0:0:0:0:
352,256,31413,1,0,0:0:0:0:
368,248,31563,2,0,L|416:192,1,70
292,140,32013,5,0,0:0:0:0:
392,64,32313,1,0,0:0:0:0:
264,32,32613,1,0,0:0:0:0:
244,24,32763,2,0,L|152:24,1,70
192,152,33213,5,0,0:0:0:0:
76,104,33513,1,0,0:0:0:0:
88,200,33813,1,0,0:0:0:0:
88,232,33963,1,0,0:0:0:0:
96,256,34113,1,0,0:0:0:0:
112,284,34263,1,0,0:0:0:0:
136,308,34413,1,4,0:0:0:0:
240,324,34713,1,0,0:0:0:0:
272,312,34863,1,4,0:0:0:0:
340,224,35163,1,0,0:0:0:0:
344,192,35313,1,4,0:0:0:0:
304,88,35613,1,0,0:0:0:0:
280,68,35763,1,4,0:0:0:0:
160,48,36213,1,4,0:0:0:0:
220,148,36513,1,4,0:0:0:0:
88,144,36813,5,4,0:0:0:0:
104,240,37113,1,0,0:0:0:0:
16,284,37413,1,0,0:0:0:0:
24,296,37563,2,0,L|72:360,2,70
32,284,38013,1,0,0:0:0:0:
164,312,38313,5,0,0:0:0:0:
288,296,38613,1,0,0:0:0:0:
308,284,38763,2,0,L|392:268,2,70
288,276,39213,1,0,0:0:0:0:
344,192,39513,5,0,0:0:0:0:
360,80,39813,1,0,0:0:0:0:
340,64,39963,1,0,0:0:0:0:
312,48,40113,1,0,0:0:0:0:
280,40,40263,1,0,0:0:0:0:
252,36,40413,1,4,0:0:0:0:
144,68,40713,1,0,0:0:0:0:
120,92,40863,1,4,0:0:0:0:
112,200,41313,1,0,0:0:0:0:
40,300,41613,5,0,0:0:0:0:
168,304,41913,1,0,0:0:0:0:
280,292,42213,1,0,0:0:0:0:
300,288,42363,2,0,L|368:260,2,70
288,268,42813,1,0,0:0:0:0:
376,176,43113,5,0,0:0:0:0:
272,128,43413,1,0,0:0:0:0:
256,120,43563,2,0,L|172:100,2,70
276,108,44013,1,0,0:0:0:0:
336,4,44313,5,0,0:0:0:0:
428,72,44613,1,0,0:0:0:0:
448,100,44763,1,0,0:0:0:0:
460,132,44913,1,0,0:0:0:0:
460,164,45063,1,0,0:0:0:0:
452,200,45213,1,4,0:0:0:0:
376,292,45513,1,0,0:0:0:0:
348,320,45663,1,4,0:0:0:0:
236,312,46113,1,0,0:0:0:0:
136,260,46413,5,0,0:0:0:0:
212,196,46713,1,0,0:0:0:0:
92,140,47013,1,0,0:0:0:0:
92,116,47163,2,0,L|136:52,2,70
108,120,47613,1,0,0:0:0:0:
232,112,47913,5,0,0:0:0:0:
340,72,48213,1,0,0:0:0:0:
348,84,48363,2,0,L|404:168,2,70
332,84,48813,1,0,0:0:0:0:
312,196,49113,5,0,0:0:0:0:
248,288,49413,1,0,0:0:0:0:
216,288,49563,1,0,0:0:0:0:
184,280,49713,1,0,0:0:0:0:
156,264,49863,1,0,0:0:0:0:
132,240,50013,1,4,0:0:0:0:
88,160,50313,1,0,0:0:0:0:
92,128,50463,1,4,0:0:0:0:
176,56,50913,1,0,0:0:0:0:
304,44,51213,5,0,0:0:0:0:
344,140,51513,1,0,0:0:0:0:
432,96,51813,1,0,0:0:0:0:
436,112,51963,2,0,L|452:184,2,70
424,112,52413,1,0,0:0:0:0:
336,216,52713,1,0,0:0:0:0:
252,340,53013,1,0,0:0:0:0:
236,340,53163,2,0,L|148:324,2,70
240,328,53613,1,0,0:0:0:0:
152,240,53913,5,0,0:0:0:0:
72,140,54213,1,0,0:0:0:0:
104,124,54363,1,0,0:0:0:0:
88,84,54513,1,0,0:0:0:0:
128,72,54663,1,0,0:0:0:0:
116,32,54813,1,4,0:0:0:0:
252,32,55113,1,0,0:0:0:0:
284,44,55263,1,4,0:0:0:0:
412,164,55713,1,0,0:0:0:0:
256,192,56013,1,4,0:0:0:0:
248,64,65613,5,4,0:0:0:0:
244,288,65913,1,4,0:0:0:0:
340,92,66213,1,4,0:0:0:0:
160,248,66513,1,4,0:0:0:0:
380,184,66813,1,4,0:0:0:0:
128,156,67113,1,4,0:0:0:0:
332,272,67413,1,4,0:0:0:0:
188,84,67713,1,4,0:0:0:0:
240,288,68013,1,4,0:0:0:0:
284,80,68313,1,4,0:0:0:0:
160,236,68613,1,4,0:0:0:0:
364,132,68913,1,4,0:0:0:0:
144,144,69213,1,4,0:0:0:0:
360,224,69513,1,4,0:0:0:0:
224,84,69813,1,4,0:0:0:0:
288,292,70113,1,4,0:0:0:0:
328,104,70413,1,4,0:0:0:0:
184,272,70713,1,4,0:0:0:0:
380,192,71013,1,4,0:0:0:0:
140,180,71313,1,4,0:0:0:0:
332,280,71613,1,4,0:0:0:0:
188,100,71913,1,4,0:0:0:0:
244,308,72213,1,4,0:0:0:0:
268,92,72513,1,4,0:0:0:0:
156,264,72813,1,4,0:0:0:0:
252,40,75213,5,4,0:0:0:0:
368,52,75513,1,0,0:0:0:0:
380,64,75663,1,0,0:0:0:0:
392,80,75813,1,0,0:0:0:0:
404,96,75963,1,0,0:0:0:0:
408,108,76113,1,0,0:0:0:0:
400,200,76413,5,0,0:0:0:0:
284,200,76713,1,0,0:0:0:0:
268,192,76863,1,0,0:0:0:0:
252,184,77013,1,0,0:0:0:0:
232,176,77163,1,0,0:0:0:0:
216,168,77313,1,0,0:0:0:0:
108,196,77613,5,0,0:0:0:0:
68,288,77913,1,0,0:0:0:0:
84,300,78063,1,0,0:0:0:0:
96,316,78213,1,0,0:0:0:0:
112,328,78363,1,0,0:0:0:0:
124,340,78513,1,0,0:0:0:0:
244,316,78813,5,4,0:0:0:0:
336,248,79113,1,0,0:0:0:0:
344,220,79263,1,4,0:0:0:0:
324,112,79713,1,0,0:0:0:0:
228,72,80013,1,0,0:0:0:0:
116,104,80313,5,0,0:0:0:0:
84,132,80463,1,0,0:0:0:0:
72,168,80613,1,0,0:0:0:0:
80,200,80763,1,0,0:0:0:0:
112,232,80913,1,0,0:0:0:0:
208,256,81213,5,0,0:0:0:0:
300,216,81513,1,0,0:0:0:0:
320,188,81663,1,0,0:0:0:0:
328,156,81813,1,0,0:0:0:0:
344,124,81963,1,0,0:0:0:0:
372,100,82113,1,0,0:0:0:0:
452,100,82413,6,0,L|524:128,2,70
420,180,82863,2,0,L|480:236,2,70
344,232,83313,2,0,L|368:300,2,70,0|0|4,0:0|0:0|0:0,0:0:0:0:
256,152,83913,1,0,0:0:0:0:
228,136,84063,1,4,0:0:0:0:
128,112,84513,1,4,0:0:0:0:
60,176,84813,5,4,0:0:0:0:
152,216,85113,1,0,0:0:0:0:
160,232,85263,2,0,L|196:312,2,70
160,216,85713,1,0,0:0:0:0:
216,124,86013,1,0,0:0:0:0:
284,48,86313,1,0,0:0:0:0:
292,40,86463,2,0,L|252:-24,2,70
300,44,86913,1,0,0:0:0:0:
356,124,87213,5,0,0:0:0:0:
252,156,87513,1,0,0:0:0:0:
336,224,87813,1,0,0:0:0:0:
232,284,88113,1,0,0:0:0:0:
200,300,88263,1,0,0:0:0:0:
168,312,88413,1,4,0:0:0:0:
80,260,88713,1,0,0:0:0:0:
64,232,88863,1,4,0:0:0:0:
96,136,89313,1,0,0:0:0:0:
216,120,89613,1,0,0:0:0:0:
224,128,89763,2,0,L|288:184,2,70
208,128,90213,1,0,0:0:0:0:
328,88,90513,5,0,0:0:0:0:
444,64,90813,1,0,0:0:0:0:
452,72,90963,2,0,L|516:128,2,70
436,72,91413,1,0,0:0:0:0:
408,160,91713,5,0,0:0:0:0:
356,232,92013,1,0,0:0:0:0:
272,272,92313,1,0,0:0:0:0:
236,280,92463,1,0,0:0:0:0:
200,272,92613,1,0,0:0:0:0:
172,256,92763,1,0,0:0:0:0:
152,232,92913,1,0,0:0:0:0:
136,204,93063,1,0,0:0:0:0:
128,172,93213,1,4,0:0:0:0:
148,72,93513,1,0,0:0:0:0:
168,44,93663,1,4,0:0:0:0:
284,28,94113,1,4,0:0:0:0:
368,120,94413,1,4,0:0:0:0:
