osu file format v14

[General]
AudioFilename: audio.mp3
AudioLeadIn: 0
PreviewTime: 87499
Countdown: 0
SampleSet: Normal
StackLeniency: 0
Mode: 1
LetterboxInBreaks: 0
WidescreenStoryboard: 0

[Editor]
Bookmarks: 22206,44149,55121,77064,88035,109978,131921,153864,164835,186778,210092,222435,244377,266320
DistanceSpacing: 1.3
BeatDivisor: 2
GridSize: 32
TimelineZoom: 3.039999

[Metadata]
Title:Dream Walker
TitleUnicode:Dream Walker
Artist:Electro.muster feat. Rita
ArtistUnicode:Electro.muster feat. Rita
Creator:Genjuro
Version:Futsuu
Source:
Tags:electronic japanese drum and bass dnb & electro.sinker taishi
BeatmapID:3042123
BeatmapSetID:1480195

[Difficulty]
HPDrainRate:6
CircleSize:2
OverallDifficulty:4
ApproachRate:10
SliderMultiplier:1.4
SliderTickRate:1

[Events]
//Background and Video events
0,0,"bg.jpg",0,-85
//Break Periods
2,186978,209642
//Storyboard Layer 0 (Background)
//Storyboard Layer 1 (Fail)
//Storyboard Layer 2 (Pass)
//Storyboard Layer 3 (Foreground)
//Storyboard Layer 4 (Overlay)
//Storyboard Sound Samples

[TimingPoints]
264,342.857142857143,4,1,0,10,1,0
22164,-100,4,1,0,40,0,0
33135,-100,4,1,0,50,0,0
44106,-100,4,1,0,60,0,0
77021,-100,4,1,0,40,0,0
82506,-100,4,1,0,55,0,0
87992,-100,4,1,0,70,0,0
88035,-100,4,1,0,70,0,1
109935,-100,4,1,0,40,0,1
109978,-100,4,1,0,40,0,0
120906,-100,4,1,0,60,0,0
131878,-100,4,1,0,40,0,0
142335,-100,4,1,0,50,0,0
153821,-100,4,1,0,60,0,0
165135,-100,4,1,0,70,0,0
165178,-100,4,1,0,70,0,1
175764,-100,4,1,0,55,0,1
175806,-100,4,1,0,55,0,0
186864,-100,4,1,0,20,0,0
210092,342.857142857143,4,1,0,20,1,0
210563,-100,4,1,0,21,0,0
210734,-100,4,1,0,22,0,0
210906,-100,4,1,0,23,0,0
211249,-100,4,1,0,24,0,0
211591,-100,4,1,0,25,0,0
211763,-100,4,1,0,26,0,0
212106,-100,4,1,0,27,0,0
212449,-100,4,1,0,28,0,0
212791,-100,4,1,0,29,0,0
213306,-100,4,1,0,30,0,0
213477,-100,4,1,0,31,0,0
213649,-100,4,1,0,32,0,0
213991,-100,4,1,0,33,0,0
214334,-100,4,1,0,34,0,0
214506,-100,4,1,0,35,0,0
214934,-100,4,1,0,36,0,0
215020,-100,4,1,0,37,0,0
215191,-100,4,1,0,38,0,0
215534,-100,4,1,0,39,0,0
216049,-100,4,1,0,40,0,0
216220,-100,4,1,0,40,0,0
216391,-100,4,1,0,41,0,0
216734,-100,4,1,0,42,0,0
217077,-100,4,1,0,43,0,0
217249,-100,4,1,0,44,0,0
217591,-100,4,1,0,45,0,0
217934,-100,4,1,0,46,0,0
218277,-100,4,1,0,47,0,0
218791,-100,4,1,0,48,0,0
218963,-100,4,1,0,49,0,0
219134,-100,4,1,0,50,0,0
219477,-100,4,1,0,51,0,0
219820,-100,4,1,0,52,0,0
219991,-100,4,1,0,53,0,0
220163,-100,4,1,0,54,0,0
220249,-100,4,1,0,55,0,0
220334,-100,4,1,0,56,0,0
220506,-100,4,1,0,57,0,0
220677,-100,4,1,0,58,0,0
220849,-100,4,1,0,59,0,0
221020,-100,4,1,0,60,0,0
222392,-100,4,1,0,70,0,0
222434,342.857142857143,4,1,0,70,1,8
222435,342.857142857143,4,1,0,70,1,1
244335,-100,4,1,0,60,0,1
244377,-100,4,1,0,60,0,0

[HitObjects]
256,192,22206,5,0,0:0:0:0:
256,192,22549,1,8,0:0:0:0:
256,192,23235,1,8,0:0:0:0:
256,192,23578,1,0,0:0:0:0:
256,192,23921,1,8,0:0:0:0:
256,192,24606,1,8,0:0:0:0:
256,192,24949,1,8,0:0:0:0:
256,192,25292,1,8,0:0:0:0:
256,192,25978,1,8,0:0:0:0:
256,192,26321,1,0,0:0:0:0:
256,192,27692,1,0,0:0:0:0:
256,192,28035,1,8,0:0:0:0:
256,192,28721,1,8,0:0:0:0:
256,192,29064,1,0,0:0:0:0:
256,192,29406,1,8,0:0:0:0:
256,192,30092,1,8,0:0:0:0:
256,192,30435,1,8,0:0:0:0:
256,192,30778,1,8,0:0:0:0:
256,192,31464,1,8,0:0:0:0:
256,192,31806,1,0,0:0:0:0:
256,192,32149,1,8,0:0:0:0:
256,192,32664,1,8,0:0:0:0:
256,192,33178,1,0,0:0:0:0:
256,192,33521,1,8,0:0:0:0:
256,192,34206,1,8,0:0:0:0:
256,192,34549,1,0,0:0:0:0:
256,192,34892,1,8,0:0:0:0:
256,192,35578,1,8,0:0:0:0:
256,192,35921,1,8,0:0:0:0:
256,192,36264,1,8,0:0:0:0:
256,192,36949,1,8,0:0:0:0:
256,192,37292,1,0,0:0:0:0:
256,192,37635,1,8,0:0:0:0:
256,192,37978,1,0,0:0:0:0:
256,192,38664,1,0,0:0:0:0:
256,192,39006,1,8,0:0:0:0:
256,192,39692,1,8,0:0:0:0:
256,192,40035,1,0,0:0:0:0:
256,192,40378,1,8,0:0:0:0:
256,192,41064,1,8,0:0:0:0:
256,192,41406,1,8,0:0:0:0:
256,192,41749,1,8,0:0:0:0:
256,192,42435,1,8,0:0:0:0:
256,192,42778,1,0,0:0:0:0:
256,192,43121,1,8,0:0:0:0:
256,192,43635,1,8,0:0:0:0:
256,192,44149,1,4,0:0:0:0:
256,192,44492,1,8,0:0:0:0:
256,192,45006,1,0,0:0:0:0:
256,192,45178,1,8,0:0:0:0:
256,192,45521,1,0,0:0:0:0:
256,192,45864,1,8,0:0:0:0:
256,192,46549,1,8,0:0:0:0:
256,192,46892,1,8,0:0:0:0:
256,192,47235,1,8,0:0:0:0:
256,192,47749,1,0,0:0:0:0:
256,192,47921,1,8,0:0:0:0:
256,192,48264,1,0,0:0:0:0:
256,192,48606,1,8,0:0:0:0:
256,192,48949,1,0,0:0:0:0:
256,192,49635,1,0,0:0:0:0:
256,192,49978,1,8,0:0:0:0:
256,192,50492,1,0,0:0:0:0:
256,192,50664,1,8,0:0:0:0:
256,192,51006,1,0,0:0:0:0:
256,192,51349,1,8,0:0:0:0:
256,192,52035,1,8,0:0:0:0:
256,192,52378,1,8,0:0:0:0:
256,192,52721,1,8,0:0:0:0:
256,192,53235,1,0,0:0:0:0:
256,192,53406,1,8,0:0:0:0:
256,192,53749,1,0,0:0:0:0:
256,192,54092,1,8,0:0:0:0:
256,192,54264,1,0,0:0:0:0:
256,192,54606,1,0,0:0:0:0:
256,192,55464,1,12,0:0:0:0:
256,192,55978,1,0,0:0:0:0:
256,192,56149,1,8,0:0:0:0:
256,192,56492,1,0,0:0:0:0:
256,192,56835,1,8,0:0:0:0:
256,192,57178,1,0,0:0:0:0:
256,192,57349,1,0,0:0:0:0:
256,192,57521,1,8,0:0:0:0:
256,192,57864,1,0,0:0:0:0:
256,192,58206,1,8,0:0:0:0:
256,192,58892,1,8,0:0:0:0:
256,192,59235,1,0,0:0:0:0:
256,192,59578,1,8,0:0:0:0:
256,192,59749,1,8,0:0:0:0:
256,192,59921,1,0,0:0:0:0:
256,192,60264,1,8,0:0:0:0:
256,192,60606,1,0,0:0:0:0:
256,192,60949,1,8,0:0:0:0:
256,192,61464,1,0,0:0:0:0:
256,192,61635,1,8,0:0:0:0:
256,192,61978,1,0,0:0:0:0:
256,192,62321,1,8,0:0:0:0:
256,192,62664,1,8,0:0:0:0:
256,192,62835,1,0,0:0:0:0:
256,192,63006,1,8,0:0:0:0:
256,192,63349,1,0,0:0:0:0:
256,192,63692,1,8,0:0:0:0:
256,192,64378,1,8,0:0:0:0:
256,192,64721,1,0,0:0:0:0:
256,192,65064,1,8,0:0:0:0:
256,192,65578,1,0,0:0:0:0:
256,192,65749,1,8,0:0:0:0:
256,192,65921,1,8,0:0:0:0:
256,192,66092,1,0,0:0:0:0:
256,192,66435,1,8,0:0:0:0:
256,192,66949,1,0,0:0:0:0:
256,192,67121,1,8,0:0:0:0:
256,192,67464,1,0,0:0:0:0:
256,192,67806,1,8,0:0:0:0:
256,192,68149,1,0,0:0:0:0:
256,192,68321,1,0,0:0:0:0:
256,192,68492,1,8,0:0:0:0:
256,192,68835,1,0,0:0:0:0:
256,192,69178,1,8,0:0:0:0:
256,192,69864,1,8,0:0:0:0:
256,192,70206,1,0,0:0:0:0:
256,192,70549,1,8,0:0:0:0:
256,192,70721,1,8,0:0:0:0:
256,192,70892,1,0,0:0:0:0:
256,192,71235,1,8,0:0:0:0:
256,192,71578,1,0,0:0:0:0:
256,192,71921,1,8,0:0:0:0:
256,192,72435,1,0,0:0:0:0:
256,192,72606,1,8,0:0:0:0:
256,192,72949,1,0,0:0:0:0:
256,192,73292,1,8,0:0:0:0:
256,192,73635,1,8,0:0:0:0:
256,192,73806,1,0,0:0:0:0:
256,192,73978,1,8,0:0:0:0:
256,192,74321,1,0,0:0:0:0:
256,192,74664,1,8,0:0:0:0:
256,192,75349,1,8,0:0:0:0:
256,192,75692,1,0,0:0:0:0:
256,192,76035,1,8,0:0:0:0:
256,192,76549,1,0,0:0:0:0:
256,192,76721,1,0,0:0:0:0:
256,192,76892,1,0,0:0:0:0:
256,192,77064,1,0,0:0:0:0:
256,192,77578,1,8,0:0:0:0:
256,192,79806,1,8,0:0:0:0:
256,192,80321,1,0,0:0:0:0:
256,192,82549,1,4,0:0:0:0:
256,192,83064,1,8,0:0:0:0:
256,192,85292,1,8,0:0:0:0:
256,192,85806,1,0,0:0:0:0:
256,192,86664,1,12,0:0:0:0:
256,192,87178,1,12,0:0:0:0:
256,192,88035,1,4,0:0:0:0:
256,192,88378,1,8,0:0:0:0:
256,192,88892,1,0,0:0:0:0:
256,192,89064,1,8,0:0:0:0:
256,192,89406,1,0,0:0:0:0:
256,192,89749,1,8,0:0:0:0:
256,192,89921,1,0,0:0:0:0:
256,192,90092,1,0,0:0:0:0:
256,192,90435,1,8,0:0:0:0:
256,192,90778,1,0,0:0:0:0:
256,192,91121,1,8,0:0:0:0:
256,192,91806,1,8,0:0:0:0:
256,192,92149,1,0,0:0:0:0:
256,192,92492,1,8,0:0:0:0:
256,192,92835,1,0,0:0:0:0:
256,192,93006,1,0,0:0:0:0:
256,192,93178,1,8,0:0:0:0:
256,192,93349,1,8,0:0:0:0:
256,192,93521,1,0,0:0:0:0:
256,192,93864,1,8,0:0:0:0:
256,192,94378,1,0,0:0:0:0:
256,192,94549,1,8,0:0:0:0:
256,192,94892,1,0,0:0:0:0:
256,192,95235,1,8,0:0:0:0:
256,192,95406,1,8,0:0:0:0:
256,192,95578,1,0,0:0:0:0:
256,192,95921,1,8,0:0:0:0:
256,192,96264,1,0,0:0:0:0:
256,192,96606,1,8,0:0:0:0:
256,192,97292,1,8,0:0:0:0:
256,192,97635,1,0,0:0:0:0:
256,192,97978,1,8,0:0:0:0:
256,192,98149,1,0,0:0:0:0:
256,192,98492,1,8,0:0:0:0:
256,192,98664,1,8,0:0:0:0:
256,192,98835,1,8,0:0:0:0:
256,192,99006,1,0,0:0:0:0:
256,192,99349,1,8,0:0:0:0:
256,192,99864,1,0,0:0:0:0:
256,192,100035,1,8,0:0:0:0:
256,192,100378,1,0,0:0:0:0:
256,192,100721,1,8,0:0:0:0:
256,192,100892,1,0,0:0:0:0:
256,192,101064,1,8,0:0:0:0:
256,192,101406,1,8,0:0:0:0:
256,192,101749,1,0,0:0:0:0:
256,192,102092,1,8,0:0:0:0:
256,192,102778,1,8,0:0:0:0:
256,192,103121,1,0,0:0:0:0:
256,192,103464,1,8,0:0:0:0:
256,192,103806,1,0,0:0:0:0:
256,192,103978,1,8,0:0:0:0:
256,192,104149,1,8,0:0:0:0:
256,192,104321,1,8,0:0:0:0:
256,192,104492,1,0,0:0:0:0:
256,192,104835,1,8,0:0:0:0:
256,192,105349,1,0,0:0:0:0:
256,192,105521,1,8,0:0:0:0:
256,192,105864,1,0,0:0:0:0:
256,192,106206,1,8,0:0:0:0:
256,192,106378,1,8,0:0:0:0:
256,192,106549,1,0,0:0:0:0:
256,192,106892,1,8,0:0:0:0:
256,192,107235,1,0,0:0:0:0:
256,192,107578,1,8,0:0:0:0:
256,192,108264,1,8,0:0:0:0:
256,192,108606,1,0,0:0:0:0:
256,192,108949,1,8,0:0:0:0:
256,192,109121,1,0,0:0:0:0:
256,192,109464,1,8,0:0:0:0:
256,192,109635,1,8,0:0:0:0:
256,192,109978,1,0,0:0:0:0:
256,192,110321,1,0,0:0:0:0:
256,192,110664,1,8,0:0:0:0:
256,192,111178,1,0,0:0:0:0:
256,192,111692,1,0,0:0:0:0:
256,192,112035,1,8,0:0:0:0:
256,192,112721,1,0,0:0:0:0:
256,192,113064,1,0,0:0:0:0:
256,192,113406,1,8,0:0:0:0:
256,192,113921,1,0,0:0:0:0:
256,192,114264,1,0,0:0:0:0:
256,192,114435,1,0,0:0:0:0:
256,192,114778,1,8,0:0:0:0:
256,192,115464,1,0,0:0:0:0:
256,192,115806,1,0,0:0:0:0:
256,192,116149,1,8,0:0:0:0:
256,192,116664,1,0,0:0:0:0:
256,192,117178,1,0,0:0:0:0:
256,192,117521,1,8,0:0:0:0:
256,192,118206,1,0,0:0:0:0:
256,192,118549,1,0,0:0:0:0:
256,192,118892,1,8,0:0:0:0:
256,192,119406,1,0,0:0:0:0:
256,192,119749,1,8,0:0:0:0:
256,192,119921,1,0,0:0:0:0:
256,192,120264,1,8,0:0:0:0:
256,192,120949,1,0,0:0:0:0:
256,192,121635,1,8,0:0:0:0:
256,192,122149,1,8,0:0:0:0:
256,192,122492,1,8,0:0:0:0:
256,192,122664,1,0,0:0:0:0:
256,192,123006,1,8,0:0:0:0:
256,192,123349,1,0,0:0:0:0:
256,192,123692,1,0,0:0:0:0:
256,192,124378,1,8,0:0:0:0:
256,192,124892,1,8,0:0:0:0:
256,192,125235,1,8,0:0:0:0:
256,192,125406,1,0,0:0:0:0:
256,192,126092,1,8,0:0:0:0:
256,192,126435,1,0,0:0:0:0:
256,192,127121,1,8,0:0:0:0:
256,192,127635,1,8,0:0:0:0:
256,192,127978,1,8,0:0:0:0:
256,192,128149,1,0,0:0:0:0:
256,192,128492,1,8,0:0:0:0:
256,192,128835,1,0,0:0:0:0:
256,192,129178,1,0,0:0:0:0:
256,192,129864,1,8,0:0:0:0:
256,192,130378,1,8,0:0:0:0:
256,192,130721,1,8,0:0:0:0:
256,192,130892,1,0,0:0:0:0:
256,192,131406,1,0,0:0:0:0:
256,192,131578,1,8,0:0:0:0:
256,192,131921,1,0,0:0:0:0:
256,192,132435,1,8,0:0:0:0:
256,192,137406,1,0,0:0:0:0:
256,192,137921,1,8,0:0:0:0:
256,192,142892,1,0,0:0:0:0:
256,192,143578,1,8,0:0:0:0:
256,192,144949,1,8,0:0:0:0:
256,192,145635,1,0,0:0:0:0:
256,192,146321,1,8,0:0:0:0:
256,192,146835,1,0,0:0:0:0:
256,192,147692,1,8,0:0:0:0:
256,192,148378,1,0,0:0:0:0:
256,192,149064,1,8,0:0:0:0:
256,192,149578,1,0,0:0:0:0:
256,192,150092,1,0,0:0:0:0:
256,192,150435,1,8,0:0:0:0:
256,192,151121,1,12,0:0:0:0:
256,192,151635,1,12,0:0:0:0:
256,192,152321,1,12,0:0:0:0:
256,192,152835,1,0,0:0:0:0:
256,192,153178,1,8,0:0:0:0:
256,192,153349,1,8,0:0:0:0:
256,192,153521,1,8,0:0:0:0:
256,192,153864,1,4,0:0:0:0:
256,192,154206,1,8,0:0:0:0:
256,192,154721,1,0,0:0:0:0:
256,192,154892,1,8,0:0:0:0:
256,192,155235,1,0,0:0:0:0:
256,192,155578,1,8,0:0:0:0:
256,192,155921,1,0,0:0:0:0:
256,192,156092,1,0,0:0:0:0:
256,192,156264,1,8,0:0:0:0:
256,192,156606,1,0,0:0:0:0:
256,192,156949,1,8,0:0:0:0:
256,192,157635,1,8,0:0:0:0:
256,192,157978,1,0,0:0:0:0:
256,192,158321,1,8,0:0:0:0:
256,192,158492,1,8,0:0:0:0:
256,192,158664,1,0,0:0:0:0:
256,192,159006,1,8,0:0:0:0:
256,192,159349,1,0,0:0:0:0:
256,192,159692,1,8,0:0:0:0:
256,192,160206,1,0,0:0:0:0:
256,192,160378,1,8,0:0:0:0:
256,192,160721,1,0,0:0:0:0:
256,192,161064,1,8,0:0:0:0:
256,192,161406,1,8,0:0:0:0:
256,192,161578,1,0,0:0:0:0:
256,192,161749,1,8,0:0:0:0:
256,192,162092,1,0,0:0:0:0:
256,192,162435,1,8,0:0:0:0:
256,192,163121,1,8,0:0:0:0:
256,192,163464,1,0,0:0:0:0:
256,192,163806,1,8,0:0:0:0:
256,192,164149,1,8,0:0:0:0:
256,192,164321,1,8,0:0:0:0:
256,192,164492,1,0,0:0:0:0:
256,192,165178,1,12,0:0:0:0:
256,192,165692,1,0,0:0:0:0:
256,192,165864,1,8,0:0:0:0:
256,192,166206,1,0,0:0:0:0:
256,192,166549,1,8,0:0:0:0:
256,192,166721,1,0,0:0:0:0:
256,192,166892,1,0,0:0:0:0:
256,192,167235,1,8,0:0:0:0:
256,192,167578,1,0,0:0:0:0:
256,192,167921,1,8,0:0:0:0:
256,192,168606,1,8,0:0:0:0:
256,192,168949,1,0,0:0:0:0:
256,192,169292,1,8,0:0:0:0:
256,192,169635,1,0,0:0:0:0:
256,192,169806,1,8,0:0:0:0:
256,192,169978,1,0,0:0:0:0:
256,192,170149,1,8,0:0:0:0:
256,192,170321,1,0,0:0:0:0:
256,192,170664,1,8,0:0:0:0:
256,192,171178,1,0,0:0:0:0:
256,192,171349,1,8,0:0:0:0:
256,192,171692,1,0,0:0:0:0:
256,192,172035,1,8,0:0:0:0:
256,192,172206,1,8,0:0:0:0:
256,192,172378,1,0,0:0:0:0:
256,192,172721,1,8,0:0:0:0:
256,192,173064,1,0,0:0:0:0:
256,192,173406,1,8,0:0:0:0:
256,192,174092,1,8,0:0:0:0:
256,192,174435,1,0,0:0:0:0:
256,192,174778,1,8,0:0:0:0:
256,192,174949,1,0,0:0:0:0:
256,192,175292,1,8,0:0:0:0:
256,192,175464,1,8,0:0:0:0:
256,192,175635,1,8,0:0:0:0:
256,192,175806,1,0,0:0:0:0:
256,192,176492,1,8,0:0:0:0:
256,192,177006,1,8,0:0:0:0:
256,192,177521,1,0,0:0:0:0:
256,192,177864,1,8,0:0:0:0:
256,192,178549,1,0,0:0:0:0:
256,192,179235,1,8,0:0:0:0:
256,192,179749,1,8,0:0:0:0:
256,192,180264,1,0,0:0:0:0:
256,192,180778,1,8,0:0:0:0:
256,192,180949,1,8,0:0:0:0:
256,192,181292,1,0,0:0:0:0:
256,192,181978,1,8,0:0:0:0:
256,192,182492,1,8,0:0:0:0:
256,192,183006,1,0,0:0:0:0:
256,192,183349,1,8,0:0:0:0:
256,192,184035,1,0,0:0:0:0:
256,192,184721,1,8,0:0:0:0:
256,192,185235,1,8,0:0:0:0:
256,192,185749,1,0,0:0:0:0:
256,192,185921,1,8,0:0:0:0:
256,192,186092,1,0,0:0:0:0:
256,192,186435,1,8,0:0:0:0:
256,192,186778,1,0,0:0:0:0:
256,192,210092,5,0,0:0:0:0:
256,192,210777,1,8,0:0:0:0:
256,192,212149,1,8,0:0:0:0:
256,192,212834,1,0,0:0:0:0:
256,192,213520,1,8,0:0:0:0:
256,192,214549,1,0,0:0:0:0:
256,192,215234,1,8,0:0:0:0:
256,192,215577,1,0,0:0:0:0:
256,192,216263,1,8,0:0:0:0:
256,192,216777,1,8,0:0:0:0:
256,192,217292,1,0,0:0:0:0:
256,192,217634,1,8,0:0:0:0:
256,192,218320,1,0,0:0:0:0:
256,192,219006,1,8,0:0:0:0:
256,192,219520,1,8,0:0:0:0:
256,192,219863,1,8,0:0:0:0:
256,192,220034,1,0,0:0:0:0:
256,192,220377,1,8,0:0:0:0:
256,192,220720,1,8,0:0:0:0:
256,192,221063,1,0,0:0:0:0:
256,192,222435,1,4,0:0:0:0:
256,192,222777,1,8,0:0:0:0:
256,192,223292,1,0,0:0:0:0:
256,192,223463,1,8,0:0:0:0:
256,192,223806,1,0,0:0:0:0:
256,192,224149,1,8,0:0:0:0:
256,192,224320,1,0,0:0:0:0:
256,192,224492,1,0,0:0:0:0:
256,192,224663,1,0,0:0:0:0:
256,192,224835,1,8,0:0:0:0:
256,192,225177,1,0,0:0:0:0:
256,192,225520,1,8,0:0:0:0:
256,192,226206,1,8,0:0:0:0:
256,192,226549,1,0,0:0:0:0:
256,192,226892,1,8,0:0:0:0:
256,192,227235,1,0,0:0:0:0:
256,192,227406,1,0,0:0:0:0:
256,192,227577,1,8,0:0:0:0:
256,192,227749,1,8,0:0:0:0:
256,192,227920,1,0,0:0:0:0:
256,192,228263,1,8,0:0:0:0:
256,192,228777,1,0,0:0:0:0:
256,192,228949,1,8,0:0:0:0:
256,192,229292,1,0,0:0:0:0:
256,192,229635,1,8,0:0:0:0:
256,192,229806,1,8,0:0:0:0:
256,192,229977,1,0,0:0:0:0:
256,192,230149,1,0,0:0:0:0:
256,192,230320,1,8,0:0:0:0:
256,192,230663,1,0,0:0:0:0:
256,192,231006,1,8,0:0:0:0:
256,192,231692,1,8,0:0:0:0:
256,192,232035,1,0,0:0:0:0:
256,192,232377,1,8,0:0:0:0:
256,192,232549,1,0,0:0:0:0:
256,192,232892,1,8,0:0:0:0:
256,192,233063,1,8,0:0:0:0:
256,192,233235,1,8,0:0:0:0:
256,192,233406,1,0,0:0:0:0:
256,192,233749,1,8,0:0:0:0:
256,192,234263,1,0,0:0:0:0:
256,192,234435,1,8,0:0:0:0:
256,192,234777,1,0,0:0:0:0:
256,192,235120,1,8,0:0:0:0:
256,192,235292,1,0,0:0:0:0:
256,192,235463,1,8,0:0:0:0:
256,192,235635,1,0,0:0:0:0:
256,192,235806,1,8,0:0:0:0:
256,192,236149,1,0,0:0:0:0:
256,192,236492,1,8,0:0:0:0:
256,192,237177,1,8,0:0:0:0:
256,192,237520,1,0,0:0:0:0:
256,192,237863,1,8,0:0:0:0:
256,192,238206,1,0,0:0:0:0:
256,192,238377,1,8,0:0:0:0:
256,192,238549,1,8,0:0:0:0:
256,192,238720,1,8,0:0:0:0:
256,192,238892,1,0,0:0:0:0:
256,192,239235,1,8,0:0:0:0:
256,192,239749,1,0,0:0:0:0:
256,192,239920,1,8,0:0:0:0:
256,192,240263,1,0,0:0:0:0:
256,192,240606,1,8,0:0:0:0:
256,192,240777,1,8,0:0:0:0:
256,192,240949,1,0,0:0:0:0:
256,192,241120,1,0,0:0:0:0:
256,192,241292,1,8,0:0:0:0:
256,192,241635,1,0,0:0:0:0:
256,192,241977,1,8,0:0:0:0:
256,192,242663,1,8,0:0:0:0:
256,192,243006,1,0,0:0:0:0:
256,192,243349,1,8,0:0:0:0:
256,192,243520,1,0,0:0:0:0:
256,192,243863,1,0,0:0:0:0:
256,192,244035,1,8,0:0:0:0:
256,192,244377,1,4,0:0:0:0:
256,192,244720,1,8,0:0:0:0:
256,192,245235,1,0,0:0:0:0:
256,192,245406,1,8,0:0:0:0:
256,192,245749,1,0,0:0:0:0:
256,192,246092,1,8,0:0:0:0:
256,192,246435,1,0,0:0:0:0:
256,192,246606,1,0,0:0:0:0:
256,192,246777,1,8,0:0:0:0:
256,192,247120,1,0,0:0:0:0:
256,192,247463,1,8,0:0:0:0:
256,192,248149,1,8,0:0:0:0:
256,192,248492,1,0,0:0:0:0:
256,192,248835,1,8,0:0:0:0:
256,192,249177,1,0,0:0:0:0:
256,192,249349,1,0,0:0:0:0:
256,192,249520,1,8,0:0:0:0:
256,192,249692,1,8,0:0:0:0:
256,192,249863,1,0,0:0:0:0:
256,192,250206,1,8,0:0:0:0:
256,192,250720,1,0,0:0:0:0:
256,192,250892,1,8,0:0:0:0:
256,192,251235,1,0,0:0:0:0:
256,192,251577,1,8,0:0:0:0:
256,192,251920,1,8,0:0:0:0:
256,192,252092,1,0,0:0:0:0:
256,192,252263,1,8,0:0:0:0:
256,192,252606,1,0,0:0:0:0:
256,192,252949,1,8,0:0:0:0:
256,192,253635,1,8,0:0:0:0:
256,192,253977,1,0,0:0:0:0:
256,192,254320,1,8,0:0:0:0:
256,192,254835,1,0,0:0:0:0:
256,192,255006,1,8,0:0:0:0:
256,192,255177,1,8,0:0:0:0:
256,192,255349,1,0,0:0:0:0:
256,192,255692,1,8,0:0:0:0:
256,192,256206,1,0,0:0:0:0:
256,192,256377,1,8,0:0:0:0:
256,192,256720,1,0,0:0:0:0:
256,192,257063,1,8,0:0:0:0:
256,192,257406,1,0,0:0:0:0:
256,192,257577,1,0,0:0:0:0:
256,192,257749,1,8,0:0:0:0:
256,192,258092,1,0,0:0:0:0:
256,192,258435,1,8,0:0:0:0:
256,192,259120,1,8,0:0:0:0:
256,192,259463,1,0,0:0:0:0:
256,192,259806,1,8,0:0:0:0:
256,192,260149,1,0,0:0:0:0:
256,192,260320,1,8,0:0:0:0:
256,192,260492,1,8,0:0:0:0:
256,192,260663,1,8,0:0:0:0:
256,192,260835,1,0,0:0:0:0:
256,192,261177,1,8,0:0:0:0:
256,192,261692,1,0,0:0:0:0:
256,192,261863,1,8,0:0:0:0:
256,192,262206,1,0,0:0:0:0:
256,192,262549,1,8,0:0:0:0:
256,192,262892,1,8,0:0:0:0:
256,192,263063,1,0,0:0:0:0:
256,192,263235,1,8,0:0:0:0:
256,192,263577,1,0,0:0:0:0:
256,192,263920,1,8,0:0:0:0:
256,192,264606,1,8,0:0:0:0:
256,192,264949,1,4,0:0:0:0:
256,192,265463,1,8,0:0:0:0:
256,192,265635,1,8,0:0:0:0:
256,192,265806,1,8,0:0:0:0:
256,192,265977,1,8,0:0:0:0:
256,192,266320,1,0,0:0:0:0:
