osu file format v14

[General]
AudioFilename: audio.mp3
AudioLeadIn: 0
PreviewTime: 169992
Countdown: 0
SampleSet: None
StackLeniency: 0.2
Mode: 0
LetterboxInBreaks: 0
WidescreenStoryboard: 1

[Editor]
Bookmarks: 3964,6224,11361,20403,33554,42389,59855,66430,74649,87800,100951,114101,117389,126635,130540,143691,171636,184786,197937,214375,234101,240677,241498,253827,258656,260403,268622,281773,285471,286293,294923,308074,321225
DistanceSpacing: 1.6
BeatDivisor: 4
GridSize: 32
TimelineZoom: 1

[Metadata]
Title:Engage
TitleUnicode:Engage
Artist:Electro.muster
ArtistUnicode:Electro.muster
Creator:Zunv
Version:Retention
Source:
Tags:GWAVE Taishi Electronic Trance
BeatmapID:1564048
BeatmapSetID:741358

[Difficulty]
HPDrainRate:5
CircleSize:4.3
OverallDifficulty:8
ApproachRate:9
SliderMultiplier:1.8
SliderTickRate:1

[Events]
//Background and Video events
0,0,"bg.png",0,0
//Break Periods
//Storyboard Layer 0 (Background)
//Storyboard Layer 1 (Fail)
//Storyboard Layer 2 (Pass)
//Storyboard Layer 3 (Foreground)
//Storyboard Sound Samples

[TimingPoints]
677,410.958904109589,4,3,1,100,1,0
3964,-133.333333333333,4,3,1,100,0,0
4581,-100,4,3,1,100,0,0
7252,-100,4,3,1,100,0,0
8485,-100,4,3,1,100,0,0
8587,-100,4,3,1,5,0,0
8690,-100,4,3,1,100,0,0
8793,-100,4,3,1,5,0,0
8896,-100,4,3,1,100,0,0
8998,-100,4,3,1,5,0,0
9101,-100,4,3,1,100,0,0
14444,-153.846153846153,4,3,1,100,0,0
15060,-66.6666666666667,4,3,1,100,0,0
15163,-66.6666666666667,4,3,1,5,0,0
15266,-50,4,3,1,100,0,0
15368,-50,4,3,1,5,0,0
15471,-40,4,3,1,100,0,0
15574,-40,4,3,1,5,0,0
15677,-66.6666666666667,4,3,1,100,0,0
17115,-95.2380952380952,4,3,1,100,0,0
17731,-111.111111111111,4,3,1,100,0,0
18553,-133.333333333333,4,3,1,100,0,0
19581,-66.6666666666667,4,3,1,100,0,0
19683,-66.6666666666667,4,3,1,5,0,0
19786,-66.6666666666667,4,3,1,100,0,0
19889,-66.6666666666667,4,3,1,5,0,0
19992,-66.6666666666667,4,3,1,100,0,0
20403,-100,4,3,1,100,0,0
21841,-133.333333333333,4,3,1,100,0,0
23690,-100,4,3,1,100,0,0
25129,-200,4,3,1,100,0,0
25950,-100,4,3,1,100,0,0
28416,-133.333333333333,4,3,1,100,0,0
30266,-100,4,3,1,100,0,0
32320,-100,4,3,1,100,0,0
32423,-100,4,3,1,5,0,0
32526,-100,4,3,1,100,0,0
32629,-100,4,3,1,5,0,0
32731,-50,4,3,1,100,0,0
32834,-50,4,3,1,5,0,0
32937,-50,4,3,1,100,0,0
33040,-50,4,3,1,5,0,0
33142,-50,4,3,1,100,0,0
33245,-50,4,3,1,5,0,0
33348,-50,4,3,1,100,0,0
33450,-50,4,3,1,5,0,0
33553,-66.6666666666667,4,3,1,100,0,0
34992,-100,4,3,1,100,0,0
36841,-66.6666666666667,4,3,1,100,0,0
38485,-100,4,3,1,100,0,0
38587,-100,4,3,1,5,0,0
38690,-100,4,3,1,100,0,0
38793,-100,4,3,1,5,0,0
38896,-50,4,3,1,100,0,0
38998,-50,4,3,1,5,0,0
39101,-33.3333333333333,4,3,1,100,0,0
39204,-33.3333333333333,4,3,1,5,0,0
39307,-25,4,3,1,100,0,0
39409,-25,4,3,1,5,0,0
39512,-100,4,3,1,100,0,0
39820,-100,4,3,1,5,0,0
39923,-100,4,3,1,100,0,0
40026,-100,4,3,1,5,0,0
40129,-50,4,3,1,100,0,0
40540,-66.6666666666667,4,3,1,100,0,0
41259,-66.6666666666667,4,3,1,5,0,0
41361,-66.6666666666667,4,3,1,100,0,0
41464,-66.6666666666667,4,3,1,5,0,0
41567,-66.6666666666667,4,3,1,100,0,0
42389,-50,4,3,1,100,0,0
42492,-50,4,3,1,5,0,0
42594,-50,4,3,1,100,0,0
42697,-50,4,3,1,5,0,0
42800,-50,4,3,1,100,0,0
42903,-50,4,3,1,5,0,0
43005,-50,4,3,1,100,0,0
43108,-50,4,3,1,5,0,0
43211,-50,4,3,1,100,0,0
43416,-100,4,3,1,100,0,0
45471,-50,4,3,1,100,0,0
45574,-50,4,3,1,5,0,0
45676,-50,4,3,1,100,0,0
45779,-50,4,3,1,5,0,0
45882,-50,4,3,1,100,0,0
45985,-50,4,3,1,5,0,0
46087,-50,4,3,1,100,0,0
46190,-50,4,3,1,5,0,0
46293,-50,4,3,1,100,0,0
46396,-50,4,3,1,5,0,0
46498,-50,4,3,1,100,0,0
46601,-50,4,3,1,5,0,0
46704,-200,4,3,1,100,0,0
49992,-133.333333333333,4,3,1,100,0,0
52046,-200,4,3,1,100,0,0
56567,-133.333333333333,4,3,1,100,0,0
59855,-66.6666666666667,4,3,1,100,0,0
60676,-133.333333333333,4,3,1,100,0,0
63964,-129.87012987013,4,3,1,100,0,0
64786,-133.333333333333,4,3,1,100,0,0
69718,-100,4,3,1,100,0,0
71361,-66.6666666666667,4,3,1,100,0,0
71772,-33.3333333333333,4,3,1,100,0,0
72183,-100,4,3,1,100,0,0
74033,-50,4,3,1,100,0,1
75060,-66.6666666666667,4,3,1,100,0,1
75471,-33.3333333333333,4,3,1,100,0,1
75574,-33.3333333333333,4,3,1,5,0,1
75677,-33.3333333333333,4,3,1,100,0,1
75779,-33.3333333333333,4,3,1,5,0,1
75882,-33.3333333333333,4,3,1,100,0,1
77115,-66.6666666666667,4,3,1,100,0,1
77218,-66.6666666666667,4,3,1,5,0,1
77320,-50,4,3,1,100,0,1
77423,-50,4,3,1,5,0,1
77526,-40,4,3,1,100,0,1
77629,-40,4,3,1,5,0,1
77731,-66.6666666666667,4,3,1,100,0,1
80916,-66.6666666666667,4,3,1,5,0,1
81019,-66.6666666666667,4,3,1,100,0,1
81122,-66.6666666666667,4,3,1,5,0,1
81224,-66.6666666666667,4,3,1,100,0,1
82046,-33.3333333333333,4,3,1,100,0,1
82149,-33.3333333333333,4,3,1,5,0,1
82252,-33.3333333333333,4,3,1,100,0,1
82354,-33.3333333333333,4,3,1,5,0,1
82457,-33.3333333333333,4,3,1,100,0,1
83690,-50,4,3,1,100,0,1
83793,-50,4,3,1,5,0,1
83896,-40,4,3,1,100,0,1
83998,-40,4,3,1,5,0,1
84101,-33.3333333333333,4,3,1,100,0,1
84204,-33.3333333333333,4,3,1,5,0,1
84307,-28.5714285714286,4,3,1,100,0,1
84718,-66.6666666666667,4,3,1,100,0,1
85334,-66.6666666666667,4,3,1,100,0,1
85437,-66.6666666666667,4,3,1,5,0,1
85540,-66.6666666666667,4,3,1,100,0,1
85642,-66.6666666666667,4,3,1,5,0,1
85745,-33.3333333333333,4,3,1,100,0,1
85848,-33.3333333333333,4,3,1,5,0,1
85950,-33.3333333333333,4,3,1,100,0,1
86053,-33.3333333333333,4,3,1,5,0,1
86156,-100,4,3,1,100,0,1
87183,-100,4,3,1,100,0,1
87286,-100,4,3,1,5,0,1
87389,-100,4,3,1,100,0,1
87492,-100,4,3,1,5,0,1
87594,-100,4,3,1,100,0,1
87697,-100,4,3,1,5,0,0
87800,-100,4,3,1,100,0,1
88622,-33.3333333333333,4,3,1,100,0,1
88724,-33.3333333333333,4,3,1,5,0,1
88827,-33.3333333333333,4,3,1,100,0,1
88930,-33.3333333333333,4,3,1,5,0,1
89033,-33.3333333333333,4,3,1,100,0,1
89444,-100,4,3,1,100,0,1
90266,-33.3333333333333,4,3,1,100,0,1
90368,-33.3333333333333,4,3,1,5,0,1
90471,-33.3333333333333,4,3,1,100,0,1
90574,-33.3333333333333,4,3,1,5,0,1
90677,-33.3333333333333,4,3,1,100,0,1
91087,-66.6666666666667,4,3,1,100,0,1
92731,-61.7283950617284,4,3,1,100,0,1
93964,-66.6666666666667,4,3,1,100,0,1
94067,-66.6666666666667,4,3,1,5,0,1
94170,-50,4,3,1,100,0,1
94272,-50,4,3,1,5,0,1
94375,-100,4,3,1,100,0,1
95197,-100,4,3,1,100,0,1
95300,-100,4,3,1,5,0,1
95403,-50,4,3,1,100,0,1
95505,-100,4,3,1,5,0,1
95608,-100,4,3,1,100,0,1
96430,-50,4,3,1,100,0,1
96533,-50,4,3,1,5,0,1
96635,-40,4,3,1,100,0,1
96738,-40,4,3,1,5,0,1
96841,-54.054054054054,4,3,1,100,0,1
98485,-108.695652173913,4,3,1,100,0,1
99101,-54.054054054054,4,3,1,100,0,1
99923,-108.695652173913,4,3,1,100,0,1
100950,-108.695652173913,4,3,1,100,0,0
103622,-200,4,3,1,100,0,0
104238,-100,4,3,1,100,0,0
105060,-100,4,3,1,100,0,0
105163,-100,4,3,1,5,0,0
105266,-100,4,3,1,100,0,0
105368,-100,4,3,1,5,0,0
105471,-100,4,3,1,100,0,0
105574,-100,4,3,1,5,0,0
105676,-100,4,3,1,100,0,0
107526,-66.6666666666667,4,3,1,100,0,0
110813,-100,4,3,1,100,0,0
114101,-66.6666666666667,4,3,1,100,0,0
114718,-100,4,3,1,100,0,0
117389,-80,4,3,1,100,0,0
118827,-133.333333333333,4,3,1,100,0,0
121498,-100,4,3,1,100,0,0
122115,-133.333333333333,4,3,1,100,0,0
122937,-100,4,3,1,100,0,0
123142,-100,4,3,1,100,0,0
123245,-100,4,3,1,5,0,0
123348,-100,4,3,1,100,0,0
123450,-100,4,3,1,5,0,0
123553,-100,4,3,1,100,0,0
123656,-100,4,3,1,5,0,0
123759,-100,4,3,1,100,0,0
123861,-100,4,3,1,5,0,0
123964,-133.333333333333,4,3,1,100,0,0
124786,-200,4,3,1,100,0,0
126430,-133.333333333333,4,3,1,100,0,0
127252,-100,4,3,1,100,0,0
130129,-50,4,3,1,100,0,0
130231,-50,4,3,1,5,0,0
130334,-50,4,3,1,100,0,0
130437,-50,4,3,1,5,0,0
130540,-50,4,3,1,100,0,0
131978,-100,4,3,1,100,0,0
135471,-100,4,3,1,100,0,0
135574,-100,4,3,1,5,0,0
135677,-100,4,3,1,100,0,0
135779,-100,4,3,1,5,0,0
135882,-50,4,3,1,100,0,0
135985,-50,4,3,1,5,0,0
136087,-50,4,3,1,100,0,0
136190,-50,4,3,1,5,0,0
136293,-33.3333333333333,4,3,1,100,0,0
136396,-33.3333333333333,4,3,1,5,0,0
136498,-33.3333333333333,4,3,1,100,0,0
136601,-33.3333333333333,4,3,1,5,0,0
136704,-25,4,3,1,100,0,0
136807,-25,4,3,1,5,0,0
136909,-25,4,3,1,100,0,0
137012,-25,4,3,1,5,0,0
137115,-50,4,3,1,100,0,0
138245,-50,4,3,1,5,0,0
138348,-50,4,3,1,100,0,0
138450,-50,4,3,1,5,0,0
138553,-66.6666666666667,4,3,1,100,0,0
139581,-37.593984962406,4,3,1,100,0,0
139683,-37.593984962406,4,3,1,5,0,0
139783,-37.593984962406,4,3,1,100,0,0
139889,-37.593984962406,4,3,1,5,0,0
139992,-25.974025974026,4,3,1,100,0,0
140094,-25.974025974026,4,3,1,5,0,0
140197,-25.974025974026,4,3,1,100,0,0
140300,-25.974025974026,4,3,1,5,0,0
140403,-52.0833333333333,4,3,1,100,0,0
141841,-100,4,3,1,100,0,0
142868,-50,4,3,1,100,0,0
142971,-50,4,3,1,5,0,0
143074,-50,4,3,1,100,0,0
143177,-50,4,3,1,5,0,0
143279,-33.3333333333333,4,3,1,100,0,0
143382,-33.3333333333333,4,3,1,5,0,0
143485,-33.3333333333333,4,3,1,100,0,0
143587,-33.3333333333333,4,3,1,5,0,0
143690,-100,4,3,1,100,0,0
150677,-80,4,3,1,100,0,0
154992,-160,4,3,1,100,0,0
156841,-66.6666666666667,4,3,1,100,0,0
163108,-66.6666666666667,4,3,1,5,0,0
163211,-66.6666666666667,4,3,1,100,0,0
163313,-66.6666666666667,4,3,1,5,0,0
163416,-66.6666666666667,4,3,1,100,0,0
163827,-133.333333333333,4,3,1,100,0,0
169992,-100,4,3,1,100,0,0
170608,-66.6666666666667,4,3,1,100,0,1
172457,-33.3333333333333,4,3,1,100,0,1
172560,-33.3333333333333,4,3,1,5,0,1
172663,-33.3333333333333,4,3,1,100,0,1
172765,-33.3333333333333,4,3,1,5,0,1
172868,-33.3333333333333,4,3,1,100,0,1
174101,-33.3333333333333,4,3,1,100,0,1
174204,-33.3333333333333,4,3,1,5,0,1
174307,-33.3333333333333,4,3,1,100,0,1
174409,-33.3333333333333,4,3,1,5,0,1
174512,-33.3333333333333,4,3,1,100,0,1
174923,-66.6666666666667,4,3,1,100,0,1
177800,-33.3333333333333,4,3,1,100,0,1
177903,-33.3333333333333,4,3,1,5,0,1
178006,-33.3333333333333,4,3,1,100,0,1
178108,-33.3333333333333,4,3,1,5,0,1
178211,-33.3333333333333,4,3,1,100,0,1
179033,-33.3333333333333,4,3,1,100,0,1
179136,-33.3333333333333,4,3,1,5,0,1
179239,-33.3333333333333,4,3,1,100,0,1
179341,-33.3333333333333,4,3,1,5,0,1
179444,-33.3333333333333,4,3,1,100,0,1
180677,-33.3333333333333,4,3,1,100,0,1
180780,-33.3333333333333,4,3,1,5,0,1
180883,-33.3333333333333,4,3,1,100,0,1
180985,-33.3333333333333,4,3,1,5,0,1
181087,-33.3333333333333,4,3,1,100,0,1
182320,-66.6666666666667,4,3,1,100,0,1
182423,-66.6666666666667,4,3,1,5,0,1
182526,-66.6666666666667,4,3,1,100,0,1
182628,-66.6666666666667,4,3,1,5,0,1
182731,-33.3333333333333,4,3,1,100,0,1
182834,-33.3333333333333,4,3,1,5,0,1
182936,-33.3333333333333,4,3,1,100,0,1
183039,-33.3333333333333,4,3,1,5,0,1
183142,-43.4782608695652,4,3,1,100,0,1
183450,-87.719298245614,4,3,1,100,0,1
183759,-43.859649122807,4,3,1,100,0,1
184375,-33.3333333333333,4,3,1,100,0,1
184478,-33.3333333333333,4,3,1,5,0,1
184581,-33.3333333333333,4,3,1,100,0,1
184683,-33.3333333333333,4,3,1,5,0,0
184786,-33.3333333333333,4,3,1,100,0,1
185608,-33.3333333333333,4,3,1,100,0,1
185711,-33.3333333333333,4,3,1,5,0,1
185814,-33.3333333333333,4,3,1,100,0,1
185916,-33.3333333333333,4,3,1,5,0,1
186019,-33.3333333333333,4,3,1,100,0,1
187252,-33.3333333333333,4,3,1,100,0,1
187355,-33.3333333333333,4,3,1,5,0,1
187458,-33.3333333333333,4,3,1,100,0,1
187560,-33.3333333333333,4,3,1,5,0,1
187663,-33.3333333333333,4,3,1,100,0,1
188074,-66.6666666666667,4,3,1,100,0,1
189718,-81.3008130081301,4,3,1,100,0,1
190950,-33.3333333333333,4,3,1,100,0,1
191053,-33.3333333333333,4,3,1,5,0,1
191156,-33.3333333333333,4,3,1,100,0,1
191258,-33.3333333333333,4,3,1,5,0,1
191361,-66.6666666666667,4,3,1,100,0,1
192183,-33.3333333333333,4,3,1,100,0,1
192286,-33.3333333333333,4,3,1,5,0,1
192389,-33.3333333333333,4,3,1,100,0,1
192491,-33.3333333333333,4,3,1,5,0,1
192594,-33.3333333333333,4,3,1,100,0,1
193416,-33.3333333333333,4,3,1,100,0,1
193519,-33.3333333333333,4,3,1,5,0,1
193622,-33.3333333333333,4,3,1,100,0,1
193724,-33.3333333333333,4,3,1,5,0,1
193827,-66.6666666666667,4,3,1,100,0,1
195471,-133.333333333333,4,3,1,100,0,1
196087,-66.6666666666667,4,3,1,100,0,1
196909,-133.333333333333,4,3,1,100,0,1
197937,-133.333333333333,4,3,1,100,0,0
198348,-86.9565217391303,4,3,1,100,0,0
199067,-57.1428571428571,4,3,1,100,0,0
199375,-64.5161290322581,4,3,1,100,0,0
200403,-64.5161290322581,4,3,1,100,0,0
200608,-196.078431372549,4,3,1,100,0,0
201019,-125,4,3,1,100,0,0
204512,-58.8235294117647,4,3,1,100,0,0
205540,-83.3333333333333,4,3,1,100,0,0
206156,-58.8235294117647,4,3,1,100,0,0
206361,-83.3333333333333,4,3,1,100,0,0
241087,-83.3333333333333,4,3,1,60,0,0
252183,-166.666666666667,4,3,1,100,0,0
253827,-200,4,3,1,100,0,0
259581,-100,4,3,1,100,0,0
266053,-370.37037037037,4,3,1,100,0,0
266156,-55.5555555555556,4,3,1,100,0,0
268827,-100,4,3,1,100,0,0
269444,-200,4,3,1,100,0,0
270471,-100,4,3,1,100,0,0
271087,-200,4,3,1,100,0,0
272115,-50,4,3,1,100,0,0
272218,-50,4,3,1,5,0,0
272320,-50,4,3,1,100,0,0
272423,-50,4,3,1,5,0,0
272526,-100,4,3,1,100,0,0
274889,-100,4,3,1,5,0,0
274992,-100,4,3,1,100,0,0
275094,-100,4,3,1,5,0,0
275197,-100,4,3,1,100,0,0
278690,-50,4,3,1,100,0,0
278793,-50,4,3,1,10,0,0
278896,-50,4,3,1,100,0,0
278998,-50,4,3,1,5,0,0
279101,-50,4,3,1,100,0,0
279718,-50,4,3,1,100,0,0
279820,-50,4,3,1,5,0,0
279923,-50,4,3,1,100,0,0
280026,-50,4,3,1,5,0,0
280129,-100,4,3,1,100,0,0
280540,-50,4,3,1,100,0,0
281361,-33.3333333333333,4,3,1,100,0,0
281464,-33.3333333333333,4,3,1,5,0,0
281567,-33.3333333333333,4,3,1,100,0,0
281670,-33.3333333333333,4,3,1,5,0,0
281772,-50,4,3,1,100,0,1
282594,-33.3333333333333,4,3,1,100,0,1
282697,-33.3333333333333,4,3,1,5,0,1
282800,-33.3333333333333,4,3,1,100,0,1
282903,-33.3333333333333,4,3,1,5,0,1
283005,-33.3333333333333,4,3,1,100,0,1
284238,-33.3333333333333,4,3,1,100,0,1
284341,-33.3333333333333,4,3,1,5,0,1
284444,-33.3333333333333,4,3,1,100,0,1
284546,-33.3333333333333,4,3,1,5,0,1
284649,-33.3333333333333,4,3,1,100,0,1
285266,-100,4,3,1,100,0,1
287937,-50,4,3,1,100,0,1
288040,-50,4,3,1,5,0,1
288142,-40,4,3,1,100,0,1
288245,-40,4,3,1,5,0,1
288348,-40,4,3,1,100,0,1
288553,-40,4,3,1,100,0,1
288656,-40,4,3,1,5,0,1
288759,-40,4,3,1,100,0,1
288861,-40,4,3,1,5,0,1
288964,-40,4,3,1,100,0,1
289067,-40,4,3,1,5,0,1
289170,-33.3333333333333,4,3,1,100,0,1
289272,-33.3333333333333,4,3,1,5,0,1
289375,-33.3333333333333,4,3,1,100,0,1
289478,-33.3333333333333,4,3,1,5,0,1
289581,-33.3333333333333,4,3,1,100,0,1
290403,-50,4,3,1,100,0,1
290505,-50,4,3,1,5,0,1
290608,-50,4,3,1,100,0,1
290711,-50,4,3,1,5,0,1
290813,-33.3333333333333,4,3,1,100,0,1
290916,-33.3333333333333,4,3,1,5,0,1
291019,-33.3333333333333,4,3,1,100,0,1
291122,-33.3333333333333,4,3,1,5,0,1
291224,-33.3333333333333,4,3,1,100,0,1
293896,-100,4,3,1,100,0,0
306224,-200,4,3,1,100,0,0
308074,-100,4,3,1,100,0,0
318348,-100,4,3,1,100,0,0
319581,-200,4,3,1,100,0,0

[Colours]
Combo1 : 114,238,91
Combo2 : 105,39,158
Combo3 : 88,129,78
Combo4 : 167,37,47
Combo5 : 198,174,6
Combo6 : 12,241,230

[HitObjects]
61,83,3553,6,0,L|61:128,1,45
9,182,3759,2,0,L|31:221,1,45
14,294,3964,6,0,P|78:283|107:225,1,135.000005149842,12|8,1:2|0:0,0:0:0:0:
167,354,4581,2,0,B|203:376|203:376|250:385,1,90,0|0,0:2|0:0,0:0:0:0:
433,332,4992,2,0,B|397:354|397:354|350:363,1,90,0|8,0:0|0:0,0:0:0:0:
290,207,5403,1,0,0:0:0:0:
367,275,5608,2,0,L|351:363,1,90
290,207,6019,1,0,0:0:0:0:
418,0,6224,70,0,L|387:177,1,180
433,332,6841,5,8,0:0:0:0:
290,207,7046,1,0,0:0:0:0:
151,321,7252,2,0,L|238:305,1,90
469,263,7663,1,8,0:0:0:0:
157,195,7868,2,0,P|158:279|238:304,1,180
420,348,8485,70,0,L|372:348,1,45,8|0,0:0|0:0,0:0:0:0:
324,354,8690,2,0,L|372:354,1,45
471,342,8896,2,0,L|423:342,1,45
273,360,9101,2,0,L|363:360,1,90,0|8,0:0|0:0,0:0:0:0:
480,262,9512,6,0,P|485:240|485:218,1,45
453,132,9718,2,0,P|479:168|491:211,1,90
426,342,10129,2,0,P|456:309|473:268,1,90,8|0,0:0|0:0,0:0:0:0:
447,138,10540,70,0,P|364:122|354:38,1,180,4|8,0:2|0:0,0:0:0:0:
312,232,11156,2,0,L|304:276,1,45
314,181,11361,2,0,L|298:269,1,90
249,384,11772,2,0,P|213:356|191:317,1,90,8|0,0:0|0:0,0:0:0:0:
168,139,12183,5,0,0:0:0:0:
168,139,12389,2,0,P|177:160|190:178,1,45
279,224,12594,2,0,P|236:212|202:183,1,90,8|0,0:0|0:0,0:0:0:0:
157,88,13005,2,0,P|161:133|184:172,1,90
265,212,13416,2,0,P|309:211|350:192,1,90,8|0,0:0|0:0,0:0:0:0:
397,90,13827,1,0,0:0:0:0:
282,105,14033,1,0,0:0:0:0:
369,313,14238,1,8,0:0:0:0:
350,192,14444,70,0,L|368:308,1,116.999994644165
375,381,15060,6,0,L|332:328,1,67.5000025749208,8|0,0:0|0:0,0:0:0:0:
375,381,15266,70,0,B|403:319|403:319|360:267,1,90
375,381,15471,6,0,B|332:328|332:328|362:267,1,112.5
375,384,15677,69,0,0:0:0:0:
339,110,15882,1,8,0:0:0:0:
218,207,16087,2,0,L|287:197,1,67.5000025749208
418,177,16293,1,0,0:0:0:0:
87,200,16498,1,0,0:0:0:0:
264,329,16704,1,8,0:0:0:0:
218,207,16909,1,0,0:0:0:0:
192,294,17115,6,0,P|280:274|305:188,1,188.999994232178,4|0,0:0|0:0,0:0:0:0:
245,125,17731,70,0,P|298:235|190:289,1,242.999992584229
180,132,18553,6,0,P|129:212|188:287,1,202.500007724762
180,132,19375,69,0,0:0:0:0:
218,208,19581,2,8,L|275:171,1,67.5000025749208
267,100,19786,2,8,L|280:165,1,67.5000025749208
219,214,19992,2,8,B|276:177|276:177|262:112,1,135.000005149842
174,311,20403,21,4,0:0:0:0:
219,214,20608,1,0,0:0:0:0:
4,259,20813,2,0,L|92:240,1,90
59,20,21224,1,0,0:0:0:0:
85,127,21430,1,0,0:0:0:0:
302,182,21635,1,0,0:0:0:0:
192,152,21841,70,0,P|254:77|352:80,1,202.500007724762
352,80,22663,1,0,0:0:0:0:
407,297,22868,1,0,0:0:0:0:
379,188,23074,1,0,0:0:0:0:
162,243,23279,1,0,0:0:0:0:
271,215,23485,1,0,0:0:0:0:
18,134,23690,6,0,L|161:242,1,180
107,24,24307,69,0,0:0:0:0:
161,242,24512,2,0,L|136:143,1,90
107,24,24923,1,0,0:0:0:0:
139,155,25129,6,0,L|107:24,1,135.000005149842
106,23,25950,1,0,0:0:0:0:
50,238,26156,1,0,0:0:0:0:
78,130,26361,1,0,0:0:0:0:
295,185,26567,1,0,0:0:0:0:
187,157,26772,1,0,0:0:0:0:
403,213,26978,70,0,B|377:224|377:224|400:166,1,90,2|0,0:0|0:0,0:0:0:0:
433,83,27389,6,0,B|397:172,1,90
350,334,27800,1,0,0:0:0:0:
307,231,28005,1,0,0:0:0:0:
100,317,28211,1,0,0:0:0:0:
203,273,28416,70,0,P|129:208|33:225,1,202.500007724762
33,225,29238,1,0,0:0:0:0:
121,12,29444,1,0,0:0:0:0:
77,118,29649,1,0,0:0:0:0:
306,22,29855,1,0,0:0:0:0:
192,69,30060,1,0,0:0:0:0:
443,173,30266,6,0,L|276:104,1,180
490,287,30882,1,0,0:0:0:0:
396,59,31087,1,0,0:0:0:0:
443,173,31293,1,0,0:0:0:0:
215,267,31498,1,0,0:0:0:0:
329,220,31704,2,0,P|269:154|182:145,1,180
221,310,32320,70,8,L|214:266,1,45
207,222,32526,2,8,L|214:266,1,45
126,281,32731,6,4,L|214:265,1,90
303,249,32937,2,4,L|214:264,1,90
37,296,33142,2,4,L|125:280,1,90
391,233,33348,2,4,L|303:249,1,90
37,170,33553,37,6,0:0:0:0:
301,249,33759,1,0,0:0:0:0:
311,117,33964,2,0,B|294:183|294:183|301:249,1,135.000005149842,8|0,0:0|0:0,0:0:0:0:
512,384,34375,1,0,0:0:0:0:
381,167,34581,1,0,0:0:0:0:
369,343,34786,2,0,L|386:277,1,67.5000025749208,8|0,0:0|0:0,0:0:0:0:
381,167,34992,38,0,B|392:257|392:257|368:343,1,180
381,167,35608,1,8,0:0:0:0:
367,343,35813,1,0,0:0:0:0:
324,96,36019,1,0,0:0:0:0:
391,256,36224,1,0,0:0:0:0:
442,0,36430,1,8,0:0:0:0:
381,167,36635,1,0,0:0:0:0:
457,77,36841,38,0,L|323:95,1,135.000005149842
15,132,37252,1,8,0:0:0:0:
291,180,37457,38,0,L|224:170,1,67.5000025749208
90,151,37663,2,0,L|223:170,1,135.000005149842
469,205,38074,1,8,0:0:0:0:
291,180,38279,1,0,0:0:0:0:
449,116,38485,38,0,L|459:161,1,45
479,249,38690,2,0,L|469:205,1,45
440,74,38896,38,0,L|459:161,1,90,8|0,0:0|0:0,0:0:0:0:
487,292,39101,2,0,L|459:161,1,135.000005149842
430,29,39307,38,8,L|469:205,1,180
499,334,39512,1,8,0:0:0:0:
430,29,39718,38,4,L|440:73,1,45,12|4,0:0|0:0,0:0:0:0:
468,204,39923,2,4,L|478:160,1,45
507,28,40129,38,0,L|468:204,1,180,4|0,0:0|0:0,0:0:0:0:
271,98,40540,2,0,B|326:136|326:136|392:145,1,135.000005149842,8|0,0:0|0:0,0:0:0:0:
252,15,40950,1,0,0:0:0:0:
224,168,41156,2,0,P|200:144|187:113,1,67.5000025749208
318,26,41361,2,0,P|286:14|252:15,1,67.5000025749208,8|0,0:0|0:0,0:0:0:0:
224,168,41567,2,0,P|199:50|318:26,1,270.000010299683
507,28,42183,37,8,0:0:0:0:
224,168,42389,1,0,0:0:0:0:
319,27,42594,1,0,0:0:0:0:
143,208,42800,2,0,L|223:168,1,90
304,128,43005,2,0,L|223:168,1,90,8|0,0:0|0:0,0:0:0:0:
143,208,43211,1,0,0:0:0:0:
304,128,43416,38,0,L|143:208,1,180,0|8,0:0|0:0,0:0:0:0:
143,208,44033,1,0,0:0:0:0:
180,71,44238,1,0,0:0:0:0:
8,244,44444,1,0,0:0:0:0:
244,307,44649,1,8,0:0:0:0:
14,81,44855,2,0,L|143:208,1,180
405,201,45471,2,0,B|376:180|318:192|318:192|272:200|230:183,1,180
230,183,45882,38,8,P|273:194|318:192,1,90
406,201,46087,2,8,P|362:189|318:192,1,90
141,173,46293,2,4,P|186:171|230:183,1,90
494,204,46498,2,4,P|449:209|406:201,1,90
52,169,46704,1,6,0:0:0:0:
52,169,47320,21,0,0:0:0:0:
43,315,47526,2,0,B|59:225|129:270|141:173,1,180
140,174,48759,1,8,0:0:0:0:
128,324,49170,2,0,L|222:307,1,90
384,274,49786,1,8,0:0:0:0:
286,236,49992,6,0,P|328:184|392:170,1,135.000005149842,8|0,0:0|0:0,0:0:0:0:
384,274,50608,1,8,0:0:0:0:
286,236,50813,2,0,B|184:217|235:138|126:126,1,202.500007724762
127,127,51635,69,0,0:0:0:0:
111,320,52046,1,0,0:0:0:0:
286,236,52457,2,0,L|293:191,1,45
309,103,52868,1,0,0:0:0:0:
271,325,53074,1,8,0:0:0:0:
324,14,53279,6,0,L|309:103,1,90,4|0,0:0|0:0,0:0:0:0:
294,192,53896,1,8,0:0:0:0:
226,134,54101,70,0,B|174:212|246:234|187:315,1,180
193,305,55334,1,8,0:0:0:0:
382,176,55745,2,0,L|287:192,1,90
126,226,56361,1,8,0:0:0:0:
223,263,56567,6,0,P|180:314|116:328,1,135.000005149842,4|0,0:0|0:0,0:0:0:0:
126,226,57183,1,8,0:0:0:0:
223,263,57389,2,0,B|324:244|273:165|382:153,1,202.500007724762
382,153,58211,1,0,0:0:0:0:
223,263,58622,1,8,0:0:0:0:
206,69,59033,2,0,L|195:136,1,67.5000025749208
183,202,59444,1,8,0:0:0:0:
206,69,59649,1,0,0:0:0:0:
171,268,59855,70,0,L|195:136,1,135.000005149842,6|0,0:0|0:0,0:0:0:0:
206,69,60266,1,0,0:0:0:0:
158,338,60471,1,8,0:0:0:0:
219,2,60676,6,0,L|195:134,1,135.000005149842
158,338,61293,1,0,0:0:0:0:
351,265,61498,2,0,L|284:252,1,67.5000025749208
72,212,61909,2,0,L|138:199,1,67.5000025749208,8|0,0:0|0:0,0:0:0:0:
483,241,62320,70,0,L|351:265,1,135.000005149842
483,241,62937,1,8,0:0:0:0:
230,290,63142,2,0,L|254:158,1,135.000005149842,4|0,0:0|0:0,0:0:0:0:
277,25,63759,1,8,0:0:0:0:
242,223,63964,2,0,P|188:150|275:93,1,207.899995876007
331,103,64786,6,0,L|262:90,1,67.5000025749208
198,79,65197,2,0,L|266:91,1,67.5000025749208,8|0,0:0|0:0,0:0:0:0:
331,103,65608,1,0,0:0:0:0:
198,79,65813,2,0,L|131:66,1,67.5000025749208
331,103,66224,1,8,0:0:0:0:
64,51,66430,69,6,0:0:0:0:
382,369,66841,1,0,0:0:0:0:
331,102,67252,1,0,0:0:0:0:
64,51,67663,1,0,0:0:0:0:
115,318,68074,5,0,0:0:0:0:
331,102,68485,1,0,0:0:0:0:
382,369,68896,1,0,0:0:0:0:
115,318,69307,1,0,0:0:0:0:
331,102,69718,70,0,L|301:209,1,90,4|0,0:0|0:0,0:0:0:0:
115,318,70129,2,0,L|139:231,1,90
187,57,70540,1,4,0:0:0:0:
306,188,70745,1,0,0:0:0:0:
115,318,70950,1,0,0:0:0:0:
187,57,71156,1,0,0:0:0:0:
433,221,71361,6,0,L|368:202,1,67.5000025749208,4|0,0:0|0:0,0:0:0:0:
176,224,71567,2,0,L|240:205,1,67.5000025749208
498,239,71772,2,0,L|368:202,1,135.000005149842
111,242,71978,2,0,L|240:205,1,135.000005149842
435,151,72183,70,0,P|470:52|378:102,1,270
305,330,73005,1,0,0:0:0:0:
369,203,73211,1,0,0:0:0:0:
180,266,73416,2,0,L|223:253,1,45
93,158,73622,2,0,L|133:176,1,45
380,290,73827,1,0,0:0:0:0:
380,290,74033,6,0,P|365:247|369:203,1,90
426,135,74238,2,0,P|369:201|379:288,1,180
468,0,74649,53,6,0:0:0:0:
368,203,74855,1,0,0:0:0:0:
268,0,75060,2,0,L|327:121,1,135.000005149842,8|0,0:0|0:0,0:0:0:0:
438,368,75471,70,0,P|383:328|319:307,1,135.000005149842
201,247,75677,2,0,P|255:286|319:307,1,135.000005149842
438,368,75882,2,0,B|401:331|354:294|280:319|238:283|200:245,1,270.000010299683,8|0,0:0|0:0,0:0:0:0:
140,128,76293,5,0,0:0:0:0:
201,247,76498,1,0,0:0:0:0:
380,68,76704,1,8,0:0:0:0:
319,187,76909,1,0,0:0:0:0:
140,7,77115,70,0,P|138:42|154:70,1,67.5000025749208
139,7,77320,6,0,P|183:8|214:40,1,90
140,7,77526,70,0,P|147:61|194:87,1,112.5,8|0,0:0|0:0,0:0:0:0:
217,84,77731,1,0,0:0:0:0:
0,0,77937,5,0,0:0:0:0:
82,113,78142,2,0,L|70:179,1,67.5000025749208
59,245,78348,2,0,L|82:112,1,135.000005149842,8|0,0:0|0:0,0:0:0:0:
47,311,78759,1,0,0:0:0:0:
82,111,78965,1,0,0:0:0:0:
161,384,79170,1,8,0:0:0:0:
175,248,79375,1,0,0:0:0:0:
289,319,79581,70,0,P|282:204|175:248,1,270.000010299683,0|8,0:0|0:0,0:0:0:0:
289,319,80197,1,0,0:0:0:0:
155,332,80403,2,0,P|222:328|289:319,1,135.000005149842
354,303,80813,2,8,P|321:312|288:319,1,67.5000025749208
88,329,81019,2,8,P|121:332|155:332,1,67.5000025749208
444,261,81224,5,6,0:0:0:0:
289,319,81430,1,0,0:0:0:0:
351,84,81635,2,0,L|315:214,1,135.000005149842,8|0,0:0|0:0,0:0:0:0:
219,79,82046,70,0,B|236:143|236:143|218:211,1,135.000005149842
289,319,82252,2,0,B|238:274|238:274|218:209,1,135.000005149842
219,79,82457,2,0,B|236:143|236:143|218:209|218:209|238:274|238:274|306:334,1,270.000010299683,8|0,0:0|0:0,0:0:0:0:
141,384,82868,5,0,0:0:0:0:
0,308,83074,1,0,0:0:0:0:
289,319,83279,1,8,0:0:0:0:
151,251,83485,1,0,0:0:0:0:
434,255,83690,70,0,P|388:254|346:239,1,90
434,256,83896,6,0,P|383:232|327:227,1,112.5
434,255,84101,70,0,P|367:248|310:212,1,135.000005149842,8|0,0:0|0:0,0:0:0:0:
283,236,84307,1,0,0:0:0:0:
512,384,84512,5,0,0:0:0:0:
434,255,84718,2,0,B|421:225|421:225|419:191,1,67.5000025749208
434,126,84923,2,0,B|420:156|420:156|420:220|420:220|441:270,1,135.000005149842,8|0,0:0|0:0,0:0:0:0:
351,329,85334,70,0,P|326:350|298:370,1,67.5000025749208
246,328,85540,2,0,P|271:351|299:370,1,67.5000025749208
417,213,85745,2,0,P|391:274|350:329,1,135.000005149842,8|0,0:0|0:0,0:0:0:0:
179,211,85950,2,0,P|205:273|245:327,1,135.000005149842,8|0,0:0|0:0,0:0:0:0:
433,125,86156,6,0,P|417:213|378:294,1,180,12|0,0:0|0:0,0:0:0:0:
164,124,86772,2,0,P|167:168|179:212,1,90,8|0,0:0|0:0,0:0:0:0:
195,255,87183,70,0,P|187:234|180:213,1,45
166,79,87389,2,0,P|164:101|164:124,1,45,8|0,0:0|0:0,0:0:0:0:
180,213,87594,2,0,P|173:191|169:169,1,45,8|0,0:0|0:0,0:0:0:0:
179,35,87800,5,6,0:0:0:0:
20,155,88005,1,0,0:0:0:0:
316,185,88211,1,8,0:0:0:0:
169,169,88416,1,0,0:0:0:0:
461,197,88622,70,0,P|461:265|410:310,1,135.000005149842
308,252,88827,2,0,P|349:302|415:309,1,135.000005149842
461,197,89033,2,0,P|415:307|308:252,1,270.000010299683,8|0,0:0|0:0,0:0:0:0:
310,117,89444,5,0,0:0:0:0:
308,252,89649,2,0,L|308:206,1,45
310,117,89855,2,0,L|308:207,1,90,8|0,0:0|0:0,0:0:0:0:
460,310,90266,70,0,L|512:185,1,135.000005149842
460,60,90471,2,0,L|512:184,1,135.000005149842
460,310,90677,2,0,B|512:185|512:185|459:60,1,270.000010299683,8|0,0:0|0:0,0:0:0:0:
422,384,91087,5,0,0:0:0:0:
372,194,91293,2,0,L|346:257,1,67.5000025749208
372,318,91498,2,0,B|346:261|346:261|372:194,1,135.000005149842,8|0,0:0|0:0,0:0:0:0:
272,384,91909,1,0,0:0:0:0:
347,259,92115,1,0,0:0:0:0:
114,373,92320,1,8,0:0:0:0:
38,248,92526,1,0,0:0:0:0:
347,259,92731,70,0,B|205:248|205:248|271:383,1,291.600007119141,0|8,0:0|0:0,0:0:0:0:
347,259,93347,1,0,0:0:0:0:
271,383,93553,2,0,L|347:259,1,145.80000355957
485,26,93964,6,0,L|447:88,1,67.5000025749208,8|0,0:0|0:0,0:0:0:0:
485,26,94170,2,0,L|437:105,1,90
347,259,94375,69,6,0:0:0:0:
438,102,94581,1,0,0:0:0:0:
166,259,94786,1,8,0:0:0:0:
257,102,94992,1,0,0:0:0:0:
399,369,95197,2,0,L|405:324,1,45
438,102,95403,2,0,L|425:191,1,90
399,369,95608,6,0,L|411:279,1,90,8|0,0:0|0:0,0:0:0:0:
451,13,96019,1,0,0:0:0:0:
425,191,96224,1,0,0:0:0:0:
268,59,96430,6,0,P|248:101|245:143,1,90,8|0,0:0|0:0,0:0:0:0:
411,279,96635,6,0,P|349:276|305:255,1,112.5
268,59,96841,70,0,P|266:216|411:279,1,332.999998729706,0|8,0:0|0:0,0:0:0:0:
268,59,97457,1,0,0:0:0:0:
411,278,97663,2,0,P|330:269|266:215,1,166.499999364853,12|0,0:0|0:0,0:0:0:0:
424,160,98074,2,0,P|354:159|384:96,1,166.499999364853,8|0,0:0|0:0,0:0:0:0:
423,160,98485,6,8,P|354:159|383:96,1,165.599994440918
268,59,99101,70,0,P|266:216|411:279,1,332.999998729706,4|0,0:0|0:0,0:0:0:0:
410,279,99718,1,0,0:0:0:0:
268,59,99923,6,0,P|243:138|267:217,1,165.599994440918,4|0,0:0|0:0,0:0:0:0:
268,59,100540,1,0,0:0:0:0:
410,279,100745,1,0,0:0:0:0:
512,0,100950,37,6,0:0:0:0:
512,0,101361,1,0,0:0:0:0:
512,0,101772,2,0,L|509:41,1,41.3999986102295
500,164,101978,2,0,L|502:122,1,41.3999986102295
512,0,102183,1,0,0:0:0:0:
265,215,102389,2,0,L|306:212,1,41.3999986102295
140,198,102594,1,0,0:0:0:0:
146,115,102800,1,0,0:0:0:0:
126,361,103005,2,0,L|132:278,1,82.7999972204591
152,32,103416,5,0,0:0:0:0:
126,361,103622,2,0,L|132:271,1,90
234,319,104238,70,0,L|315:356,1,90
71,242,104649,1,0,0:0:0:0:
234,319,104855,1,0,0:0:0:0:
71,242,105060,6,0,L|6:210,1,45
173,291,105266,2,0,L|132:270,1,45
234,319,105471,2,0,L|273:337,1,45
71,242,105676,1,0,0:0:0:0:
59,19,105882,70,0,L|63:120,2,90
71,242,106498,1,0,0:0:0:0:
230,3,106704,2,0,P|174:66|208:144,1,180
346,269,107320,1,0,0:0:0:0:
230,2,107526,6,0,P|180:45|179:111,1,135.000005149842,6|0,0:0|0:0,0:0:0:0:
346,269,107937,1,0,0:0:0:0:
316,150,108142,1,0,0:0:0:0:
242,365,108348,1,0,0:0:0:0:
346,269,108553,1,0,0:0:0:0:
242,365,108759,2,0,L|237:230,1,135.000005149842
90,123,109170,69,0,0:0:0:0:
237,230,109375,1,0,0:0:0:0:
267,349,109580,1,0,0:0:0:0:
341,134,109786,1,0,0:0:0:0:
237,230,109991,1,0,0:0:0:0:
463,186,110197,1,0,0:0:0:0:
341,134,110403,2,0,L|345:268,1,135.000005149842
512,384,110813,6,0,L|506:190,1,180
346,269,111430,1,0,0:0:0:0:
512,384,111635,2,0,L|506:190,1,180
346,269,112252,1,0,0:0:0:0:
160,83,112457,70,0,L|339:88,1,180
346,269,113074,1,0,0:0:0:0:
160,83,113279,1,0,0:0:0:0:
160,83,113690,1,0,0:0:0:0:
153,324,113896,1,0,0:0:0:0:
340,88,114101,6,0,B|218:145|218:145|277:267,1,270.000010299683,4|0,0:0|0:0,0:0:0:0:
218,145,114718,70,0,B|276:266|276:266|153:324,1,270.000010299683
153,324,115540,6,0,B|276:266|276:266|218:145,1,270.000010299683
153,324,116361,2,0,L|205:299,5,45
276,266,116978,1,0,0:0:0:0:
31,382,117183,1,0,0:0:0:0:
398,209,117389,5,6,0:0:0:0:
276,266,117594,1,0,0:0:0:0:
259,0,117800,2,0,L|249:112,1,112.5
417,41,118211,69,0,0:0:0:0:
249,112,118416,1,0,0:0:0:0:
501,200,118622,1,0,0:0:0:0:
333,271,118827,6,0,L|350:69,1,202.500007724762
459,315,119649,1,0,0:0:0:0:
207,227,119855,1,0,0:0:0:0:
333,271,120060,1,0,0:0:0:0:
81,359,120266,1,0,0:0:0:0:
207,315,120471,1,0,0:0:0:0:
57,90,120676,70,0,L|68:224,1,135.000005149842
57,90,121293,1,0,0:0:0:0:
76,314,121498,6,0,L|68:224,1,90
157,0,121909,1,0,0:0:0:0:
325,112,122115,70,0,L|190:100,1,135.000005149842
190,100,122731,1,0,0:0:0:0:
369,115,122937,1,0,0:0:0:0:
190,100,123142,6,0,L|146:97,1,45
55,89,123348,2,0,L|99:92,1,45
369,115,123553,70,0,L|324:111,1,45
190,100,123759,2,0,L|234:103,1,45
512,124,123964,6,0,B|443:129|443:129|437:203,1,135.000005149842,4|0,0:0|0:0,0:0:0:0:
451,20,124581,1,8,0:0:0:0:
428,329,124786,70,0,L|438:194,1,135.000005149842
230,220,125608,6,0,L|234:264,1,45
6,106,126019,1,8,0:0:0:0:
233,124,126224,1,0,0:0:0:0:
6,106,126430,70,0,L|140:95,1,135.000005149842
364,77,127047,1,8,0:0:0:0:
140,95,127252,6,0,P|154:181|231:221,1,180,8|0,0:0|0:0,0:0:0:0:
419,254,127868,1,8,0:0:0:0:
233,124,128074,70,0,P|310:164|325:249,1,180
233,124,128690,1,0,0:0:0:0:
419,254,128896,1,0,0:0:0:0:
419,254,129101,1,0,0:0:0:0:
141,228,129307,6,0,L|230:221,1,90,8|0,0:0|0:0,0:0:0:0:
419,254,129718,69,8,0:0:0:0:
141,228,129923,1,8,0:0:0:0:
419,254,130129,6,8,L|313:244,1,90
141,228,130334,2,8,L|230:234,1,90
509,261,130540,37,6,0:0:0:0:
280,242,130745,1,0,0:0:0:0:
406,77,130950,2,0,B|430:164|430:164|419:253,1,180,8|0,0:0|0:0,0:0:0:0:
238,0,131361,1,0,0:0:0:0:
406,77,131567,1,0,0:0:0:0:
0,44,131772,1,0,0:0:0:0:
246,156,131978,38,0,L|71:77,1,180
246,156,132594,1,8,0:0:0:0:
238,0,132800,1,0,0:0:0:0:
254,312,133005,1,0,0:0:0:0:
114,240,133211,1,0,0:0:0:0:
393,383,133416,1,8,0:0:0:0:
254,312,133622,1,0,0:0:0:0:
420,144,133827,38,0,L|383:226,1,90
472,27,134238,1,8,0:0:0:0:
283,101,134444,1,0,0:0:0:0:
472,27,134649,2,0,L|388:59,1,90
136,159,135060,1,8,0:0:0:0:
216,0,135266,1,0,0:0:0:0:
271,253,135471,38,0,L|261:208,1,45
236,77,135677,2,0,L|245:121,1,45
336,309,135882,38,0,B|296:290|296:290|271:253,1,90
179,11,136087,2,0,B|197:51|197:51|234:76,1,90
388,182,136293,38,0,L|253:165,1,135.000005149842
119,149,136498,2,0,L|253:165,1,135.000005149842
467,137,136704,38,0,B|388:182|388:182|299:170,1,180
40,194,136909,2,0,B|119:149|119:149|207:159,1,180
467,137,137115,38,0,L|310:226,1,180,6|0,0:0|0:0,0:0:0:0:
421,0,137526,1,8,0:0:0:0:
467,137,137731,1,0,0:0:0:0:
308,139,137937,1,0,0:0:0:0:
467,137,138142,2,0,L|388:181,1,90
308,139,138348,2,0,L|388:181,1,90,8|0,0:0|0:0,0:0:0:0:
506,115,138553,38,0,B|388:181|388:181|268:118,1,270.000010299683
506,244,139170,1,8,0:0:0:0:
388,181,139375,1,0,0:0:0:0:
488,382,139581,38,0,P|441:345|407:297,1,119.699995068512
388,181,139786,2,0,P|389:242|408:299,1,119.699995068512
489,380,139992,38,0,P|404:386|341:330,1,173.250001652241,8|0,0:0|0:0,0:0:0:0:
387,181,140197,2,0,P|333:245|340:329,1,173.250001652241
487,381,140403,38,0,P|340:329|387:180,1,345.6000084375,0|8,0:0|0:0,0:0:0:0:
388,180,141019,1,0,0:0:0:0:
190,379,141224,1,0,0:0:0:0:
342,330,141430,1,0,0:0:0:0:
67,257,141635,1,8,0:0:0:0:
190,379,141841,38,0,L|171:195,1,180
144,0,142457,1,8,0:0:0:0:
65,112,142663,1,0,0:0:0:0:
263,84,142868,38,0,P|244:125|241:169,1,90
280,247,143074,2,0,P|253:212|241:169,1,90
337,36,143279,38,0,P|279:67|244:126,1,135.000005149842,8|0,0:0|0:0,0:0:0:0:
363,279,143485,2,0,P|299:261|254:213,1,135.000005149842
337,36,143690,1,6,0:0:0:0:
361,157,144101,70,0,L|343:68,1,90
280,248,144512,2,0,P|318:272|362:279,1,90
343,68,144923,1,0,0:0:0:0:
280,247,145129,2,0,P|198:281|116:251,1,180
0,112,145745,1,0,0:0:0:0:
116,251,145950,2,0,P|154:274|202:282,1,90
316,168,146361,2,0,P|305:211|279:248,1,90
321,16,146772,1,0,0:0:0:0:
321,16,146978,5,0,0:0:0:0:
321,16,147183,2,0,P|356:42|381:83,1,90
423,210,147594,1,0,0:0:0:0:
139,310,147800,1,0,0:0:0:0:
321,16,148108,1,0,0:0:0:0:
480,319,148416,1,0,0:0:0:0:
350,118,148622,70,0,P|308:195|331:281,1,180
422,210,149238,1,0,0:0:0:0:
350,118,149444,2,0,P|315:89|272:75,1,90
133,82,149855,1,0,0:0:0:0:
350,118,150060,1,0,0:0:0:0:
19,169,150266,5,6,0:0:0:0:
19,169,150677,2,0,P|75:165|128:148,1,112.5
271,75,151087,2,0,P|240:121|224:174,1,112.5
324,359,151498,1,0,0:0:0:0:
244,283,151704,2,0,P|224:174|271:75,1,225
244,283,152320,1,0,0:0:0:0:
464,245,152526,2,0,L|354:264,1,112.5
22,319,152937,2,0,L|132:337,1,112.5
354,264,153348,1,0,0:0:0:0:
132,337,153553,1,0,0:0:0:0:
132,337,153964,70,0,L|150:226,1,112.5
168,115,154375,2,0,L|186:4,1,112.5
150,226,154786,1,0,0:0:0:0:
186,4,154992,6,0,L|168:115,1,112.5
150,226,155608,1,0,0:0:0:0:
297,22,155813,70,0,L|278:132,1,112.5
297,22,156430,1,0,0:0:0:0:
259,242,156635,1,0,0:0:0:0:
512,0,156841,5,6,0:0:0:0:
512,0,157252,2,0,B|473:55|473:55|455:120,1,135.000005149842
399,241,157663,2,0,B|437:185|437:185|455:120,1,135.000005149842
342,361,158074,1,0,0:0:0:0:
399,241,158279,70,0,B|437:185|437:185|455:120,2,135.000005149842
145,306,158896,1,0,0:0:0:0:
267,250,159101,6,0,B|333:257|333:257|399:241,1,135.000005149842
135,173,159512,2,0,B|128:239|128:239|144:305,2,135.000005149842
158,0,160129,1,0,0:0:0:0:
158,0,160540,69,0,0:0:0:0:
123,79,160745,1,0,0:0:0:0:
237,33,160950,2,0,P|190:79|125:80,1,135.000005149842
293,104,161362,5,0,0:0:0:0:
237,33,161567,1,0,0:0:0:0:
358,41,161772,2,0,P|298:12|235:34,1,135.000005149842
214,207,162183,1,0,0:0:0:0:
236,32,162389,1,0,0:0:0:0:
214,207,162594,2,0,P|272:236|335:215,1,135.000005149842
147,204,163005,2,0,L|79:199,1,67.5000025749208
402,219,163211,2,0,L|469:223,1,67.5000025749208
214,207,163416,70,0,L|79:198,1,135.000005149842,6|0,0:0|0:0,0:0:0:0:
402,219,163827,6,0,L|393:84,2,135.000005149842
388,16,164855,1,0,0:0:0:0:
406,286,165060,2,0,P|350:263|356:170,2,135.000005149842,4|0|0,0:0|0:0|0:0,0:0:0:0:
283,115,166293,1,0,0:0:0:0:
402,219,166499,1,0,0:0:0:0:
164,11,166704,70,0,L|299:20,1,135.000005149842,4|0,0:0|0:0,0:0:0:0:
29,19,167320,1,0,0:0:0:0:
417,106,167526,6,0,L|282:115,1,135.000005149842,4|0,0:0|0:0,0:0:0:0:
278,363,168142,1,0,0:0:0:0:
417,106,168347,1,12,0:0:0:0:
169,229,168553,1,8,0:0:0:0:
445,287,168758,1,4,0:0:0:0:
255,75,168964,1,8,0:0:0:0:
298,173,169170,69,0,0:0:0:0:
321,129,169272,1,0,0:0:0:0:
367,113,169375,1,0,0:0:0:0:
412,133,169478,1,0,0:0:0:0:
326,234,169581,5,0,0:0:0:0:
276,235,169683,1,0,0:0:0:0:
239,203,169786,1,0,0:0:0:0:
234,154,169889,1,0,0:0:0:0:
365,180,169992,70,0,P|388:259|314:300,1,180,6|0,0:0|0:0,0:0:0:0:
365,180,170608,6,0,L|377:148,2,33.7500012874604
314,300,170813,2,0,L|288:238,1,67.5000025749208
289,1,171019,2,0,L|315:63,1,67.5000025749208
376,148,171224,1,0,0:0:0:0:
382,0,171430,1,0,0:0:0:0:
314,300,171635,53,6,0:0:0:0:
298,173,171841,1,0,0:0:0:0:
416,379,172046,1,8,0:0:0:0:
432,252,172252,1,0,0:0:0:0:
211,384,172457,70,0,P|278:378|344:365,1,135.000005149842
470,319,172663,2,0,P|408:345|344:364,1,135.000005149842
211,384,172868,6,0,P|344:365|474:317,1,270.000010299683,8|0,0:0|0:0,0:0:0:0:
77,365,173279,1,0,0:0:0:0:
211,384,173485,1,0,0:0:0:0:
0,252,173690,1,8,0:0:0:0:
77,365,173896,1,0,0:0:0:0:
60,169,174101,70,0,B|111:214|111:214|135:278,1,135.000005149842
211,384,174307,2,0,B|160:339|160:339|135:277,1,135.000005149842
60,169,174512,6,0,B|111:214|111:214|160:340|160:340|210:383,1,270.000010299683,8|0,0:0|0:0,0:0:0:0:
121,15,174923,1,0,0:0:0:0:
60,169,175129,2,0,L|125:154,1,67.5000025749208
257,124,175334,2,0,L|125:153,1,135.000005149842,8|0,0:0|0:0,0:0:0:0:
307,62,175745,1,0,0:0:0:0:
194,0,175950,1,0,0:0:0:0:
382,187,176156,1,8,0:0:0:0:
452,68,176361,1,0,0:0:0:0:
304,225,176567,70,0,P|418:266|460:152,1,270.000010299683,0|8,0:0|0:0,0:0:0:0:
304,225,177183,1,0,0:0:0:0:
418,265,177389,2,0,P|352:268|303:224,1,135.000005149842
304,225,177800,6,0,P|302:157|349:109,1,135.000005149842,8|0,0:0|0:0,0:0:0:0:
459,151,178005,2,0,P|410:107|345:110,1,135.000005149842
304,225,178211,70,0,P|344:110|459:151,1,270.000010299683,6|0,0:0|0:0,0:0:0:0:
224,318,178622,1,8,0:0:0:0:
419,267,178827,1,0,0:0:0:0:
30,266,179033,6,0,L|160:301,1,135.000005149842
290,337,179238,2,0,L|159:301,1,135.000005149842
30,266,179444,70,0,L|290:337,1,270.000010299683,8|0,0:0|0:0,0:0:0:0:
419,267,179855,1,0,0:0:0:0:
512,384,180060,1,0,0:0:0:0:
477,126,180266,1,8,0:0:0:0:
419,267,180471,1,0,0:0:0:0:
383,0,180677,6,0,L|401:133,1,135.000005149842
419,267,180882,2,0,L|400:133,1,135.000005149842
383,0,181087,70,0,L|419:267,1,270.000010299683,8|0,0:0|0:0,0:0:0:0:
301,384,181498,1,0,0:0:0:0:
419,267,181704,1,0,0:0:0:0:
141,341,181909,1,8,0:0:0:0:
301,384,182115,1,0,0:0:0:0:
179,211,182320,6,0,L|160:275,1,67.5000025749208
141,341,182526,2,0,L|159:276,1,67.5000025749208
120,13,182731,70,0,L|82:142,1,135.000005149842
45,273,182937,2,0,L|82:143,1,135.000005149842
45,15,183142,6,0,L|104:214,1,207.000003948212
45,15,183553,1,0,0:0:0:0:
122,277,183759,70,0,L|65:81,1,205.199997495117
141,341,184170,1,0,0:0:0:0:
65,81,184375,6,0,L|103:211,1,135.000005149842
141,341,184581,70,0,L|103:211,1,135.000005149842
65,81,184786,6,0,L|141:340,1,270.000010299683,6|0,0:0|0:0,0:0:0:0:
269,384,185197,1,8,0:0:0:0:
141,341,185403,1,0,0:0:0:0:
402,377,185608,70,0,P|335:387|268:383,1,135.000005149842
141,341,185813,6,0,P|205:369|269:384,1,135.000005149842
402,377,186019,70,0,P|268:384|141:340,1,270.000010299683,8|0,0:0|0:0,0:0:0:0:
99,214,186430,1,0,0:0:0:0:
141,341,186635,1,0,0:0:0:0:
141,87,186841,1,8,0:0:0:0:
99,214,187046,1,0,0:0:0:0:
267,45,187252,6,0,B|207:76|207:76|141:87,1,135.000005149842
14,129,187457,2,0,B|73:97|73:97|140:87,1,135.000005149842
267,45,187663,70,0,B|207:76|207:76|72:97|72:97|10:132,1,270.000010299683,8|0,0:0|0:0,0:0:0:0:
339,88,188074,1,0,0:0:0:0:
140,87,188279,2,0,L|206:97,1,67.5000025749208
267,129,188485,2,0,B|207:98|207:98|141:87,1,135.000005149842,8|0,0:0|0:0,0:0:0:0:
395,171,188896,1,0,0:0:0:0:
266,129,189101,1,0,0:0:0:0:
512,109,189307,1,8,0:0:0:0:
395,171,189512,1,0,0:0:0:0:
477,187,189718,6,0,P|401:255|315:199,1,221.400003378296,0|8,0:0|0:0,0:0:0:0:
395,171,190334,1,0,0:0:0:0:
327,23,190540,70,0,B|407:99,1,110.700001689148
407,100,190950,6,0,L|314:197,1,135.000005149842,8|0,0:0|0:0,0:0:0:0:
268,245,191156,2,0,L|361:148,1,135.000005149842
499,0,191361,69,6,0:0:0:0:
498,195,191567,1,0,0:0:0:0:
304,1,191772,1,8,0:0:0:0:
407,100,191978,1,0,0:0:0:0:
267,245,192183,6,0,P|274:310|321:357,1,135.000005149842
445,335,192389,2,0,P|386:367|321:357,1,135.000005149842
267,244,192594,70,0,P|321:357|445:334,1,270.000010299683,8|0,0:0|0:0,0:0:0:0:
407,100,193005,1,0,0:0:0:0:
368,265,193211,1,0,0:0:0:0:
314,6,193416,6,0,B|340:44|340:44|385:68|385:68|407:100,1,135.000005149842,8|0,0:0|0:0,0:0:0:0:
499,193,193622,2,0,B|473:155|473:155|428:131|428:131|407:100,1,135.000005149842
314,6,193827,70,0,B|340:43|340:43|385:68|385:68|429:131|429:131|473:155|473:155|501:194,1,270.000010299683,0|8,0:0|0:0,0:0:0:0:
314,6,194444,1,0,0:0:0:0:
313,191,194649,2,0,B|351:165|351:165|375:120|375:120|407:99,1,135.000005149842,4|0,0:0|0:0,0:0:0:0:
259,133,195060,2,0,P|212:97|258:59,1,135.000005149842
259,133,195471,6,0,P|212:97|258:59,1,135.000005149842
498,190,196087,70,0,B|472:153|472:153|428:129|428:129|384:66|384:66|339:41|339:41|313:4,1,270.000010299683
498,190,196704,1,0,0:0:0:0:
313,4,196909,6,0,B|339:42|339:42|384:66|384:66|406:98,1,135.000005149842,4|0,0:0|0:0,0:0:0:0:
313,4,197526,1,0,0:0:0:0:
498,190,197731,1,0,0:0:0:0:
56,0,197937,38,0,P|93:32|142:45,1,101.250003862381,4|0,0:0|0:0,0:0:0:0:
122,42,198348,54,0,P|89:161|197:103,1,310.500005922318
131,108,199067,22,0,P|175:168|251:146,1,157.500001502037
250,11,199375,54,0,L|262:79,1,69.7500005321503
332,69,199581,2,0,L|331:138,1,69.7500005321503
402,140,199786,2,0,L|389:208,1,69.7500005321503
417,272,199992,2,0,P|350:266|320:207,1,139.500001064301,8|0,0:0|0:0,0:0:0:0:
182,205,200403,2,0,L|250:217,1,69.7500005321503,2|0,0:0|0:0,0:0:0:0:
469,128,200608,22,0,L|400:140,1,68.850000420227
274,129,201019,2,0,L|309:122,1,36,8|0,0:0|0:0,0:0:0:0:
144,79,201224,2,0,L|108:72,1,36,6|0,0:0|0:0,0:0:0:0:
155,12,201430,2,0,P|208:55|196:123,1,144,0|8,0:0|0:0,0:0:0:0:
152,318,202046,53,0,0:0:0:0:
195,309,202149,1,0,0:0:0:0:
238,300,202252,2,0,L|273:293,1,36
421,218,202457,21,0,0:0:0:0:
378,209,202560,1,0,0:0:0:0:
335,200,202663,2,0,L|300:193,1,36
263,187,202868,54,0,P|211:177|180:135,1,108
97,81,203279,2,0,P|148:91|179:133,1,108,8|0,0:0|0:0,0:0:0:0:
335,200,203690,2,0,P|368:188|392:162,1,72
416,95,203998,2,0,P|409:130|392:161,1,72
362,263,204307,1,8,0:0:0:0:
318,135,204512,22,0,P|268:189|296:255,1,153.000002918243,6|0,0:0|0:0,0:0:0:0:
427,282,204923,54,0,P|407:212|335:201,1,153.000002918243,0|8,0:0|0:0,0:0:0:0:
308,59,205334,2,0,L|320:148,1,76.5000014591217,2|0,0:0|0:0,0:0:0:0:
244,87,205540,22,0,P|277:-3|369:27,1,215.999993408203
399,232,206156,2,0,L|411:143,1,76.5000014591217
336,201,206362,54,0,P|365:294|460:268,1,215.999993408203
399,232,206978,21,0,0:0:0:0:
249,259,207184,1,0,0:0:0:0:
123,172,207389,1,0,0:0:0:0:
290,293,207594,2,0,L|249:259,1,53.9999983520508
123,172,207800,54,0,L|42:100,2,107.999996704102,6|0|0,0:0|0:0|0:0,0:0:0:0:
249,259,208416,1,0,0:0:0:0:
350,46,208622,2,0,P|298:54|268:97,1,107.999996704102
249,259,209033,1,0,0:0:0:0:
269,97,209238,2,0,P|260:46|217:16,1,107.999996704102
185,190,209649,21,0,0:0:0:0:
185,190,209752,1,0,0:0:0:0:
184,189,209855,2,0,L|203:83,1,107.999996704102,8|0,0:0|0:0,0:0:0:0:
0,0,210266,2,0,L|18:106,1,107.999996704102
49,271,210676,1,0,0:0:0:0:
153,0,210882,1,8,0:0:0:0:
18,106,211087,1,0,0:0:0:0:
256,192,211190,12,0,213553,0:0:0:0:
68,305,214375,5,6,0:0:0:0:
68,305,214992,5,0,0:0:0:0:
78,302,215813,5,0,0:0:0:0:
101,151,216224,1,0,0:0:0:0:
124,0,216635,1,0,0:0:0:0:
78,302,217457,1,0,0:0:0:0:
127,10,217663,5,0,0:0:0:0:
127,10,218279,5,0,0:0:0:0:
130,20,219100,5,0,0:0:0:0:
281,43,219511,1,0,0:0:0:0:
432,66,219922,1,0,0:0:0:0:
130,20,220745,1,0,0:0:0:0:
429,76,220950,5,0,0:0:0:0:
429,76,221567,5,0,0:0:0:0:
426,86,222389,5,0,0:0:0:0:
275,109,222799,1,0,0:0:0:0:
124,132,223210,1,0,0:0:0:0:
426,86,224033,1,0,0:0:0:0:
127,122,224238,5,0,0:0:0:0:
127,122,224855,5,0,0:0:0:0:
130,112,225676,5,0,0:0:0:0:
281,89,226087,1,0,0:0:0:0:
432,66,226498,1,0,0:0:0:0:
130,112,227320,1,0,0:0:0:0:
422,69,227526,5,0,0:0:0:0:
422,69,228142,5,0,0:0:0:0:
412,72,228963,5,0,0:0:0:0:
389,223,229374,1,0,0:0:0:0:
366,374,229785,1,0,0:0:0:0:
412,72,230608,1,0,0:0:0:0:
356,371,230813,5,0,0:0:0:0:
356,371,231430,5,0,0:0:0:0:
346,368,232251,5,0,0:0:0:0:
323,217,232662,1,0,0:0:0:0:
300,66,233073,1,0,0:0:0:0:
346,368,233896,1,0,0:0:0:0:
303,76,234102,5,0,0:0:0:0:
256,192,234204,12,0,235540,0:0:0:0:
352,320,235745,5,0,0:0:0:0:
256,192,235848,12,0,237183,0:0:0:0:
160,64,237389,5,0,0:0:0:0:
256,192,237492,12,0,238827,0:0:0:0:
352,64,239033,5,0,0:0:0:0:
256,192,239135,12,0,240471,0:0:0:0:
160,320,240676,37,0,0:0:0:0:
446,332,241087,2,0,P|404:301|351:308,1,107.999996704102
159,320,241498,2,0,P|201:350|254:343,1,107.999996704102
352,309,241909,1,0,0:0:0:0:
254,342,242115,1,0,0:0:0:0:
328,384,242320,37,0,0:0:0:0:
69,278,242526,2,0,L|87:384,1,107.999996704102
172,212,242937,2,0,L|190:105,1,107.999996704102
208,0,243348,1,0,0:0:0:0:
172,212,243553,1,0,0:0:0:0:
291,71,243759,1,0,0:0:0:0:
172,212,243964,38,0,L|65:231,2,107.999996704102
396,172,244581,2,0,L|502:153,1,107.999996704102
289,190,244992,1,0,0:0:0:0:
502,153,245197,1,0,0:0:0:0:
206,184,245403,38,0,P|153:177|108:149,1,107.999996704102
225,259,245814,2,0,P|219:312|191:357,1,107.999996704102
198,0,246224,2,0,L|179:106,2,107.999996704102
1,129,246841,2,0,L|107:147,1,107.999996704102
289,190,247252,37,0,0:0:0:0:
107,147,247457,1,0,0:0:0:0:
465,177,247663,2,0,P|412:170|367:142,1,107.999996704102
484,253,248074,2,0,P|477:306|449:351,1,107.999996704102
465,177,248485,1,0,0:0:0:0:
289,190,248690,38,0,P|238:177|213:131,1,107.999996704102
342,148,249101,2,0,P|356:198|330:243,1,107.999996704102
279,125,249512,2,0,P|315:87|367:87,1,107.999996704102
264,232,249923,1,0,0:0:0:0:
279,125,250129,1,0,0:0:0:0:
249,339,250334,1,0,0:0:0:0:
178,86,250540,38,0,L|278:124,1,107.999996704102
435,190,250950,2,0,L|334:228,1,107.999996704102
402,58,251361,1,0,0:0:0:0:
333,228,251567,2,0,L|295:329,2,107.999996704102
103,188,252183,38,0,P|91:130|130:78,1,107.999996704102
145,240,252800,2,0,P|95:254|49:228,1,107.999996704102
49,228,253416,1,0,0:0:0:0:
233,261,253622,2,0,L|263:264,1,26.9999991760254
10,155,253827,6,0,B|71:128|71:128|105:192,1,135,6|8,0:0|0:0,0:0:0:0:
40,69,254649,2,0,B|103:188,1,135
166,307,255471,69,0,0:0:0:0:
166,307,255882,1,8,0:0:0:0:
166,307,256293,2,0,L|254:323,1,90
166,307,256909,1,8,0:0:0:0:
454,299,257115,6,0,P|409:251|419:186,1,135,4|8,0:0|0:0,0:0:0:0:
454,299,257937,2,0,P|434:361|373:384,1,135
254,321,258759,69,0,0:0:0:0:
254,321,259170,1,8,0:0:0:0:
254,321,259581,6,0,L|342:305,1,90
165,336,259992,1,0,0:0:0:0:
430,289,260197,1,8,0:0:0:0:
76,320,260403,69,6,0:0:0:0:
192,0,260813,1,0,0:0:0:0:
512,116,261224,1,0,0:0:0:0:
192,232,261635,1,0,0:0:0:0:
512,348,262046,5,0,0:0:0:0:
396,28,262457,1,0,0:0:0:0:
280,348,262868,1,0,0:0:0:0:
164,28,263279,1,0,0:0:0:0:
484,144,263690,70,0,L|395:159,1,90,4|0,0:0|0:0,0:0:0:0:
167,176,264101,2,0,L|256:192,1,90
495,238,264512,1,0,0:0:0:0:
297,56,264718,1,0,0:0:0:0:
238,318,264923,1,0,0:0:0:0:
40,135,265129,1,0,0:0:0:0:
256,192,265334,5,4,0:0:0:0:
300,199,265436,1,0,0:0:0:0:
344,207,265540,2,0,L|399:216,1,45
164,33,265745,69,0,0:0:0:0:
209,40,265847,1,0,0:0:0:0:
252,48,265951,2,0,L|307:57,1,45
446,31,266156,2,0,B|444:63|373:59|373:59|425:80|440:134|440:134|403:168|298:127|298:127|258:196|292:234|292:234|365:202|435:241|433:277|431:312|429:348|427:384|287:340|287:340|214:372|214:372|144:333|144:333|0:361|2:326|4:290|6:254|7:219|80:187|150:226|150:226|187:192|155:119|155:119|47:149|13:112|13:112|34:59|88:44|88:44|17:41|19:5,1,1781.99994561768,4|0,0:0|0:0,0:0:0:0:
446,31,268622,69,6,0:0:0:0:
269,62,268827,1,0,0:0:0:0:
357,46,269033,2,0,L|268:61,1,90
135,85,269444,6,0,L|267:61,1,135
357,46,270266,1,0,0:0:0:0:
324,221,270471,1,0,0:0:0:0:
339,132,270677,70,0,L|324:221,1,90
300,353,271087,6,0,L|324:221,1,135
340,133,271909,1,0,0:0:0:0:
235,205,272115,70,0,L|324:221,1,90
412,205,272320,2,0,L|324:221,1,90
146,220,272526,6,0,L|235:205,1,90
57,203,272937,1,0,0:0:0:0:
219,293,273142,1,0,0:0:0:0:
40,115,273348,1,0,0:0:0:0:
130,308,273553,70,0,L|146:220,1,90
161,130,273964,1,0,0:0:0:0:
130,308,274170,2,0,L|161:131,1,180
122,352,274786,6,0,L|129:307,1,45
161,131,274992,2,0,L|153:175,1,45
122,352,275197,1,0,0:0:0:0:
64,190,275403,1,0,0:0:0:0:
241,159,275608,70,0,L|152:174,1,90
63,189,276019,6,0,L|240:158,1,180
63,189,276635,1,0,0:0:0:0:
63,189,276841,1,0,0:0:0:0:
31,365,277046,1,0,0:0:0:0:
63,189,277252,2,0,L|47:277,1,90
31,365,277663,70,0,L|62:187,1,180
31,365,278279,1,0,0:0:0:0:
31,365,278485,1,0,0:0:0:0:
204,243,278690,6,0,P|162:259|118:253,1,90
62,187,278896,2,0,P|81:227|117:253,1,90
241,159,279101,1,0,0:0:0:0:
117,253,279307,1,0,0:0:0:0:
170,88,279512,1,0,0:0:0:0:
91,334,279718,2,0,P|93:289|117:251,1,90
196,5,279923,2,0,P|193:50|170:88,1,90
91,334,280129,70,0,P|93:289|117:251,1,90
170,88,280540,6,0,B|141:114|115:163|173:172|141:225|117:252,1,180
91,334,280950,1,0,0:0:0:0:
170,88,281156,1,8,0:0:0:0:
252,345,281361,70,0,L|210:216,1,135.000005149842,8|0,0:0|0:0,0:0:0:0:
170,88,281567,2,0,L|211:216,1,135.000005149842
252,345,281772,69,6,0:0:0:0:
211,216,281978,1,0,0:0:0:0:
306,173,282183,2,0,L|242:371,1,180,8|0,0:0|0:0,0:0:0:0:
391,156,282594,6,0,P|354:101|289:87,1,135.000005149842
221,188,282800,2,0,P|234:124|289:87,1,135.000005149842
391,156,283005,70,0,P|289:88|220:188,1,270.000010299683,8|0,0:0|0:0,0:0:0:0:
400,34,283416,1,0,0:0:0:0:
220,188,283622,1,0,0:0:0:0:
502,103,283827,1,8,0:0:0:0:
118,119,284033,1,0,0:0:0:0:
400,34,284238,6,0,B|335:50|335:50|269:38,1,135.000005149842
136,42,284444,2,0,B|200:25|200:25|266:37,1,135.000005149842
400,34,284649,70,0,B|335:50|335:50|204:25|204:25|136:42,1,270.000010299683,8|0,0:0|0:0,0:0:0:0:
511,116,285060,5,0,0:0:0:0:
268,38,285266,2,0,L|346:52,1,45
49,62,285471,2,0,L|136:40,1,90,8|0,0:0|0:0,0:0:0:0:
0,384,285882,1,0,0:0:0:0:
68,212,286087,1,0,0:0:0:0:
412,348,286293,1,8,0:0:0:0:
240,280,286498,1,0,0:0:0:0:
492,286,286704,70,0,P|416:244|337:279,1,180,0|8,0:0|0:0,0:0:0:0:
412,348,287320,1,0,0:0:0:0:
424,128,287526,2,0,L|511:150,1,90,8|0,0:0|0:0,0:0:0:0:
512,151,287937,6,0,L|490:238,1,90,8|0,0:0|0:0,0:0:0:0:
512,151,288142,70,0,L|485:260,1,112.5
512,0,288348,1,6,0:0:0:0:
170,138,288553,2,0,B|225:133|225:133|281:105,1,112.5
381,77,288759,2,0,B|325:81|325:81|270:110,1,112.5
64,168,288964,2,0,B|119:163|119:163|169:137,1,112.5
206,13,289170,6,0,P|204:80|169:137,1,135.000005149842
64,358,289375,2,0,P|65:292|100:235,1,135.000005149842
381,77,289581,1,0,0:0:0:0:
79,42,289786,1,0,0:0:0:0:
512,83,289992,69,4,0:0:0:0:
512,83,290197,1,0,0:0:0:0:
512,253,290403,2,0,L|481:168,1,90
512,83,290608,2,0,L|481:167,1,90
372,377,290813,6,0,L|418:250,1,135.000005149842
372,123,291019,2,0,L|418:250,1,135.000005149842
462,375,291224,1,0,0:0:0:0:
372,123,291430,1,0,0:0:0:0:
371,379,291635,70,0,L|465:125,1,270.000010299683,4|0,0:0|0:0,0:0:0:0:
464,125,292046,1,0,0:0:0:0:
464,125,292252,1,0,0:0:0:0:
211,219,292457,6,0,L|465:125,1,270.000010299683,4|0,0:0|0:0,0:0:0:0:
464,125,292868,1,0,0:0:0:0:
464,125,293074,1,8,0:0:0:0:
211,219,293279,69,4,0:0:0:0:
253,203,293381,1,0,0:0:0:0:
295,187,293484,1,0,0:0:0:0:
337,172,293587,1,0,0:0:0:0:
379,156,293689,1,0,0:0:0:0:
422,140,293792,1,0,0:0:0:0:
464,124,293896,6,0,P|399:141|336:119,1,135
297,89,294307,70,0,P|313:153|291:216,1,135
261,256,294718,1,0,0:0:0:0:
402,0,294923,53,6,0:0:0:0:
297,89,295129,1,0,0:0:0:0:
318,7,295334,2,0,P|273:4|236:28,1,90,8|0,0:0|0:0,0:0:0:0:
138,182,295745,2,0,P|161:144|159:100,2,90,0|0|8,0:0|0:0|0:0,0:0:0:0:
73,31,296361,6,0,L|81:121,1,90
170,345,296772,2,0,L|178:256,1,90,0|8,0:0|0:0,0:0:0:0:
378,377,297183,2,0,L|288:384,1,90
52,384,297594,1,0,0:0:0:0:
288,384,297800,1,8,0:0:0:0:
170,345,298005,1,0,0:0:0:0:
248,109,298211,5,0,0:0:0:0:
337,214,298416,1,0,0:0:0:0:
303,48,298622,2,0,P|328:86|325:130,1,90,8|0,0:0|0:0,0:0:0:0:
512,3,299033,2,0,P|468:1|431:26,2,90,0|0|8,0:0|0:0|0:0,0:0:0:0:
326,129,299649,6,0,L|416:122,1,90
149,198,300060,2,0,L|238:205,1,90,0|8,0:0|0:0,0:0:0:0:
199,384,300471,2,0,L|191:294,1,90
172,41,300882,1,0,0:0:0:0:
199,384,301087,1,8,0:0:0:0:
238,205,301293,1,0,0:0:0:0:
0,0,301498,5,2,0:0:0:0:
172,41,301704,1,0,0:0:0:0:
0,85,301909,2,0,P|42:71|72:38,1,90,8|0,0:0|0:0,0:0:0:0:
191,294,302320,2,0,P|155:267|139:225,2,90,0|0|8,0:0|0:0|0:0,0:0:0:0:
281,0,302937,6,0,L|273:89,1,90
131,135,303348,2,0,L|138:224,1,90,0|8,0:0|0:0,0:0:0:0:
362,97,303759,2,0,L|272:89,1,90
131,135,304170,1,0,0:0:0:0:
272,89,304375,1,8,0:0:0:0:
84,276,304581,1,0,0:0:0:0:
165,0,304786,5,0,0:0:0:0:
131,135,304992,1,0,0:0:0:0:
344,43,305197,2,0,P|301:56|272:89,1,90,8|0,0:0|0:0,0:0:0:0:
84,276,305608,2,0,P|126:263|156:230,1,90
0,384,306019,1,8,0:0:0:0:
346,129,306224,6,0,L|338:218,1,90,4|0,0:0|0:0,0:0:0:0:
353,39,306841,1,0,0:0:0:0:
322,373,307046,2,0,L|412:381,1,90,4|0,0:0|0:0,0:0:0:0:
232,365,307663,1,0,0:0:0:0:
412,381,307868,1,0,0:0:0:0:
52,349,308074,6,0,L|141:341,1,90,6|0,0:0|0:0,0:0:0:0:
141,341,308485,1,0,0:0:0:0:
232,365,308690,1,0,0:0:0:0:
117,250,308896,1,0,0:0:0:0:
208,274,309101,1,0,0:0:0:0:
323,159,309307,1,0,0:0:0:0:
299,250,309512,1,0,0:0:0:0:
300,71,309718,1,0,0:0:0:0:
413,182,310129,5,0,0:0:0:0:
504,158,310334,1,0,0:0:0:0:
322,158,310540,2,0,L|344:245,1,90,2|0,0:0|0:0,0:0:0:0:
349,65,310950,1,0,0:0:0:0:
322,158,311156,1,0,0:0:0:0:
437,43,311361,6,0,L|350:65,1,90,2|0,0:0|0:0,0:0:0:0:
164,67,311772,1,0,0:0:0:0:
188,158,311978,1,0,0:0:0:0:
73,43,312183,1,0,0:0:0:0:
164,67,312389,1,0,0:0:0:0:
165,252,312594,1,0,0:0:0:0:
188,158,312800,1,0,0:0:0:0:
188,340,313005,6,0,L|100:317,1,90,2|0,0:0|0:0,0:0:0:0:
279,316,313416,1,0,0:0:0:0:
303,225,313622,1,0,0:0:0:0:
165,252,313827,2,0,L|187:164,1,90,2|0,0:0|0:0,0:0:0:0:
188,340,314238,1,0,0:0:0:0:
280,367,314444,1,0,0:0:0:0:
303,225,314649,6,0,L|390:247,1,90,2|0,0:0|0:0,0:0:0:0:
504,132,315060,1,0,0:0:0:0:
417,156,315265,1,0,0:0:0:0:
353,42,315471,1,0,0:0:0:0:
329,129,315677,1,0,0:0:0:0:
154,129,315882,1,0,0:0:0:0:
242,105,316087,1,0,0:0:0:0:
130,216,316293,1,0,0:0:0:0:
123,34,316704,5,0,0:0:0:0:
210,10,316909,1,0,0:0:0:0:
329,129,317115,2,0,L|242:105,1,90,2|0,0:0|0:0,0:0:0:0:
121,218,317526,1,0,0:0:0:0:
148,126,317732,1,0,0:0:0:0:
148,310,317937,6,0,L|235:287,1,90,2|0,0:0|0:0,0:0:0:0:
148,126,318348,1,0,0:0:0:0:
121,218,318553,1,0,0:0:0:0:
235,287,318759,1,0,0:0:0:0:
256,199,318964,1,0,0:0:0:0:
257,374,319170,1,0,0:0:0:0:
257,199,319375,1,0,0:0:0:0:
147,309,319581,6,0,L|60:287,1,90,2|0,0:0|0:0,0:0:0:0:
33,195,320197,1,0,0:0:0:0:
148,81,320403,6,0,L|125:168,1,90,2|0,0:0|0:0,0:0:0:0:
33,195,321019,1,0,0:0:0:0:
256,192,321224,1,2,0:0:0:0:
256,192,321327,12,0,324512,0:0:0:0:
