osu file format v14

[General]
AudioFilename: audio.mp3
AudioLeadIn: 0
PreviewTime: 264349
Countdown: 0
SampleSet: Soft
StackLeniency: 0.3
Mode: 0
LetterboxInBreaks: 1
EpilepsyWarning: 1
WidescreenStoryboard: 1

[Editor]
Bookmarks: 2776,20810,24349,45922,67495,89068,99855,110641,132214,143001,153787,164574,175360,186147,196933,221203,231990,242776,253563,264349,275136,285922,307495,318282,329068,339855,353338,364124,374911,396484,418057,428844,439630,446372
DistanceSpacing: 1.3
BeatDivisor: 4
GridSize: 8
TimelineZoom: 2.5

[Metadata]
Title:A Sugar Business
TitleUnicode:A Sugar Business
Artist:Electro.muster & WOM feat. Aoki Lapis
ArtistUnicode:Electro.muster & WOM feat. 蒼姫ラピス
Creator:-Tochi
Version:Lactose Marathon
Source:
Tags:Kanari Exile- Dubstep Taishi kato.yoshihal vocaloid dnb drum and bass cosmic record Grok Wata i-style Project
BeatmapID:963304
BeatmapSetID:448868

[Difficulty]
HPDrainRate:6
CircleSize:4
OverallDifficulty:8.5
ApproachRate:9.3
SliderMultiplier:2
SliderTickRate:2

[Events]
//Background and Video events
0,0,"BG.jpg",0,0
//Break Periods
2,197133,216990
//Storyboard Layer 0 (Background)
Sprite,Background,Centre,"BG.jpg",320,240
//Storyboard Layer 1 (Fail)
//Storyboard Layer 2 (Pass)
//Storyboard Layer 3 (Foreground)
//Storyboard Sound Samples

[TimingPoints]
80,337.078651685393,4,2,1,50,1,0
23970,-100,4,2,1,20,0,0
24349,-142.857142857143,4,2,2,40,0,0
45248,-107.52688172043,4,2,2,40,0,0
45501,-107.52688172043,4,2,1,40,0,0
45585,-107.52688172043,4,2,2,50,0,0
45922,-125,4,2,1,60,0,0
56035,-133.333333333334,4,2,1,60,0,0
56372,-100,4,2,1,60,0,0
56709,-125,4,2,1,60,0,0
57214,-100,4,2,1,60,0,0
58057,-125,4,2,1,60,0,0
62102,-153.846153846154,4,2,1,60,0,0
62355,-153.846153846154,4,2,1,5,0,0
62439,-125,4,2,1,60,0,0
66147,-111.111111111111,4,2,1,60,0,0
66484,-100,4,2,1,60,0,0
67495,-111.111111111111,4,2,1,70,0,1
75585,-111.111111111111,4,2,1,70,0,1
77776,-90.9090909090908,4,2,1,70,0,1
78282,-111.111111111111,4,2,1,70,0,1
85697,-90.9090909090908,4,2,1,70,0,1
86372,-111.111111111111,4,2,1,70,0,1
86877,-83.3333333333333,4,2,1,70,0,1
87720,-111.111111111111,4,2,1,70,0,0
89068,-111.111111111111,4,2,4,70,0,1
89405,-111.111111111111,4,2,4,70,0,0
98506,-111.111111111111,4,2,2,70,0,0
98675,-111.111111111111,4,2,4,70,0,0
99181,-111.111111111111,4,2,2,70,0,0
99349,-111.111111111111,4,2,4,70,0,0
99686,-83.3333333333333,4,2,4,70,0,0
99855,-111.111111111111,4,2,1,70,0,1
110641,-142.857142857143,4,2,1,60,0,0
111315,-95.2380952380952,4,2,1,60,0,0
111653,-142.857142857143,4,2,1,60,0,0
114012,-95.2380952380952,4,2,1,60,0,0
114349,-142.857142857143,4,2,1,60,0,0
116709,-95.2380952380952,4,2,1,60,0,0
117046,-142.857142857143,4,2,1,60,0,0
119405,-95.2380952380952,4,2,1,60,0,0
119742,-142.857142857143,4,2,1,60,0,0
121344,-142.857142857143,4,2,1,5,0,0
121428,-142.857142857143,4,2,1,60,0,0
122102,-95.2380952380952,4,2,1,60,0,0
122439,-142.857142857143,4,2,1,60,0,0
123450,-95.2380952380952,4,2,1,60,0,0
124124,-142.857142857143,4,2,1,60,0,0
124799,-95.2380952380952,4,2,1,60,0,0
125136,-142.857142857143,4,2,1,60,0,0
127495,-95.2380952380952,4,2,1,60,0,0
127832,-142.857142857143,4,2,1,60,0,0
132214,-142.857142857143,4,2,2,40,0,0
143001,-125,4,2,2,50,0,0
152439,-111.111111111111,4,2,2,50,0,0
152776,-100,4,2,2,50,0,0
153787,-166.666666666667,4,2,1,50,0,0
164490,-166.666666666667,4,2,1,5,0,0
164574,-125,4,2,1,60,0,0
165079,-100,4,2,1,60,0,0
165417,-125,4,2,1,60,0,0
169967,-153.846153846154,4,2,1,60,0,0
170220,-153.846153846154,4,2,1,5,0,0
170304,-125,4,2,1,60,0,0
174012,-111.111111111111,4,2,1,60,0,0
174349,-99.9999999999999,4,2,1,60,0,0
175360,-111.111111111111,4,2,1,70,0,1
175697,-111.111111111111,4,2,1,70,0,0
180669,-111.111111111111,4,2,1,5,0,0
180754,-111.111111111111,4,2,1,70,0,0
183956,-83.3333333333333,4,2,1,70,0,0
184462,-111.111111111111,4,2,1,70,0,0
184799,-111.111111111111,4,2,2,70,0,0
184967,-111.111111111111,4,2,1,70,0,0
185473,-111.111111111111,4,2,2,70,0,0
185641,-111.111111111111,4,2,1,70,0,0
185978,-83.3333333333333,4,2,1,70,0,0
186147,-111.111111111111,4,2,1,70,0,1
194574,-111.111111111111,4,2,1,60,0,1
194742,-111.111111111111,4,2,1,55,0,1
194911,-111.111111111111,4,2,1,40,0,1
194995,-111.111111111111,4,2,1,35,0,1
195079,-111.111111111111,4,2,1,30,0,1
195164,-111.111111111111,4,2,1,25,0,1
195248,-111.111111111111,4,2,1,20,0,1
195585,-83.3333333333333,4,2,1,60,0,1
195922,-111.111111111111,4,2,1,40,0,1
196259,-111.111111111111,4,2,1,25,0,1
196428,-111.111111111111,4,2,1,30,0,1
196596,-111.111111111111,4,2,1,40,0,1
196765,-111.111111111111,4,2,1,45,0,1
196933,-111.111111111111,4,2,1,50,0,0
220866,-111.111111111111,4,2,3,5,0,0
221203,-125,4,2,3,60,0,0
223310,-125,4,2,3,5,0,0
223394,-125,4,2,3,60,0,0
223478,-125,4,2,3,5,0,0
223563,-125,4,2,3,60,0,0
223647,-125,4,2,3,5,0,0
223731,-125,4,2,3,60,0,0
223815,-125,4,2,3,5,0,0
223900,-125,4,2,3,60,0,0
226006,-125,4,2,3,5,0,0
226091,-125,4,2,3,60,0,0
226175,-125,4,2,3,5,0,0
226259,-125,4,2,3,60,0,0
226344,-125,4,2,3,5,0,0
226428,-125,4,2,3,60,0,0
226512,-125,4,2,3,5,0,0
226596,-125,4,2,3,60,0,0
234096,-125,4,2,3,5,0,0
234181,-125,4,2,3,60,0,0
234265,-125,4,2,3,5,0,0
234349,-125,4,2,3,60,0,0
234433,-125,4,2,3,5,0,0
234518,-125,4,2,3,60,0,0
234602,-125,4,2,3,5,0,0
234686,-125,4,2,3,60,0,0
236793,-125,4,2,3,5,0,0
236877,-125,4,2,3,60,0,0
236962,-125,4,2,3,5,0,0
237046,-125,4,2,3,60,0,0
237130,-125,4,2,3,5,0,0
237214,-125,4,2,3,60,0,0
237299,-125,4,2,3,5,0,0
237383,-125,4,2,3,60,0,0
242776,-200,4,2,3,40,0,0
256259,-200,4,2,3,50,0,0
258619,-142.857142857143,4,2,3,50,0,0
258956,-200,4,2,3,50,0,0
260978,-200,4,2,3,55,0,0
261653,-200,4,2,3,60,0,0
262327,-200,4,2,3,65,0,0
263001,-100,4,2,3,60,0,0
264349,-76.9230769230769,4,2,1,70,0,1
265613,-76.9230769230769,4,2,1,5,0,1
265697,-76.9230769230769,4,2,1,70,0,1
267299,-76.9230769230769,4,2,1,5,0,1
267383,-76.9230769230769,4,2,1,70,0,1
269405,-100,4,2,1,70,0,1
269742,-76.9230769230769,4,2,1,70,0,1
271006,-76.9230769230769,4,2,1,5,0,1
271091,-76.9230769230769,4,2,1,70,0,1
274462,-76.9230769230769,4,2,1,70,0,0
275136,-76.9230769230769,4,2,1,70,0,1
278085,-76.9230769230769,4,2,1,5,0,1
278169,-76.9230769230769,4,2,1,70,0,1
281793,-76.9230769230769,4,2,1,5,0,1
281877,-76.9230769230769,4,2,1,70,0,1
285922,-111.111111111111,4,2,1,70,0,0
295697,-83.3333333333333,4,2,1,70,0,0
296035,-111.111111111111,4,2,1,70,0,0
296119,-111.111111111111,4,2,1,5,0,0
296203,-111.111111111111,4,2,1,70,0,0
296287,-111.111111111111,4,2,1,5,0,0
296372,-111.111111111111,4,2,1,70,0,0
296456,-111.111111111111,4,2,1,5,0,0
296540,-111.111111111111,4,2,1,70,0,0
296624,-111.111111111111,4,2,1,5,0,0
296709,-111.111111111111,4,2,1,70,0,0
299068,-111.111111111111,4,2,1,70,0,0
299153,-111.111111111111,4,2,1,5,0,0
299237,-111.111111111111,4,2,1,70,0,0
299321,-111.111111111111,4,2,1,5,0,0
299405,-111.111111111111,4,2,1,70,0,0
301849,-111.111111111111,4,2,1,5,0,0
301933,-111.111111111111,4,2,1,70,0,0
302018,-111.111111111111,4,2,1,5,0,0
302102,-111.111111111111,4,2,1,70,0,0
303113,-142.857142857143,4,2,1,70,0,0
303450,-111.111111111111,4,2,1,70,0,0
306147,-76.9230769230769,4,2,1,70,0,0
307495,-166.666666666667,4,2,3,45,0,0
310192,-166.666666666667,4,2,1,45,0,0
318282,-142.857142857143,4,2,1,50,0,0
322664,-100,4,2,1,50,0,0
323001,-142.857142857143,4,2,1,50,0,0
326372,-111.111111111111,4,2,1,60,0,0
326624,-111.111111111111,4,2,1,5,0,0
326709,-111.111111111111,4,2,1,60,0,0
327046,-200,4,2,1,60,0,0
328057,-142.857142857143,4,2,1,60,0,0
328394,-83.3333333333334,4,2,1,60,0,0
328731,-142.857142857143,4,2,1,60,0,0
329068,-111.111111111111,4,2,4,70,0,1
329405,-111.111111111111,4,2,4,70,0,0
338506,-111.111111111111,4,2,2,70,0,0
338675,-111.111111111111,4,2,4,70,0,0
339181,-111.111111111111,4,2,2,70,0,0
339349,-111.111111111111,4,2,4,70,0,0
339686,-83.3333333333333,4,2,4,70,0,0
339855,-111.111111111111,4,2,1,70,0,1
350641,-200,4,2,1,50,0,0
353169,-200,4,2,1,20,0,0
353338,-125,4,2,1,60,0,0
372720,-125,4,2,1,40,0,0
373057,-125,4,2,1,60,0,0
373226,-125,4,2,1,20,0,0
373563,-153.846153846154,4,2,3,20,0,0
373984,-153.846153846154,4,2,3,5,0,0
374068,-153.846153846154,4,2,3,20,0,0
374237,-100,4,2,4,20,0,0
374405,-100,4,2,4,25,0,0
374574,-100,4,2,4,35,0,0
374742,-100,4,2,4,45,0,0
374911,-76.9230769230769,4,2,1,70,0,1
376175,-76.9230769230769,4,2,1,5,0,1
376259,-76.9230769230769,4,2,1,70,0,1
377860,-76.9230769230769,4,2,1,5,0,1
377945,-76.9230769230769,4,2,1,70,0,1
379967,-100,4,2,1,70,0,1
380304,-76.9230769230769,4,2,1,70,0,1
381568,-76.9230769230769,4,2,1,5,0,1
381653,-76.9230769230769,4,2,1,70,0,1
385023,-76.9230769230769,4,2,1,70,0,0
385697,-76.9230769230769,4,2,1,70,0,1
388647,-76.9230769230769,4,2,1,5,0,1
388731,-76.9230769230769,4,2,1,70,0,1
392355,-76.9230769230769,4,2,1,5,0,1
392439,-76.9230769230769,4,2,1,70,0,1
395136,-76.9230769230769,4,2,1,70,0,0
396484,-90.9090909090909,4,2,1,70,0,1
398254,-90.9090909090909,4,2,1,5,0,1
398338,-90.9090909090909,4,2,1,70,0,1
398422,-90.9090909090909,4,2,1,5,0,1
398506,-90.9090909090909,4,2,1,70,0,1
401287,-90.9090909090909,4,2,1,5,0,1
401372,-90.9090909090909,4,2,1,70,0,1
401456,-90.9090909090909,4,2,1,5,0,1
401540,-90.9090909090909,4,2,1,70,0,1
403141,-90.9090909090909,4,2,1,5,0,1
403226,-90.9090909090909,4,2,1,70,0,1
404321,-90.9090909090909,4,2,1,5,0,1
404405,-90.9090909090909,4,2,1,70,0,1
404490,-90.9090909090909,4,2,1,5,0,1
404574,-90.9090909090909,4,2,1,70,0,1
406006,-90.9090909090909,4,2,1,5,0,1
406091,-90.9090909090909,4,2,1,70,0,1
406175,-90.9090909090909,4,2,1,5,0,1
406259,-90.9090909090909,4,2,1,70,0,1
406344,-90.9090909090909,4,2,1,5,0,1
406428,-90.9090909090909,4,2,1,70,0,1
406512,-90.9090909090909,4,2,1,5,0,1
406596,-90.9090909090909,4,2,1,70,0,1
409377,-90.9090909090909,4,2,1,5,0,1
409462,-90.9090909090909,4,2,1,70,0,1
409546,-90.9090909090909,4,2,1,5,0,1
409630,-90.9090909090909,4,2,1,70,0,1
413928,-90.9090909090909,4,2,1,5,0,1
414012,-90.9090909090909,4,2,1,70,0,1
415108,-90.9090909090909,4,2,1,5,0,1
415192,-90.9090909090909,4,2,1,70,0,1
415276,-90.9090909090909,4,2,1,5,0,1
415360,-90.9090909090909,4,2,1,70,0,1
418057,-125,4,2,1,50,0,0
418226,-125,4,2,2,50,0,0
418394,-125,4,2,1,50,0,0
421259,-125,4,2,2,50,0,0
421428,-125,4,2,1,50,0,0
423619,-125,4,2,2,50,0,0
423787,-125,4,2,1,50,0,0
425304,-125,4,2,2,50,0,0
425641,-125,4,2,1,50,0,0
428844,-200,4,2,3,30,0,0
440978,-200,4,2,3,20,0,0
442327,-200,4,2,3,10,0,0
443675,-200,4,2,3,7,0,0
445023,-200,4,2,3,5,0,0

[Colours]
Combo1 : 108,188,219
Combo2 : 225,70,74
Combo3 : 201,109,235
Combo4 : 88,135,214
Combo5 : 210,159,66

[HitObjects]
256,192,20810,12,0,23970,0:0:0:0:
381,262,24349,5,0,1:0:0:0:
373,261,24518,2,0,P|364:226|372:188,1,69.9999978637696,2|0,0:0|0:0,0:0:0:0:
456,105,24855,1,0,0:0:0:0:
354,167,25023,1,0,0:0:0:0:
456,105,25192,1,0,0:0:0:0:
461,227,25360,1,0,0:0:0:0:
354,167,25529,1,0,0:0:0:0:
256,214,25697,5,0,0:0:0:0:
252,207,25866,1,0,0:0:0:0:
248,200,26034,1,0,0:0:0:0:
244,193,26203,1,0,0:0:0:0:
240,186,26372,1,0,0:0:0:0:
181,263,26540,5,0,1:0:0:0:
212,83,26709,2,0,L|206:118,1,34.9999989318848,2|2,0:0|0:0,0:0:0:0:
190,132,26877,2,0,L|197:167,1,34.9999989318848,2|2,0:0|0:0,0:0:0:0:
256,214,27046,5,0,1:0:0:0:
326,183,27214,1,0,0:0:0:0:
388,230,27383,1,0,0:0:0:0:
378,306,27551,2,0,L|298:303,1,69.9999978637696,2|0,0:0|0:0,0:0:0:0:
213,300,27888,1,0,0:0:0:0:
378,306,28057,1,0,0:0:0:0:
213,300,28226,1,0,0:0:0:0:
325,182,28394,6,0,L|321:113,1,69.9999978637696
460,196,28731,2,0,L|455:265,1,69.9999978637696
325,182,29068,1,0,0:0:0:0:
460,196,29237,5,0,1:0:0:0:
378,306,29405,2,0,P|360:308|341:300,1,34.9999989318848,2|2,0:0|0:0,0:0:0:0:
282,256,29574,2,0,P|267:244|260:225,1,34.9999989318848,2|2,0:0|0:0,0:0:0:0:
249,152,29742,5,0,1:0:0:0:
251,145,29911,2,0,P|218:154|181:149,1,69.9999978637696,2|0,0:0|0:0,0:0:0:0:
85,73,30248,1,0,0:0:0:0:
158,177,30417,1,0,0:0:0:0:
85,73,30585,1,0,0:0:0:0:
212,63,30754,1,0,0:0:0:0:
158,177,30922,1,0,0:0:0:0:
220,269,31091,5,0,0:0:0:0:
214,273,31259,1,0,0:0:0:0:
208,277,31428,1,0,0:0:0:0:
97,212,31596,2,0,L|158:177,1,69.9999978637696,2|0,0:0|0:0,0:0:0:0:
208,277,31933,5,0,1:0:0:0:
97,212,32102,1,2,0:0:0:0:
251,122,32271,1,2,0:0:0:0:
254,126,32355,1,2,0:0:0:0:
258,132,32439,5,0,1:0:0:0:
231,205,32608,1,0,0:0:0:0:
208,277,32776,1,0,0:0:0:0:
258,132,32945,1,0,0:0:0:0:
288,264,33113,1,0,0:0:0:0:
152,215,33282,1,0,0:0:0:0:
312,189,33450,1,0,0:0:0:0:
152,215,33619,1,0,0:0:0:0:
292,333,33787,6,0,L|287:255,1,69.9999978637696
156,145,34124,2,0,L|151:214,1,69.9999978637696
145,314,34462,1,0,0:0:0:0:
156,145,34630,5,0,1:0:0:0:
287,263,34799,2,0,P|308:263|327:251,1,34.9999989318848,2|2,0:0|0:0,0:0:0:0:
378,207,34967,2,0,P|392:192|397:170,1,34.9999989318848,2|2,0:0|0:0,0:0:0:0:
402,103,35136,5,0,1:0:0:0:
397,97,35304,2,0,L|322:97,1,69.9999978637696,2|0,0:0|0:0,0:0:0:0:
228,174,35641,1,0,0:0:0:0:
302,76,35810,1,0,0:0:0:0:
228,174,35978,1,0,0:0:0:0:
350,189,36147,1,0,0:0:0:0:
302,76,36315,1,0,0:0:0:0:
202,169,36484,5,0,0:0:0:0:
195,166,36653,1,0,0:0:0:0:
188,164,36821,1,0,0:0:0:0:
181,162,36990,1,0,0:0:0:0:
174,160,37158,1,0,0:0:0:0:
153,279,37327,5,0,1:0:0:0:
50,151,37495,2,0,L|85:156,1,34.9999989318848,2|2,0:0|0:0,0:0:0:0:
102,141,37664,2,0,L|137:137,1,34.9999989318848,2|2,0:0|0:0,0:0:0:0:
202,169,37832,5,0,1:0:0:0:
275,144,38001,1,0,0:0:0:0:
344,175,38169,1,0,0:0:0:0:
359,250,38338,2,0,L|286:254,1,69.9999978637696,2|0,0:0|0:0,0:0:0:0:
195,259,38675,1,0,0:0:0:0:
359,250,38844,1,0,0:0:0:0:
195,259,39012,1,0,0:0:0:0:
275,144,39181,6,0,L|269:71,1,69.9999978637696
419,197,39518,2,0,L|424:127,1,69.9999978637696
289,253,39855,1,0,0:0:0:0:
275,144,40023,5,0,1:0:0:0:
419,197,40192,2,0,L|415:244,1,34.9999989318848,2|2,0:0|0:0,0:0:0:0:
403,307,40360,2,0,L|356:303,1,34.9999989318848,2|2,0:0|0:0,0:0:0:0:
293,291,40529,6,0,L|299:216,1,69.9999978637696,0|2,1:0|0:0,0:0:0:0:
242,114,40866,1,0,0:0:0:0:
327,203,41035,1,0,0:0:0:0:
192,276,41203,6,0,L|198:201,1,69.9999978637696
241,113,41540,1,0,0:0:0:0:
241,113,41624,1,0,0:0:0:0:
241,113,41709,2,0,L|236:44,1,69.9999978637696
327,203,42046,1,0,0:0:0:0:
197,206,42214,5,0,0:0:0:0:
241,113,42383,1,2,0:0:0:0:
266,271,42551,1,0,0:0:0:0:
241,113,42720,1,0,1:0:0:0:
157,239,42888,1,2,0:0:0:0:
389,255,43057,6,0,L|246:246,1,139.999995727539,6|2,0:0|0:0,0:0:0:0:
157,239,43563,1,0,0:0:0:0:
249,246,43731,1,0,0:0:0:0:
149,120,43900,1,0,0:0:0:0:
241,113,44068,5,0,0:0:0:0:
157,239,44237,1,0,0:0:0:0:
241,365,44405,1,0,1:0:0:0:
325,239,44574,6,0,L|181:238,1,139.999995727539,4|0,0:0|0:0,0:0:0:0:
55,238,45079,1,0,0:0:0:0:
45,237,45248,2,0,L|184:237,1,139.500004363632,4|0,0:0|0:0,0:0:0:0:
325,239,45585,2,0,P|330:214|325:187,1,46.5000014545441,8|8,0:0|0:0,0:0:0:0:
182,192,45754,2,0,P|179:215|184:237,1,46.5000014545441,8|8,0:0|0:0,0:0:0:0:
256,320,45922,5,4,1:0:0:0:
264,326,46091,1,2,0:0:0:0:
325,239,46259,2,0,P|328:197|309:153,1,80,10|2,0:0|0:0,0:0:0:0:
237,88,46596,1,0,0:0:0:0:
417,173,46765,1,2,1:0:0:0:
325,239,46933,2,0,P|287:246|247:238,1,80,10|2,0:0|0:0,0:0:0:0:
145,113,47271,5,0,1:0:0:0:
137,115,47439,1,2,0:0:0:0:
223,233,47608,1,10,0:0:0:0:
145,113,47776,1,2,0:0:0:0:
314,139,47945,6,0,P|292:146|277:159,1,40,2|2,0:0|0:0,0:0:0:0:
220,272,48113,2,0,P|218:252|223:233,1,40,0|2,1:0|0:0,0:0:0:0:
325,56,48282,1,10,0:0:0:0:
361,72,48366,1,2,0:0:0:0:
386,102,48450,1,2,0:0:0:0:
395,141,48534,1,2,0:0:0:0:
385,180,48619,5,0,1:0:0:0:
381,187,48787,1,2,0:0:0:0:
223,233,48956,2,0,P|213:195|221:149,1,80,10|2,0:0|0:0,0:0:0:0:
300,189,49293,1,0,0:0:0:0:
137,231,49462,1,2,1:0:0:0:
222,77,49630,2,0,P|228:116|218:155,1,80,10|2,0:0|0:0,0:0:0:0:
137,231,49967,5,0,1:0:0:0:
300,189,50136,1,2,0:0:0:0:
137,111,50304,1,10,0:0:0:0:
236,269,50473,1,2,0:0:0:0:
334,110,50641,5,2,0:0:0:0:
137,231,50810,1,0,1:0:0:0:
373,254,50978,1,10,0:0:0:0:
382,215,51062,1,2,0:0:0:0:
378,175,51146,1,2,0:0:0:0:
361,139,51230,1,2,0:0:0:0:
334,110,51315,5,0,1:0:0:0:
326,109,51484,1,0,0:0:0:0:
460,203,51653,2,0,P|422:213|377:214,1,80,8|0,0:0|0:0,0:0:0:0:
266,182,51990,1,0,0:0:0:0:
418,94,52158,1,0,1:0:0:0:
390,292,52327,2,0,P|379:254|381:214,1,80,8|0,0:0|0:0,0:0:0:0:
250,101,52664,5,0,1:0:0:0:
252,93,52832,1,0,0:0:0:0:
222,261,53001,1,10,0:0:0:0:
250,101,53169,1,0,0:0:0:0:
253,337,53338,6,0,P|207:342|173:326,1,80,2|0,0:0|1:0,1:0:0:0:
74,195,53675,1,10,0:0:0:0:
113,191,53759,1,2,0:0:0:0:
153,187,53843,1,2,0:0:0:0:
193,184,53927,1,2,0:0:0:0:
233,180,54012,5,0,1:0:0:0:
241,180,54181,1,0,0:0:0:0:
158,98,54349,2,0,L|70:109,1,80,10|0,0:0|0:0,0:0:0:0:
4,204,54686,1,2,0:0:0:0:
78,107,54855,1,0,1:0:0:0:
154,240,55023,1,10,0:0:0:0:
238,94,55192,1,2,0:0:0:0:
320,257,55360,6,0,P|283:264|230:257,1,80,0|0,1:0|0:0,0:0:0:0:
140,170,55697,1,8,0:0:0:0:
302,65,55866,2,0,P|309:83|305:110,1,40,0|0,1:0|1:0,0:0:0:0:
241,260,56035,6,0,P|228:225|236:182,1,75.0000028610231,4|0,1:0|0:0,0:0:0:0:
402,62,56372,6,0,P|410:113|392:161,1,100,4|0,1:0|0:0,0:0:0:0:
139,326,56709,6,0,B|131:278|131:278|147:214|147:214|139:166,1,160,4|10,1:0|0:0,0:0:0:0:
231,274,57214,6,0,L|123:278,1,100,4|0,1:0|0:0,0:0:0:0:
42,209,57551,1,2,1:0:0:0:
232,165,57720,1,10,0:0:0:0:
132,278,57888,1,2,0:0:0:0:
291,319,58057,6,0,P|305:278|298:239,1,80,0|2,1:0|0:0,0:0:0:0:
228,127,58394,1,10,0:0:0:0:
221,122,58563,1,2,0:0:0:0:
342,225,58731,5,2,0:0:0:0:
147,213,58900,1,2,1:0:0:0:
313,82,59068,1,10,0:0:0:0:
341,111,59152,1,2,0:0:0:0:
356,148,59236,1,2,0:0:0:0:
356,187,59320,1,2,0:0:0:0:
342,224,59405,5,0,1:0:0:0:
335,230,59574,1,2,0:0:0:0:
147,213,59742,2,0,L|152:125,1,80,10|2,0:0|0:0,0:0:0:0:
250,222,60079,1,0,0:0:0:0:
154,108,60248,1,2,1:0:0:0:
66,241,60417,2,0,L|153:239,1,80,10|2,0:0|0:0,0:0:0:0:
252,122,60754,5,0,1:0:0:0:
259,123,60922,1,2,0:0:0:0:
88,157,61091,1,10,0:0:0:0:
257,257,61259,1,2,0:0:0:0:
170,78,61428,6,0,P|161:119|170:168,1,80,2|0,0:0|0:0,0:0:0:0:
257,257,61765,1,10,0:0:0:0:
219,245,61849,1,2,0:0:0:0:
180,254,61933,1,2,1:0:0:0:
150,280,62017,1,2,0:0:0:0:
137,317,62102,6,0,B|177:346|177:346|226:336,1,97.4999955368044,4|0,1:0|0:0,0:0:0:0:
257,257,62439,6,0,L|250:175,1,80,8|0,0:0|0:0,0:0:0:0:
396,322,62776,1,0,0:0:0:0:
397,314,62945,1,0,0:0:0:0:
335,180,63113,1,8,0:0:0:0:
396,322,63282,1,0,0:0:0:0:
469,173,63450,6,0,L|475:252,1,80
263,336,63787,2,0,L|256:256,1,80,10|0,0:0|0:0,0:0:0:0:
369,116,64124,1,2,0:0:0:0:
379,237,64293,1,0,0:0:0:0:
246,135,64462,1,10,0:0:0:0:
256,256,64630,1,0,1:0:0:0:
252,248,64714,1,0,1:0:0:0:
248,240,64799,6,0,L|163:244,1,80,0|0,1:0|0:0,0:0:0:0:
369,115,65136,2,0,L|289:108,1,80,8|0,0:0|0:0,0:0:0:0:
168,243,65473,1,4,1:0:0:0:
329,235,65641,1,2,0:0:0:0:
153,132,65810,1,10,0:0:0:0:
111,310,65978,1,2,0:0:0:0:
340,253,66147,6,0,L|332:162,1,89.9999972534181,2|0,1:0|0:0,0:0:0:0:
323,263,66484,6,0,L|332:163,1,100,10|0,1:0|0:0,0:0:0:0:
203,312,66821,5,2,1:0:0:0:
332,163,66990,1,2,1:0:0:0:
54,98,67158,1,2,1:0:0:0:
44,107,67495,6,0,B|100:107|100:107|164:131|164:131|220:131,1,179.999994506836,4|10,0:0|0:0,0:0:0:0:
88,237,68001,1,2,0:0:0:0:
88,237,68085,1,2,0:0:0:0:
88,237,68169,2,0,P|85:212|86:190,1,44.999998626709,2|0,0:0|0:0,0:0:0:0:
181,51,68338,1,2,1:0:0:0:
85,192,68506,1,10,0:0:0:0:
275,261,68675,2,0,P|276:223|271:206,1,44.999998626709
219,131,68844,5,2,1:0:0:0:
308,126,69012,2,0,L|219:131,1,89.9999972534181,0|10,0:0|0:0,0:0:0:0:
275,261,69349,1,2,0:0:0:0:
275,261,69433,1,2,0:0:0:0:
275,261,69518,2,0,P|299:263|326:254,1,44.999998626709,2|0,0:0|0:0,0:0:0:0:
403,203,69686,2,0,P|409:181|407:158,1,44.999998626709,2|0,1:0|0:0,0:0:0:0:
370,70,69855,1,10,0:0:0:0:
290,188,70023,1,0,0:0:0:0:
244,47,70192,5,2,1:0:0:0:
193,188,70360,1,2,0:0:0:0:
193,188,70445,1,2,0:0:0:0:
193,188,70529,1,8,0:0:0:0:
330,64,70697,5,2,0:0:0:0:
289,47,70782,1,2,0:0:0:0:
244,47,70866,1,2,0:0:0:0:
203,64,70949,1,0,0:0:0:0:
170,95,71034,1,2,1:0:0:0:
267,161,71203,1,8,0:0:0:0:
289,295,71372,1,2,0:0:0:0:
270,275,71456,1,2,0:0:0:0:
262,249,71540,6,0,P|258:201|268:156,1,89.9999972534181,0|0,1:0|0:0,0:0:0:0:
336,66,71877,1,8,0:0:0:0:
142,151,72046,1,0,0:0:0:0:
375,208,72214,1,2,0:0:0:0:
383,210,72299,1,2,0:0:0:0:
391,211,72383,1,2,1:0:0:0:
177,142,72551,5,10,0:0:0:0:
151,188,72636,1,2,0:0:0:0:
166,238,72720,1,2,0:0:0:0:
212,264,72804,1,2,0:0:0:0:
263,250,72888,6,0,B|311:250|311:250|391:282|391:282|439:282,1,179.999994506836,4|8,0:0|0:0,0:0:0:0:
419,155,73394,1,2,0:0:0:0:
419,155,73478,1,2,0:0:0:0:
419,155,73563,2,0,P|412:176|409:205,1,44.999998626709,2|0,0:0|0:0,0:0:0:0:
313,374,73731,2,0,P|310:351|303:330,1,44.999998626709,0|0,1:0|0:0,0:0:0:0:
219,196,73900,1,8,0:0:0:0:
204,324,74068,1,0,0:0:0:0:
113,231,74237,5,2,1:0:0:0:
266,195,74405,1,2,0:0:0:0:
266,195,74490,1,2,0:0:0:0:
266,195,74574,1,10,0:0:0:0:
204,324,74742,1,0,0:0:0:0:
77,242,74911,5,2,0:0:0:0:
217,371,75079,1,2,1:0:0:0:
266,195,75248,1,10,0:0:0:0:
119,309,75417,1,2,0:0:0:0:
299,365,75585,6,0,B|314:321|314:321|302:275,1,89.9999972534181,4|0,0:0|0:0,0:0:0:0:
266,195,75922,1,8,0:0:0:0:
119,309,76091,1,2,0:0:0:0:
145,325,76175,1,2,0:0:0:0:
176,332,76259,1,2,0:0:0:0:
207,329,76343,1,2,0:0:0:0:
236,318,76428,5,2,1:0:0:0:
161,144,76596,1,10,0:0:0:0:
119,309,76765,2,0,L|133:254,1,44.999998626709,2|2,0:0|0:0,0:0:0:0:
165,126,76933,5,4,0:0:0:0:
95,303,77102,1,0,0:0:0:0:
298,129,77271,1,8,0:0:0:0:
236,318,77439,1,0,0:0:0:0:
46,233,77608,1,0,1:0:0:0:
285,212,77776,2,0,P|257:223|225:218,1,55.0000016784668,8|8,0:0|0:0,0:0:0:0:
145,196,77945,2,0,P|117:183|98:157,1,55.0000016784668,8|8,0:0|0:0,0:0:0:0:
57,85,78113,1,0,1:0:0:0:
345,75,78282,6,0,B|337:123|337:123|369:203|369:203|361:251,1,179.999994506836,4|10,0:0|0:0,0:0:0:0:
469,121,78787,1,2,0:0:0:0:
469,121,78872,1,2,0:0:0:0:
469,121,78956,2,0,P|447:114|425:115,1,44.999998626709,2|0,0:0|0:0,0:0:0:0:
285,212,79124,1,2,1:0:0:0:
425,114,79293,1,10,0:0:0:0:
267,48,79462,1,0,0:0:0:0:
285,212,79630,5,2,1:0:0:0:
196,227,79799,2,0,B|285:212,1,89.9999972534181,0|10,0:0|0:0,0:0:0:0:
392,272,80136,1,2,0:0:0:0:
430,159,80304,2,0,P|429:133|423:109,1,44.999998626709,2|2,0:0|0:0,0:0:0:0:
279,70,80473,2,0,P|272:91|273:113,1,44.999998626709,2|2,1:0|0:0,0:0:0:0:
285,212,80641,1,10,0:0:0:0:
163,158,80810,1,0,0:0:0:0:
187,307,80978,5,2,1:0:0:0:
356,276,81146,1,2,0:0:0:0:
356,276,81231,1,2,0:0:0:0:
356,276,81315,1,10,0:0:0:0:
356,144,81484,5,2,0:0:0:0:
318,119,81568,1,2,0:0:0:0:
274,114,81652,1,2,0:0:0:0:
232,129,81736,1,0,0:0:0:0:
201,162,81821,1,2,1:0:0:0:
285,212,81990,1,10,0:0:0:0:
213,315,82158,1,2,0:0:0:0:
187,307,82242,1,0,0:0:0:0:
170,285,82327,6,0,L|163:193,1,89.9999972534181,0|0,1:0|0:0,0:0:0:0:
214,115,82664,1,8,0:0:0:0:
170,285,82832,1,0,0:0:0:0:
58,225,83001,1,2,0:0:0:0:
49,226,83085,1,2,0:0:0:0:
40,227,83169,1,2,1:0:0:0:
214,115,83338,5,10,0:0:0:0:
265,126,83422,1,2,0:0:0:0:
298,167,83506,1,2,0:0:0:0:
299,220,83590,1,2,0:0:0:0:
266,262,83675,6,0,P|344:276|297:339,1,179.999994506836,4|8,0:0|0:0,0:0:0:0:
382,199,84181,1,2,0:0:0:0:
382,199,84265,1,2,0:0:0:0:
382,199,84349,2,0,P|403:220|414:239,1,44.999998626709,2|0,0:0|0:0,0:0:0:0:
305,338,84518,2,0,P|286:347|260:348,1,44.999998626709,2|0,1:0|0:0,0:0:0:0:
153,305,84686,1,10,0:0:0:0:
198,156,84855,1,2,0:0:0:0:
299,296,85023,5,2,1:0:0:0:
108,278,85192,1,0,0:0:0:0:
305,167,85360,1,10,0:0:0:0:
99,185,85529,1,0,0:0:0:0:
299,296,85697,6,0,P|274:311|247:314,1,55.0000016784668,2|2,0:0|0:0,0:0:0:0:
153,305,85866,2,0,P|125:295|106:276,1,55.0000016784668,0|2,1:0|0:0,0:0:0:0:
57,197,86034,1,10,0:0:0:0:
316,228,86203,1,0,0:0:0:0:
219,238,86372,6,0,P|222:193|237:148,1,89.9999972534181,4|0,0:0|0:0,0:0:0:0:
318,99,86709,1,8,0:0:0:0:
433,228,86877,6,0,B|314:228|314:228|325:238|325:238|217:238,1,239.999992675781,8|2,0:0|1:0,0:0:0:0:
318,99,87383,1,10,0:0:0:0:
378,322,87551,1,2,0:0:0:0:
495,144,87720,6,0,L|399:144,1,89.9999972534181,4|2,0:0|0:0,0:0:0:0:
180,322,88057,2,0,L|276:322,1,89.9999972534181,10|2,0:0|0:0,0:0:0:0:
370,322,88310,1,2,0:0:0:0:
378,322,88394,1,6,0:0:0:0:
235,150,88563,1,0,0:0:0:0:
455,222,88731,1,6,0:0:0:0:
180,322,88900,1,0,0:0:0:0:
330,81,89068,6,0,B|338:129|338:129|314:209|314:209|322:257,1,179.999994506836,4|10,1:0|0:0,0:0:0:0:
409,215,89574,1,2,0:0:0:0:
230,240,89742,1,2,0:0:0:0:
409,215,89911,2,0,L|223:242,1,179.999994506836,2|2,1:0|0:0,0:0:0:0:
258,120,90417,5,0,1:0:0:0:
321,256,90585,1,2,0:0:0:0:
420,132,90754,2,0,L|432:226,1,89.9999972534181,10|0,0:0|0:0,0:0:0:0:
332,345,91091,1,2,0:0:0:0:
332,345,91259,2,0,L|320:255,1,89.9999972534181,2|8,1:0|0:0,0:0:0:0:
230,240,91596,1,0,0:0:0:0:
431,221,91765,5,0,1:0:0:0:
337,119,91933,1,0,0:0:0:0:
230,240,92102,2,0,L|140:245,1,89.9999972534181,10|2,0:0|0:0,0:0:0:0:
247,123,92439,1,2,0:0:0:0:
337,119,92608,2,0,L|247:124,1,89.9999972534181,0|10,1:0|0:0,0:0:0:0:
230,240,92945,1,2,0:0:0:0:
438,253,93113,6,0,B|457:227|457:227|310:236,1,179.999994506836,2|10,1:0|0:0,0:0:0:0:
356,315,93619,1,2,0:0:0:0:
434,137,93787,2,0,L|344:142,1,89.9999972534181,2|0,0:0|1:0,0:0:0:0:
266,319,94124,2,0,L|356:314,1,89.9999972534181,10|0,0:0|0:0,0:0:0:0:
228,185,94462,6,0,B|194:275|194:275|272:322,1,179.999994506836,2|10,1:0|0:0,0:0:0:0:
289,242,94967,1,0,0:0:0:0:
124,240,95136,2,0,B|114:283|114:283|131:324,1,89.9999972534181,2|0,0:0|1:0,0:0:0:0:
363,278,95473,2,0,B|372:234|372:234|355:193,1,89.9999972534181,8|0,0:0|0:0,0:0:0:0:
227,110,95810,6,0,B|223:151|223:151|239:199|239:199|223:247|223:247|231:287,1,179.999994506836,2|10,1:0|0:0,0:0:0:0:
142,200,96315,1,2,0:0:0:0:
315,139,96484,1,2,0:0:0:0:
230,283,96653,1,0,1:0:0:0:
227,110,96821,1,10,0:0:0:0:
362,229,96990,1,2,0:0:0:0:
142,200,97158,6,0,B|236:197|236:197|230:283,1,179.999994506836,2|10,1:0|0:0,0:0:0:0:
134,323,97664,1,2,0:0:0:0:
142,200,97832,2,0,L|149:106,1,89.9999972534181,2|0,0:0|1:0,0:0:0:0:
302,288,98169,2,0,L|310:198,1,89.9999972534181,10|2,0:0|0:0,0:0:0:0:
325,56,98506,5,6,0:0:0:0:
142,200,98675,1,2,0:0:0:0:
394,272,98844,2,0,B|442:200|442:200|394:120,1,179.999994506836,10|6,0:0|0:0,0:0:0:0:
310,198,99349,1,2,0:0:0:0:
207,99,99518,2,0,L|177:99,2,29.9999990844727,10|2|2,0:0|0:0|0:0,0:0:0:0:
142,124,99686,6,0,P|139:94|150:63,1,59.9999981689454,2|0,0:0|0:0,0:0:0:0:
330,13,99855,6,0,B|338:53|338:53|298:149|298:149|306:189,1,179.999994506836,4|10,1:0|0:0,0:0:0:0:
397,157,100360,1,2,0:0:0:0:
397,157,100445,1,2,0:0:0:0:
397,157,100529,1,2,0:0:0:0:
258,44,100697,1,0,1:0:0:0:
315,224,100866,1,10,0:0:0:0:
433,75,101035,2,0,L|437:130,1,44.999998626709,2|2,0:0|0:0,0:0:0:0:
442,213,101203,6,0,L|350:219,1,89.9999972534181,0|2,1:0|0:0,0:0:0:0:
210,227,101540,1,10,0:0:0:0:
352,219,101709,1,0,0:0:0:0:
144,200,101877,2,0,P|137:226|142:249,1,44.999998626709,2|0,0:0|0:0,0:0:0:0:
356,263,102046,2,0,P|358:240|351:219,1,44.999998626709,2|0,1:0|0:0,0:0:0:0:
257,123,102214,1,10,0:0:0:0:
243,337,102383,1,2,0:0:0:0:
242,345,102467,1,2,0:0:0:0:
241,353,102551,6,0,L|150:345,1,89.9999972534181,0|0,1:0|0:0,0:0:0:0:
67,334,102804,1,0,0:0:0:0:
58,332,102889,1,10,0:0:0:0:
210,227,103057,1,2,0:0:0:0:
44,115,103226,2,0,L|47:173,1,44.999998626709,2|2,0:0|0:0,0:0:0:0:
50,240,103394,1,2,1:0:0:0:
210,227,103563,1,10,0:0:0:0:
42,96,103731,1,2,0:0:0:0:
43,106,103816,1,2,0:0:0:0:
44,115,103900,6,0,L|137:108,1,89.9999972534181,0|2,1:0|0:0,0:0:0:0:
254,223,104237,2,0,L|209:226,1,44.999998626709,10|0,0:0|0:0,0:0:0:0:
94,236,104405,2,0,L|50:240,1,44.999998626709,2|0,0:0|0:0,0:0:0:0:
207,203,104574,1,2,0:0:0:0:
23,243,104742,1,0,1:0:0:0:
162,287,104911,1,10,0:0:0:0:
133,108,105079,1,0,1:0:0:0:
34,352,105248,6,0,B|90:344|90:344|154:368|154:368|210:360,1,179.999994506836,4|10,1:0|0:0,0:0:0:0:
251,274,105754,1,2,0:0:0:0:
251,274,105838,1,2,0:0:0:0:
251,274,105922,2,0,L|161:286,1,89.9999972534181,2|0,0:0|0:0,0:0:0:0:
99,138,106259,1,8,1:0:0:0:
28,228,106428,6,0,L|206:203,1,179.999994506836,6|2,1:0|0:0,0:0:0:0:
295,187,106849,1,2,0:0:0:0:
303,186,106933,1,10,0:0:0:0:
195,234,107102,1,0,0:0:0:0:
99,138,107271,1,2,0:0:0:0:
10,151,107439,2,0,L|99:138,1,89.9999972534181,0|8,1:0|0:0,0:0:0:0:
235,70,107776,2,0,L|192:60,1,44.999998626709,2|2,1:0|0:0,0:0:0:0:
99,138,107945,6,0,B|148:132|148:132|227:152|227:152|276:148,1,179.999994506836,6|10,1:0|0:0,0:0:0:0:
149,250,108450,1,2,0:0:0:0:
149,250,108535,1,2,0:0:0:0:
149,250,108619,2,0,B|275:238|275:238|239:282,1,179.999994506836,6|10,1:0|0:0,0:0:0:0:
99,138,109124,6,0,B|148:132|148:132|227:152|227:152|276:148,1,179.999994506836,4|2,1:0|0:0,0:0:0:0:
355,183,109546,1,2,0:0:0:0:
346,184,109630,1,10,0:0:0:0:
236,65,109799,1,0,0:0:0:0:
241,279,109967,1,4,0:0:0:0:
9,151,110136,2,0,L|98:138,1,89.9999972534181,2|0,1:0|0:0,0:0:0:0:
128,53,110473,1,2,1:0:0:0:
152,202,110641,6,0,B|136:234|136:234|97:136,1,139.999995727539,4|0,1:0|0:0,0:0:0:0:
97,137,111147,1,0,1:0:0:0:
211,260,111315,6,0,B|178:331|178:331|167:307,1,104.999996795654,8|0,0:0|0:0,0:0:0:0:
238,184,111653,6,0,B|299:217|299:217|363:181,1,139.999995727539
305,311,112158,1,0,0:0:0:0:
305,311,112327,2,0,L|302:241,1,69.9999978637696,0|0,1:0|0:0,0:0:0:0:
297,126,112664,5,8,0:0:0:0:
330,309,113001,1,0,0:0:0:0:
297,126,113338,6,0,P|237:151|234:91,1,139.999995727539,0|0,1:0|0:0,0:0:0:0:
401,122,113844,1,0,1:0:0:0:
297,126,114012,6,0,L|401:122,1,104.999996795654,8|0,0:0|0:0,0:0:0:0:
284,277,114349,6,0,P|229:238|165:259,1,139.999995727539
203,342,114771,1,0,0:0:0:0:
214,349,114855,2,0,L|218:315,1,34.9999989318848
235,196,115023,1,0,1:0:0:0:
235,196,115192,1,0,1:0:0:0:
370,317,115360,5,8,0:0:0:0:
164,259,115697,1,0,0:0:0:0:
370,317,116035,5,0,1:0:0:0:
310,222,116203,2,0,L|314:183,1,34.9999989318848
292,213,116372,2,0,L|296:174,1,34.9999989318848
274,204,116540,1,0,1:0:0:0:
148,277,116709,6,0,B|166:326|166:326|218:315,1,104.999996795654,8|0,0:0|0:0,0:0:0:0:
169,183,117046,6,0,L|217:315,1,139.999995727539
246,384,117467,1,0,0:0:0:0:
246,384,117551,1,0,0:0:0:0:
312,281,117720,1,0,1:0:0:0:
312,281,118057,5,8,0:0:0:0:
169,183,118394,1,0,0:0:0:0:
246,384,118731,6,0,B|274:368|274:368|321:377|357:365|357:365|383:367,1,139.999995727539,0|0,1:0|0:0,0:0:0:0:
344,190,119237,1,0,1:0:0:0:
312,282,119405,6,0,P|311:230|344:190,1,104.999996795654,8|0,0:0|0:0,0:0:0:0:
501,351,119742,6,0,P|444:387|380:366,1,139.999995727539
435,308,120164,1,0,0:0:0:0:
433,295,120248,2,0,L|430:258,1,34.9999989318848
445,167,120417,1,0,1:0:0:0:
445,167,120754,5,8,1:0:0:0:
435,308,120922,1,0,1:0:0:0:
423,168,121091,2,0,L|318:172,1,104.999996795654,8|0,0:0|0:0,0:0:0:0:
318,171,121428,6,0,P|305:136|317:98,1,69.9999978637696,0|0,1:0|0:0,0:0:0:0:
383,54,121681,1,0,0:0:0:0:
396,54,121765,2,0,L|435:53,1,34.9999989318848
511,53,121933,1,0,1:0:0:0:
423,168,122102,6,0,B|372:177|372:177|318:171,1,104.999996795654,8|0,0:0|0:0,0:0:0:0:
309,28,122439,6,0,L|163:32,1,139.999995727539
105,83,122860,1,0,0:0:0:0:
102,96,122945,2,0,L|107:141,1,34.9999989318848
119,242,123113,1,0,1:0:0:0:
78,101,123282,1,0,0:0:0:0:
119,242,123450,6,0,P|174:251|214:224,1,104.999996795654,8|0,0:0|0:0,0:0:0:0:
252,119,123787,1,0,0:0:0:0:
252,119,124124,6,0,P|243:180|295:235,1,139.999995727539,0|0,1:0|0:0,0:0:0:0:
323,159,124630,1,0,1:0:0:0:
158,183,124799,6,0,B|141:236|141:236|168:280,1,104.999996795654,8|0,0:0|0:0,0:0:0:0:
300,373,125136,6,0,L|292:225,1,139.999995727539
323,159,125557,1,0,0:0:0:0:
323,159,125641,2,0,L|365:162,1,34.9999989318848
466,169,125810,1,0,1:0:0:0:
322,139,125978,1,0,1:0:0:0:
336,304,126147,5,8,0:0:0:0:
323,159,126484,1,0,0:0:0:0:
336,304,126821,5,0,1:0:0:0:
221,221,126990,2,0,L|224:255,1,34.9999989318848
203,230,127159,2,0,L|206:264,1,34.9999989318848
185,239,127327,1,0,1:0:0:0:
323,159,127495,6,0,L|333:265,1,104.999996795654,8|0,0:0|0:0,0:0:0:0:
284,362,127832,5,0,0:0:0:0:
284,362,128169,2,0,L|245:357,1,34.9999989318848
165,337,128338,1,0,0:0:0:0:
311,271,128506,1,0,1:0:0:0:
296,131,128844,2,0,L|311:271,1,139.999995727539,8|0,0:0|0:0,0:0:0:0:
284,362,129518,5,0,1:0:0:0:
256,192,129602,12,0,131877,1:0:0:0:
204,315,132214,5,4,1:0:0:0:
209,310,132383,2,0,P|214:277|199:236,1,69.9999978637696,0|8,0:0|0:0,0:0:0:0:
110,178,132720,1,0,0:0:0:0:
213,213,132888,1,0,0:0:0:0:
110,178,133057,1,0,0:0:0:0:
130,286,133226,1,8,0:0:0:0:
213,213,133394,1,0,0:0:0:0:
305,272,133563,5,0,0:0:0:0:
310,267,133731,1,0,0:0:0:0:
315,262,133900,1,8,0:0:0:0:
320,257,134068,1,0,0:0:0:0:
325,252,134237,1,0,0:0:0:0:
397,331,134405,5,0,0:0:0:0:
458,220,134574,2,0,L|422:222,1,34.9999989318848,10|2,0:0|0:0,0:0:0:0:
406,236,134742,2,0,L|371:225,1,34.9999989318848,2|2,0:0|0:0,0:0:0:0:
332,162,134911,5,0,1:0:0:0:
260,191,135079,1,0,0:0:0:0:
188,220,135248,1,8,0:0:0:0:
117,250,135417,2,0,L|89:182,1,69.9999978637696,2|0,0:0|0:0,0:0:0:0:
49,103,135754,1,0,0:0:0:0:
117,250,135922,1,8,0:0:0:0:
49,103,136091,1,0,0:0:0:0:
230,117,136259,6,0,P|199:139|164:143,1,69.9999978637696
117,250,136596,2,0,P|151:255|179:276,1,69.9999978637696,8|0,0:0|0:0,0:0:0:0:
229,362,136933,1,0,0:0:0:0:
121,328,137102,1,0,0:0:0:0:
290,220,137271,2,0,P|289:238|279:255,1,34.9999989318848,10|2,0:0|0:0,0:0:0:0:
227,308,137439,2,0,P|213:321|193:326,1,34.9999989318848,10|2,0:0|0:0,0:0:0:0:
121,328,137608,5,0,1:0:0:0:
114,326,137776,2,0,P|105:289|116:256,1,69.9999978637696,0|8,0:0|0:0,0:0:0:0:
197,185,138113,1,0,0:0:0:0:
185,295,138282,1,0,0:0:0:0:
197,185,138450,1,0,0:0:0:0:
97,229,138619,1,8,0:0:0:0:
185,295,138787,1,0,0:0:0:0:
174,160,138956,5,0,0:0:0:0:
169,154,139124,1,0,0:0:0:0:
164,148,139293,1,8,0:0:0:0:
272,206,139462,2,0,L|285:133,1,69.9999978637696,2|0,0:0|0:0,0:0:0:0:
164,148,139799,5,0,0:0:0:0:
272,206,139967,1,10,0:0:0:0:
306,42,140136,1,2,0:0:0:0:
307,48,140220,1,2,0:0:0:0:
308,54,140304,5,0,1:0:0:0:
231,64,140473,1,0,0:0:0:0:
155,75,140641,1,8,0:0:0:0:
284,137,140810,1,0,0:0:0:0:
413,75,140978,1,0,0:0:0:0:
308,54,141147,1,0,0:0:0:0:
346,196,141315,1,8,0:0:0:0:
308,54,141484,1,0,0:0:0:0:
242,201,141653,6,0,L|312:197,1,69.9999978637696,0|0,1:0|0:0,0:0:0:0:
185,102,141990,2,0,L|115:97,1,69.9999978637696,8|0,0:0|1:0,0:0:0:0:
159,207,142242,1,0,0:0:0:0:
172,206,142327,2,0,L|241:201,1,69.9999978637696,4|0,1:0|0:0,0:0:0:0:
114,96,142664,2,0,L|45:92,1,69.9999978637696,4|0,1:0|0:0,0:0:0:0:
12,216,143001,6,0,L|174:205,1,160,4|8,1:0|0:0,0:0:0:0:
301,295,143506,2,0,L|231:246,1,80,0|0,1:0|0:0,0:0:0:0:
105,159,143844,2,0,L|171:205,1,80,0|8,1:0|0:0,0:0:0:0:
301,295,144181,1,0,0:0:0:0:
407,144,144349,6,0,P|388:192|447:278,1,160,0|8,1:0|0:0,0:0:0:0:
473,197,144855,1,0,0:0:0:0:
301,295,145023,1,0,0:0:0:0:
442,276,145192,1,0,1:0:0:0:
271,216,145360,2,0,P|252:225|237:240,1,40,10|2,0:0|0:0,0:0:0:0:
222,330,145529,2,0,P|231:349|246:364,1,40,2|2,0:0|0:0,0:0:0:0:
336,379,145697,6,0,L|506:369,1,160,0|8,1:0|0:0,0:0:0:0:
512,271,146203,2,0,L|432:275,1,80,2|0,0:0|0:0,0:0:0:0:
355,214,146540,1,0,1:0:0:0:
445,122,146709,1,8,0:0:0:0:
432,275,146877,1,0,0:0:0:0:
238,238,147046,6,0,B|246:190|246:190|230:126|230:126|238:78,1,160,0|8,1:0|0:0,0:0:0:0:
322,122,147551,1,0,0:0:0:0:
160,193,147720,2,0,L|79:180,1,80
237,81,148057,1,8,0:0:0:0:
160,193,148226,1,0,1:0:0:0:
105,70,148394,6,0,B|89:48|89:48|73:117|73:117|80:179,1,160,0|8,1:0|0:0,0:0:0:0:
189,306,148900,1,0,0:0:0:0:
238,238,149068,2,0,L|230:153,1,80,0|0,0:0|1:0,0:0:0:0:
13,280,149405,1,8,0:0:0:0:
79,330,149574,6,0,B|100:300|100:300|79:179,1,160,0|0,1:0|0:0,0:0:0:0:
160,90,150079,1,8,0:0:0:0:
79,179,150248,1,2,0:0:0:0:
276,198,150417,1,0,0:0:0:0:
159,168,150585,1,0,1:0:0:0:
223,305,150754,2,0,L|242:261,1,40,10|2,0:0|0:0,0:0:0:0:
276,198,150922,5,0,1:0:0:0:
276,198,151006,1,0,0:0:0:0:
276,198,151091,1,0,0:0:0:0:
125,255,151259,1,0,0:0:0:0:
266,334,151428,2,0,L|185:340,1,80,8|0,0:0|0:0,0:0:0:0:
79,179,151765,2,0,L|239:193,1,160,6|8,0:0|0:0,0:0:0:0:
187,97,152271,1,0,1:0:0:0:
79,179,152439,6,0,L|84:275,1,89.9999972534181
53,173,152776,6,0,L|86:276,1,100,8|0,0:0|0:0,0:0:0:0:
187,97,153113,5,6,0:0:0:0:
83,268,153282,1,6,0:0:0:0:
359,253,153450,1,6,0:0:0:0:
359,253,153787,6,0,P|339:209|361:137,1,119.999996337891,6|0,1:0|0:0,0:0:0:0:
423,196,154293,1,0,1:0:0:0:
256,231,154462,5,8,0:0:0:0:
296,53,154799,1,0,0:0:0:0:
356,142,155136,5,0,0:0:0:0:
356,142,155220,1,0,0:0:0:0:
356,142,155304,1,0,0:0:0:0:
256,231,155473,1,0,1:0:0:0:
256,231,155810,2,0,L|244:165,1,59.9999981689454,8|0,0:0|0:0,0:0:0:0:
133,216,156147,2,0,L|140:149,1,59.9999981689454
256,231,156484,5,0,1:0:0:0:
120,304,156821,1,0,0:0:0:0:
133,216,156990,1,0,1:0:0:0:
243,319,157158,5,8,0:0:0:0:
237,139,157495,1,0,0:0:0:0:
340,188,157832,5,0,0:0:0:0:
340,188,157917,1,0,0:0:0:0:
340,188,158001,1,0,0:0:0:0:
170,242,158169,1,0,1:0:0:0:
255,215,158338,1,0,1:0:0:0:
340,188,158506,5,8,0:0:0:0:
170,242,158844,1,0,0:0:0:0:
170,242,159181,5,0,1:0:0:0:
121,153,159349,1,0,0:0:0:0:
149,142,159433,1,0,0:0:0:0:
178,140,159517,1,0,0:0:0:0:
207,148,159601,1,0,0:0:0:0:
233,163,159686,1,0,1:0:0:0:
289,282,159855,5,8,0:0:0:0:
176,355,160023,1,0,0:0:0:0:
176,355,160108,1,0,0:0:0:0:
176,355,160192,2,0,L|238:351,1,59.9999981689454
348,346,160529,5,0,0:0:0:0:
348,346,160613,1,0,0:0:0:0:
348,346,160697,1,0,0:0:0:0:
176,355,160866,1,0,1:0:0:0:
265,178,161203,5,8,0:0:0:0:
348,346,161540,1,0,0:0:0:0:
412,261,161709,1,0,0:0:0:0:
265,178,161877,6,0,B|239:233|239:233|254:290,1,119.999996337891,0|0,1:0|0:0,0:0:0:0:
333,243,162383,1,0,1:0:0:0:
160,283,162551,5,8,0:0:0:0:
333,243,162888,1,0,0:0:0:0:
175,154,163226,5,0,0:0:0:0:
175,154,163310,1,0,0:0:0:0:
175,154,163394,1,0,0:0:0:0:
160,283,163563,1,0,1:0:0:0:
254,290,163731,1,0,0:0:0:0:
66,276,163900,5,8,0:0:0:0:
254,290,164068,1,0,1:0:0:0:
175,154,164237,2,0,L|81:157,1,89.9999972534181,8|0,0:0|0:0,0:0:0:0:
9,129,164574,6,0,L|181:123,1,160,4|0,1:0|0:0,0:0:0:0:
88,256,165079,6,0,L|84:154,1,100,4|0,1:0|0:0,0:0:0:0:
233,234,165417,1,2,1:0:0:0:
88,256,165585,1,10,0:0:0:0:
173,340,165754,1,2,0:0:0:0:
282,179,165922,6,0,P|248:161|206:165,1,80,0|2,1:0|0:0,0:0:0:0:
88,256,166259,1,10,0:0:0:0:
83,262,166428,1,2,0:0:0:0:
176,153,166596,5,2,0:0:0:0:
212,302,166765,1,2,1:0:0:0:
26,321,166933,1,10,0:0:0:0:
5,287,167017,1,2,0:0:0:0:
3,247,167101,1,2,0:0:0:0:
19,211,167185,1,2,0:0:0:0:
50,187,167271,5,0,1:0:0:0:
58,186,167439,1,2,0:0:0:0:
162,263,167608,2,0,L|82:261,1,80,10|2,0:0|0:0,0:0:0:0:
13,112,167945,1,0,0:0:0:0:
19,211,168113,1,2,1:0:0:0:
132,144,168282,2,0,L|212:146,1,80,10|2,0:0|0:0,0:0:0:0:
340,249,168619,5,0,1:0:0:0:
347,247,168787,1,2,0:0:0:0:
228,166,168956,1,10,0:0:0:0:
244,333,169124,1,2,0:0:0:0:
425,253,169293,6,0,P|378:244|338:248,1,80,2|0,0:0|0:0,0:0:0:0:
244,333,169630,1,10,0:0:0:0:
228,166,169799,1,0,1:0:0:0:
228,166,169967,6,0,L|131:171,1,97.4999955368044,6|0,1:0|0:0,0:0:0:0:
60,231,170304,6,0,P|54:273|71:308,1,80,8|0,0:0|0:0,0:0:0:0:
228,259,170641,1,0,0:0:0:0:
226,250,170810,1,0,0:0:0:0:
125,262,170978,1,8,0:0:0:0:
326,232,171147,1,0,0:0:0:0:
178,146,171315,6,0,L|261:141,1,80
383,305,171653,2,0,L|303:309,1,80,10|0,0:0|0:0,0:0:0:0:
125,262,171990,1,2,0:0:0:0:
288,228,172158,1,0,0:0:0:0:
140,275,172327,1,10,0:0:0:0:
303,309,172495,1,2,1:0:0:0:
299,316,172579,1,0,1:0:0:0:
295,323,172664,6,0,L|216:329,1,80,0|0,1:0|0:0,0:0:0:0:
258,141,173001,2,0,L|337:147,1,80,8|0,0:0|0:0,0:0:0:0:
383,305,173338,1,4,1:0:0:0:
209,246,173506,1,2,0:0:0:0:
377,158,173675,1,2,0:0:0:0:
295,323,173844,1,2,0:0:0:0:
168,148,174012,6,0,L|257:141,1,89.9999972534181,2|0,0:0|0:0,0:0:0:0:
158,130,174349,6,0,L|262:141,1,100,2|0,0:0|0:0,0:0:0:0:
105,255,174686,5,2,1:0:0:0:
257,140,174855,1,2,1:0:0:0:
22,41,175023,1,2,1:0:0:0:
50,40,175360,6,0,B|98:40|98:40|175:74|175:74|133:95,1,179.999994506836,4|8,0:0|0:0,0:0:0:0:
35,140,175866,1,0,0:0:0:0:
176,75,176035,2,0,B|194:116|194:116|185:160,1,89.9999972534181,2|2,0:0|1:0,0:0:0:0:
25,225,176372,2,0,B|16:181|16:181|34:140,1,89.9999972534181,10|0,0:0|0:0,0:0:0:0:
281,130,176709,6,0,B|320:149|320:149|184:160,1,179.999994506836,0|8,1:0|0:0,0:0:0:0:
97,190,177214,1,0,0:0:0:0:
242,281,177383,2,0,L|247:187,1,89.9999972534181,2|2,0:0|1:0,0:0:0:0:
100,90,177720,1,10,0:0:0:0:
135,277,177888,1,0,0:0:0:0:
325,161,178057,6,0,B|285:137|285:137|205:177|205:177|253:193,1,179.999994506836,0|8,1:0|0:0,0:0:0:0:
370,231,178563,1,0,0:0:0:0:
275,53,178731,2,0,B|295:94|295:94|285:137,1,89.9999972534181,2|2,0:0|1:0,0:0:0:0:
276,278,179068,1,10,0:0:0:0:
370,231,179237,1,0,0:0:0:0:
210,330,179405,6,0,B|190:289|190:289|200:246,1,89.9999972534181,0|0,1:0|0:0,0:0:0:0:
285,137,179742,2,0,L|377:141,1,89.9999972534181,8|0,0:0|0:0,0:0:0:0:
453,224,180079,1,2,0:0:0:0:
276,278,180248,1,2,1:0:0:0:
460,358,180417,2,0,L|452:223,1,134.999995880127,10|0,0:0|0:0,0:0:0:0:
374,140,180754,6,0,B|309:204|309:204|356:281,1,179.999994506836,0|8,1:0|0:0,0:0:0:0:
415,219,181259,1,0,0:0:0:0:
251,160,181428,2,0,P|235:208|251:248,1,89.9999972534181,2|2,0:0|1:0,0:0:0:0:
479,258,181765,2,0,P|490:214|475:174,1,89.9999972534181,10|0,0:0|0:0,0:0:0:0:
365,51,182102,6,0,L|374:140,1,89.9999972534181,0|0,1:0|0:0,0:0:0:0:
241,249,182439,2,0,L|250:159,1,89.9999972534181,8|0,0:0|0:0,0:0:0:0:
262,65,182776,1,2,0:0:0:0:
374,140,182945,1,2,1:0:0:0:
158,195,183113,1,10,0:0:0:0:
149,198,183282,1,0,0:0:0:0:
341,149,183450,5,0,1:0:0:0:
113,95,183619,1,0,0:0:0:0:
241,249,183787,1,8,0:0:0:0:
329,48,183956,6,0,B|210:48|210:48|221:58|221:58|114:58,1,239.999992675781,0|0,0:0|1:0,0:0:0:0:
149,198,184462,1,8,0:0:0:0:
234,92,184630,1,0,0:0:0:0:
85,58,184799,5,6,0:0:0:0:
231,176,184967,1,0,0:0:0:0:
57,247,185136,2,0,P|50:204|55:156,1,89.9999972534181
212,48,185473,1,6,0:0:0:0:
78,143,185641,1,0,0:0:0:0:
219,230,185810,2,0,L|252:224,2,29.9999990844727
285,199,185978,6,0,P|290:228|288:265,1,59.9999981689454,0|0,1:0|0:0,0:0:0:0:
146,366,186147,6,0,B|154:318|154:318|122:238|122:238|130:190,1,179.999994506836,4|10,1:0|0:0,0:0:0:0:
219,230,186653,1,2,0:0:0:0:
219,230,186737,1,2,0:0:0:0:
219,230,186821,1,2,0:0:0:0:
60,326,186990,1,0,1:0:0:0:
135,160,187158,1,10,0:0:0:0:
238,341,187327,2,0,L|285:337,1,44.999998626709,2|2,0:0|0:0,0:0:0:0:
374,313,187495,6,0,B|362:272|362:272|368:224,1,89.9999972534181,2|0,1:0|0:0,0:0:0:0:
404,118,187832,1,10,0:0:0:0:
463,262,188001,1,0,0:0:0:0:
274,252,188169,2,0,L|281:207,1,44.999998626709,2|0,0:0|0:0,0:0:0:0:
299,126,188338,2,0,L|306:81,1,44.999998626709,2|0,1:0|0:0,0:0:0:0:
323,1,188506,1,10,0:0:0:0:
454,111,188675,1,2,0:0:0:0:
445,113,188759,1,2,0:0:0:0:
436,115,188844,6,0,P|427:159|432:206,1,89.9999972534181,2|0,1:0|0:0,0:0:0:0:
462,282,189096,1,0,0:0:0:0:
470,292,189181,1,8,0:0:0:0:
363,338,189349,1,0,0:0:0:0:
280,207,189518,2,0,L|232:213,1,44.999998626709,2|2,0:0|0:0,0:0:0:0:
148,227,189686,1,2,1:0:0:0:
139,228,189771,1,2,0:0:0:0:
130,230,189855,1,10,0:0:0:0:
215,97,190023,1,2,0:0:0:0:
297,291,190192,6,0,L|206:302,1,89.9999972534181,0|2,1:0|0:0,0:0:0:0:
130,230,190445,1,2,0:0:0:0:
133,216,190529,2,0,L|144:121,1,89.9999972534181,10|0,0:0|0:0,0:0:0:0:
235,212,190866,1,2,0:0:0:0:
44,190,191035,2,0,L|37:234,2,44.999998626709,2|2|10,1:0|0:0|0:0,0:0:0:0:
221,49,191372,2,0,L|227:93,1,44.999998626709,2|2,1:0|0:0,0:0:0:0:
234,127,191540,6,0,B|298:146|298:146|377:124|377:124|350:104,1,179.999994506836,6|8,1:0|0:0,0:0:0:0:
234,223,192046,1,2,0:0:0:0:
236,231,192130,1,2,0:0:0:0:
238,239,192214,1,2,0:0:0:0:
298,49,192383,1,0,1:0:0:0:
374,206,192551,1,8,0:0:0:0:
182,130,192720,1,2,1:0:0:0:
456,59,192888,6,0,L|459:159,1,89.9999972534181,6|0,1:0|0:0,0:0:0:0:
142,315,193226,2,0,L|144:225,1,89.9999972534181,10|0,0:0|0:0,0:0:0:0:
298,49,193563,1,2,0:0:0:0:
318,186,193731,1,2,1:0:0:0:
318,186,193815,1,2,0:0:0:0:
318,186,193900,1,10,0:0:0:0:
144,110,194068,1,2,1:0:0:0:
384,37,194237,5,4,1:0:0:0:
168,102,194405,1,2,0:0:0:0:
407,227,194574,2,0,P|386:237|363:238,1,44.999998626709,2|2,0:0|0:0,0:0:0:0:
280,234,194742,2,0,P|257:228|239:214,1,44.999998626709,2|2,0:0|0:0,0:0:0:0:
178,157,194911,5,2,0:0:0:0:
148,149,194995,1,2,0:0:0:0:
119,151,195079,1,2,0:0:0:0:
91,163,195163,1,2,0:0:0:0:
63,173,195248,1,2,0:0:0:0:
33,175,195332,1,2,0:0:0:0:
1,157,195417,2,0,L|8:214,1,44.999998626709,2|0,0:0|0:0,0:0:0:0:
21,302,195585,6,0,B|97:314|97:314|137:280,1,119.999996337891,0|0,1:0|0:0,0:0:0:0:
446,314,195922,6,0,L|356:306,1,89.9999972534181,8|0,1:0|0:0,0:0:0:0:
129,286,196259,5,8,1:0:0:0:
144,263,196344,1,8,1:0:0:0:
173,242,196428,1,8,1:0:0:0:
217,235,196512,1,8,1:0:0:0:
263,250,196596,1,8,1:0:0:0:
301,288,196681,1,8,1:0:0:0:
356,306,196765,1,10,1:0:0:0:
409,283,196849,1,10,1:0:0:0:
432,229,196933,5,12,1:0:0:0:
256,192,218506,12,0,220866,0:0:0:0:
184,254,221203,6,0,P|226:196|163:189,1,160,2|0,0:0|0:0,0:0:0:0:
197,344,221709,2,0,B|241:280|241:280|190:216,1,160,2|0,0:0|0:0,0:0:0:0:
37,344,222214,2,0,L|197:344,1,160,2|0,0:0|0:0,0:0:0:0:
358,240,222720,2,0,B|321:218|321:218|322:335,1,160,2|0,0:0|0:0,0:0:0:0:
174,208,223226,6,0,P|154:204|134:206,1,40,2|0,0:0|0:0,0:0:0:0:
282,135,223394,2,0,P|301:136|321:133,1,40,2|0,0:0|0:0,0:0:0:0:
194,283,223563,6,0,P|168:285|143:280,1,40,2|0,0:0|0:0,0:0:0:0:
321,218,223731,2,0,P|346:212|371:215,1,40,2|0,0:0|0:0,0:0:0:0:
154,101,223900,6,0,P|118:172|175:207,1,160,2|0,0:0|0:0,0:0:0:0:
321,133,224405,2,0,L|161:155,1,160,2|0,0:0|0:0,0:0:0:0:
333,260,224911,2,0,B|374:192|374:192|319:131,1,160,2|0,0:0|0:0,0:0:0:0:
174,281,225417,2,0,L|332:259,1,160,2|0,0:0|0:0,0:0:0:0:
360,127,225922,6,0,L|319:132,1,40,2|0,0:0|0:0,0:0:0:0:
227,75,226091,2,0,L|186:80,1,40,2|0,0:0|0:0,0:0:0:0:
77,209,226259,6,0,L|117:214,1,40,2|0,0:0|0:0,0:0:0:0:
210,157,226428,2,0,L|250:162,1,40,2|0,0:0|0:0,0:0:0:0:
360,291,226596,6,0,L|197:313,1,160,2|0,0:0|0:0,0:0:0:0:
345,157,227102,2,0,B|396:223|396:223|359:291,1,160,2|0,0:0|0:0,0:0:0:0:
201,312,227608,2,0,B|150:252|150:252|186:178,1,160,2|0,0:0|0:0,0:0:0:0:
345,156,228113,2,0,B|188:177|188:177|219:101|219:101|310:89,1,320,2|0,0:0|0:0,0:0:0:0:
391,239,228956,5,2,0:0:0:0:
351,244,229040,1,2,0:0:0:0:
311,250,229124,1,2,0:0:0:0:
272,256,229208,1,2,0:0:0:0:
232,261,229293,6,0,L|219:95,1,160,2|0,0:0|0:0,0:0:0:0:
398,96,229799,2,0,P|413:162|343:155,1,160,2|0,0:0|0:0,0:0:0:0:
337,22,230304,2,0,B|417:21|417:21|486:61,1,160,2|0,0:0|0:0,0:0:0:0:
486,61,230810,1,2,0:0:0:0:
486,61,231147,5,2,0:0:0:0:
453,190,231315,1,2,0:0:0:0:
334,130,231484,1,2,0:0:0:0:
367,259,231652,1,2,0:0:0:0:
479,173,231821,1,2,0:0:0:0:
263,84,231990,6,0,B|247:124|247:124|263:196|263:196|247:236,1,160,2|0,0:0|0:0,0:0:0:0:
116,243,232495,2,0,P|109:174|178:187,1,160,2|0,0:0|0:0,0:0:0:0:
175,343,233001,2,0,P|164:285|179:183,1,160,2|0,0:0|0:0,0:0:0:0:
334,130,233506,2,0,P|348:208|336:287,1,160,2|0,0:0|0:0,0:0:0:0:
175,343,234012,6,0,P|155:342|135:334,1,40,2|0,0:0|0:0,0:0:0:0:
74,285,234181,2,0,P|61:269|55:248,1,40,2|0,0:0|0:0,0:0:0:0:
59,94,234349,6,0,P|79:95|99:103,1,40,2|0,0:0|0:0,0:0:0:0:
160,152,234518,2,0,P|172:167|178:188,1,40,2|0,0:0|0:0,0:0:0:0:
175,343,234686,6,0,P|246:369|303:319,1,160,2|0,0:0|0:0,0:0:0:0:
178,186,235192,2,0,B|163:267|163:267|176:344,1,160,2|0,0:0|0:0,0:0:0:0:
304,320,235697,2,0,P|233:293|176:343,1,160,2|0,0:0|0:0,0:0:0:0:
55,312,236203,2,0,P|81:240|31:183,1,160,2|0,0:0|0:0,0:0:0:0:
67,63,236709,6,0,L|109:70,1,40,2|0,0:0|0:0,0:0:0:0:
185,84,236877,2,0,L|227:91,1,40,2|0,0:0|0:0,0:0:0:0:
62,115,237046,6,0,L|102:113,1,40,2|0,0:0|0:0,0:0:0:0:
182,108,237214,2,0,L|224:105,1,40,2|0,0:0|0:0,0:0:0:0:
300,154,237383,6,0,P|309:76|245:17,1,160,2|0,0:0|0:0,0:0:0:0:
62,115,237888,2,0,L|232:104,1,160,2|0,0:0|0:0,0:0:0:0:
459,163,238394,2,0,L|299:153,1,160,2|0,0:0|0:0,0:0:0:0:
66,202,238900,2,0,B|223:191|223:191|250:259|250:259|153:265,1,320,2|0,0:0|0:0,0:0:0:0:
59,114,239742,5,2,0:0:0:0:
98,111,239826,1,2,0:0:0:0:
138,109,239910,1,2,0:0:0:0:
178,106,239994,1,2,0:0:0:0:
218,104,240079,6,0,B|332:98|332:98|294:136,1,160,2|0,0:0|0:0,0:0:0:0:
193,240,240585,2,0,P|273:215|337:261,1,160,2|0,0:0|0:0,0:0:0:0:
471,266,241091,2,0,P|398:292|332:253,1,160,2|0,0:0|0:0,0:0:0:0:
407,203,241596,1,2,0:0:0:0:
193,240,241933,5,2,0:0:0:0:
332,253,242102,1,2,0:0:0:0:
168,245,242271,1,2,0:0:0:0:
357,245,242439,1,2,0:0:0:0:
263,135,242608,1,2,0:0:0:0:
168,245,242776,6,0,B|134:269|124:309|124:309|181:301|245:269|290:275|290:275|326:308|326:308|285:328|225:326,2,400,0|0|0,1:0|0:0|1:0,0:0:0:0:
368,228,246147,1,0,0:0:0:0:
138,178,246821,1,0,0:0:0:0:
138,178,248169,6,0,B|196:180|196:180|259:149|259:149|334:190|334:190|255:231|255:231|286:296|286:296|480:191|480:191|300:91,1,800,0|0,1:0|1:0,0:0:0:0:
82,244,251372,2,0,B|105:322|105:322|161:262|161:262|138:178,1,250
138,178,253563,6,0,P|168:197|165:150,1,100,0|10,1:0|0:0,0:0:0:0:
169,151,254574,1,10,0:0:0:0:
108,267,254911,6,0,P|78:286|81:239,1,100,0|10,1:0|0:0,0:0:0:0:
77,240,255922,1,10,0:0:0:0:
286,194,256259,6,0,P|315:214|270:229,1,100,0|10,1:0|0:0,0:0:0:0:
273,233,257270,1,10,0:0:0:0:
179,35,257608,6,0,P|149:55|194:70,1,100,0|10,1:0|0:0,0:0:0:0:
189,75,258619,6,0,L|196:157,1,69.9999978637696,10|0,0:0|1:0,0:0:0:0:
203,232,258956,5,2,1:0:0:0:
37,202,259293,1,8,0:0:0:0:
248,245,259630,5,2,1:0:0:0:
97,258,259967,1,8,0:0:0:0:
298,252,260304,5,2,1:0:0:0:
170,299,260641,1,8,0:0:0:0:
354,245,260978,5,2,1:0:0:0:
254,315,261315,1,8,0:0:0:0:
371,139,261484,1,2,0:0:0:0:
378,115,261568,1,2,0:0:0:0:
371,90,261653,5,2,1:0:0:0:
173,154,261821,1,2,1:0:0:0:
310,14,261990,5,10,1:2:0:0:
203,232,262158,1,2,1:0:0:0:
213,33,262327,5,2,1:0:0:0:
272,278,262495,1,2,1:0:0:0:
129,85,262664,5,10,1:2:0:0:
399,182,262832,1,2,1:0:0:0:
184,351,263001,5,2,1:0:0:0:
135,358,263085,1,2,1:0:0:0:
89,341,263169,1,2,1:0:0:0:
57,302,263253,1,2,1:0:0:0:
50,253,263338,1,10,1:2:0:0:
67,207,263422,1,2,1:0:0:0:
106,176,263506,1,2,1:0:0:0:
154,168,263590,1,2,1:0:0:0:
201,186,263675,6,0,L|247:216,1,50,2|2,1:0|1:0,0:0:0:0:
370,332,263844,2,0,L|375:282,1,50,2|2,1:0|1:0,0:0:0:0:
487,170,264012,2,0,L|496:226,1,50,2|2,1:0|1:0,0:0:0:0:
338,333,264181,2,0,L|333:283,1,50,2|2,1:0|1:0,0:0:0:0:
337,145,264349,5,6,1:0:0:0:
337,145,264433,1,2,1:0:0:0:
337,145,264518,2,0,L|259:157,1,64.9999970245363,2|0,1:0|0:0,0:0:0:0:
137,179,264686,1,8,0:0:0:0:
337,145,264855,1,2,0:0:0:0:
268,299,265023,1,0,0:0:0:0:
125,88,265192,1,0,1:0:0:0:
56,242,265360,2,0,B|199:247|199:247|164:289,1,194.999991073609,8|0,0:0|0:0,0:0:0:0:
153,302,265697,5,0,1:0:0:0:
36,150,265866,2,0,L|172:155,1,129.999994049073,2|8,0:0|0:0,0:0:0:0:
393,164,266203,1,0,0:0:0:0:
200,247,266372,1,0,0:0:0:0:
425,154,266540,1,2,1:0:0:0:
167,89,266709,2,0,L|165:154,1,64.9999970245363,10|0,0:0|0:0,0:0:0:0:
274,314,266877,2,0,L|276:249,1,64.9999970245363,2|0,0:0|0:0,0:0:0:0:
397,99,267046,6,0,B|421:158|421:158|381:229|381:229|359:184,1,194.999991073609,2|0,1:0|0:0,0:0:0:0:
350,166,267383,1,8,0:0:0:0:
511,224,267551,2,0,L|381:229,1,129.999994049073,2|0,0:0|0:0,0:0:0:0:
187,238,267888,1,0,1:0:0:0:
397,99,268057,1,8,0:0:0:0:
384,356,268226,1,0,0:0:0:0:
392,331,268310,1,0,0:0:0:0:
400,306,268394,5,0,0:0:0:0:
304,104,268563,1,2,0:0:0:0:
429,296,268731,1,8,0:0:0:0:
291,113,268900,1,0,0:0:0:0:
511,200,269068,2,0,L|443:204,1,64.9999970245363
355,212,269237,2,0,L|287:216,1,64.9999970245363,2|0,1:0|0:0,0:0:0:0:
168,135,269405,6,0,B|205:188|188:241|188:241|153:259,1,150,10|0,0:0|0:0,0:0:0:0:
84,284,269742,5,6,1:0:0:0:
84,284,269827,1,2,1:0:0:0:
84,284,269911,2,0,L|55:223,1,64.9999970245363,0|0,1:0|0:0,0:0:0:0:
11,120,270079,1,8,0:0:0:0:
248,123,270248,1,2,0:0:0:0:
84,284,270417,1,0,0:0:0:0:
158,21,270585,1,0,1:0:0:0:
331,239,270754,2,0,B|338:265|338:265|268:238|173:254,1,194.999991073609,8|0,0:0|0:0,0:0:0:0:
153,260,271091,5,0,1:0:0:0:
298,113,271259,2,0,L|333:247,1,129.999994049073,2|8,0:0|0:0,0:0:0:0:
225,362,271596,1,0,0:0:0:0:
205,357,271681,1,0,0:0:0:0:
186,352,271765,1,0,0:0:0:0:
330,238,271933,1,2,1:0:0:0:
100,185,272102,2,0,L|164:173,1,64.9999970245363,10|0,0:0|0:0,0:0:0:0:
331,314,272271,2,0,L|267:302,1,64.9999970245363,2|0,0:0|0:0,0:0:0:0:
22,246,272439,5,0,1:0:0:0:
222,91,272608,2,0,L|212:47,2,43.3333313496908,2|2|2,0:0|0:0|0:0,0:0:0:0:
231,124,272776,1,8,0:0:0:0:
23,134,272945,1,2,0:0:0:0:
212,48,273113,1,0,0:0:0:0:
167,305,273282,1,0,1:0:0:0:
57,115,273450,1,8,0:0:0:0:
57,115,273535,1,0,0:0:0:0:
57,115,273619,1,0,0:0:0:0:
22,246,273787,6,0,L|92:242,1,64.9999970245363,2|0,1:0|0:0,0:0:0:0:
175,235,273956,2,0,L|245:231,1,64.9999970245363,2|0,0:0|0:0,0:0:0:0:
328,224,274124,1,10,0:0:0:0:
90,263,274293,1,0,1:0:0:0:
285,75,274462,6,0,P|306:114|241:144,1,129.999994049073,4|2,1:0|0:0,0:0:0:0:
13,235,274799,2,0,P|47:207|88:266,1,129.999994049073,12|0,1:0|0:0,0:0:0:0:
198,72,275136,5,6,1:0:0:0:
198,72,275220,1,2,1:0:0:0:
198,72,275304,2,0,L|130:77,1,64.9999970245363,2|0,1:0|0:0,0:0:0:0:
24,86,275473,1,8,0:0:0:0:
89,262,275641,1,2,0:0:0:0:
244,145,275810,5,0,0:0:0:0:
222,184,275894,1,0,0:0:0:0:
221,229,275978,1,0,1:0:0:0:
243,268,276062,1,0,0:0:0:0:
282,292,276147,1,8,0:0:0:0:
346,202,276315,1,0,0:0:0:0:
89,262,276484,5,0,1:0:0:0:
302,67,276653,2,0,L|323:136,2,64.9999970245363,2|2|8,0:0|0:0|0:0,0:0:0:0:
221,229,276990,1,0,0:0:0:0:
90,90,277158,1,0,0:0:0:0:
90,90,277242,1,0,0:0:0:0:
90,90,277327,2,0,L|90:159,1,64.9999970245363,2|0,1:0|0:0,0:0:0:0:
89,262,277495,1,8,0:0:0:0:
228,106,277664,1,0,0:0:0:0:
268,345,277832,6,0,B|135:329|135:329|191:301,1,194.999991073609,2|0,1:0|0:0,0:0:0:0:
207,294,278169,1,8,0:0:0:0:
427,208,278338,1,2,0:0:0:0:
226,189,278506,1,0,0:0:0:0:
255,155,278590,1,0,0:0:0:0:
265,111,278674,1,0,1:0:0:0:
253,68,278758,1,0,0:0:0:0:
221,36,278844,1,8,0:0:0:0:
137,179,279012,6,0,B|174:231|174:231|226:189,1,129.999994049073,0|0,0:0|1:0,0:0:0:0:
343,87,279349,1,2,0:0:0:0:
103,123,279518,2,0,L|137:179,1,64.9999970245363,10|0,0:0|0:0,0:0:0:0:
143,327,279686,2,0,L|177:272,1,64.9999970245363,2|0,0:0|0:0,0:0:0:0:
255,155,279855,1,0,0:0:0:0:
5,202,280023,1,2,1:0:0:0:
305,226,280192,1,8,0:0:0:0:
103,123,280360,1,0,1:0:0:0:
343,87,280529,5,6,1:0:0:0:
343,87,280613,1,2,1:0:0:0:
343,87,280697,2,0,L|276:85,1,64.9999970245363,2|0,1:0|0:0,0:0:0:0:
175,80,280866,1,8,0:0:0:0:
305,226,281035,1,2,0:0:0:0:
82,284,281203,2,0,B|70:255|70:255|77:221,1,64.9999970245363,2|0,0:0|0:0,0:0:0:0:
246,128,281372,2,0,B|260:157|260:157|255:188,1,64.9999970245363,2|0,1:0|0:0,0:0:0:0:
192,337,281540,2,0,P|176:250|89:266,1,194.999991073609,10|0,0:0|0:0,0:0:0:0:
82,284,281877,5,0,1:0:0:0:
305,226,282046,1,2,0:0:0:0:
137,114,282214,1,8,0:0:0:0:
192,337,282383,1,0,0:0:0:0:
346,207,282551,5,0,0:0:0:0:
305,226,282635,1,0,0:0:0:0:
259,227,282719,1,2,1:0:0:0:
218,210,282803,1,0,0:0:0:0:
186,178,282888,1,8,0:0:0:0:
278,106,283057,1,0,0:0:0:0:
316,317,283226,5,0,1:0:0:0:
132,259,283394,2,0,L|89:264,2,43.3333313496908,2|2|2,0:0|0:0|0:0,0:0:0:0:
166,253,283563,1,8,0:0:0:0:
341,334,283731,1,2,0:0:0:0:
361,129,283900,1,0,0:0:0:0:
132,259,284068,1,0,1:0:0:0:
451,307,284237,1,8,0:0:0:0:
451,307,284321,1,0,0:0:0:0:
451,307,284405,1,0,0:0:0:0:
361,129,284574,6,0,P|328:126|294:134,1,64.9999970245363,2|0,1:0|0:0,0:0:0:0:
212,169,284742,2,0,P|184:187|163:215,1,64.9999970245363,2|0,0:0|0:0,0:0:0:0:
123,295,284911,2,0,B|180:296|180:296|194:311|194:311|252:312,1,129.999994049073,2|0,0:0|0:0,0:0:0:0:
503,191,285248,6,0,P|479:168|450:153,1,64.9999970245363,2|0,0:0|0:0,0:0:0:0:
361,129,285417,2,0,P|328:126|297:134,1,64.9999970245363,2|0,1:0|0:0,0:0:0:0:
212,169,285585,1,2,0:0:0:0:
426,238,285754,1,0,1:0:0:0:
164,102,285922,6,0,P|131:180|188:247,1,179.999994506836,6|8,1:0|0:0,0:0:0:0:
301,163,286428,2,0,L|212:169,1,89.9999972534181,2|0,0:0|0:0,0:0:0:0:
101,325,286765,1,0,1:0:0:0:
224,349,286933,2,0,L|211:169,1,179.999994506836,10|0,0:0|1:0,0:0:0:0:
301,163,287439,1,2,0:0:0:0:
301,163,287608,2,0,L|212:169,1,89.9999972534181,8|0,0:0|0:0,0:0:0:0:
106,176,287945,5,2,0:0:0:0:
301,163,288113,1,2,1:0:0:0:
88,159,288282,1,10,0:0:0:0:
301,163,288450,1,2,0:0:0:0:
199,34,288619,6,0,B|146:108|146:108|210:168,1,179.999994506836,2|8,1:0|0:0,0:0:0:0:
57,114,289124,2,0,L|147:108,1,89.9999972534181,2|0,0:0|0:0,0:0:0:0:
253,97,289462,1,0,1:0:0:0:
115,240,289630,2,0,P|39:189|58:113,1,179.999994506836,10|0,0:0|1:0,0:0:0:0:
110,166,290136,1,2,0:0:0:0:
104,329,290304,2,0,L|115:238,1,89.9999972534181,8|0,0:0|0:0,0:0:0:0:
57,113,290641,5,2,0:0:0:0:
104,329,290810,1,2,1:0:0:0:
77,110,290978,1,10,0:0:0:0:
104,329,291147,1,2,0:0:0:0:
241,226,291315,5,6,1:0:0:0:
241,226,291400,1,2,0:0:0:0:
241,226,291484,1,2,0:0:0:0:
37,238,291653,1,8,0:0:0:0:
229,46,291821,2,0,L|241:235,1,179.999994506836,2|0,0:0|1:0,0:0:0:0:
157,291,292327,6,0,B|240:253|240:253|322:296,1,179.999994506836,10|0,0:0|1:0,0:0:0:0:
238,357,292832,1,2,0:0:0:0:
157,291,293001,2,0,L|151:201,1,89.9999972534181,8|0,0:0|0:0,0:0:0:0:
229,46,293338,5,2,0:0:0:0:
124,191,293506,1,2,1:0:0:0:
281,122,293675,1,10,0:0:0:0:
236,120,293759,1,2,0:0:0:0:
191,119,293843,1,2,0:0:0:0:
146,117,293927,1,2,0:0:0:0:
101,116,294012,5,2,1:0:0:0:
240,253,294181,2,0,L|272:257,2,29.9999990844727,2|2|2,0:0|0:0|0:0,0:0:0:0:
210,249,294349,1,8,0:0:0:0:
104,372,294518,2,0,B|71:339|100:243|100:243|124:284,1,179.999994506836,2|0,0:0|1:0,0:0:0:0:
7,342,295023,1,10,0:0:0:0:
100,243,295192,1,2,0:0:0:0:
193,342,295360,5,0,1:0:0:0:
11,261,295529,1,2,0:0:0:0:
156,157,295697,6,0,P|204:177|175:220,1,119.999996337891,8|0,0:0|1:0,0:0:0:0:
17,305,296035,6,0,L|10:255,1,44.999998626709,4|0,1:0|0:0,0:0:0:0:
162,112,296203,2,0,L|155:156,1,44.999998626709
90,293,296372,2,0,L|83:243,1,44.999998626709,12|0,1:0|0:0,0:0:0:0:
234,123,296540,2,0,L|228:168,1,44.999998626709
208,284,296709,5,6,1:0:0:0:
72,165,296877,2,0,P|70:138|74:117,2,44.999998626709,2|2|10,0:0|0:0|0:0,0:0:0:0:
114,288,297214,1,2,0:0:0:0:
234,123,297383,1,2,0:0:0:0:
274,140,297467,1,2,0:0:0:0:
300,176,297551,1,2,1:0:0:0:
304,220,297636,1,2,0:0:0:0:
285,260,297720,1,10,0:0:0:0:
114,288,297888,2,0,L|75:295,2,29.9999990844727,2|2|2,0:0|0:0|0:0,0:0:0:0:
182,328,298057,6,0,P|192:277|174:240,1,89.9999972534181,0|2,1:0|0:0,0:0:0:0:
107,196,298310,1,0,0:0:0:0:
107,196,298394,1,8,0:0:0:0:
285,260,298563,1,0,0:0:0:0:
90,337,298731,2,0,P|84:314|85:285,1,44.999998626709,2|0,0:0|0:0,0:0:0:0:
195,169,298900,2,0,P|194:191|188:213,1,44.999998626709,2|0,1:0|0:0,0:0:0:0:
224,350,299068,2,0,P|245:340|274:336,1,44.999998626709,10|0,0:0|0:0,0:0:0:0:
351,348,299237,2,0,P|373:349|395:346,1,44.999998626709,2|0,0:0|0:0,0:0:0:0:
465,280,299405,6,0,B|423:195|423:195|370:263,1,179.999994506836,2|8,1:0|0:0,0:0:0:0:
465,280,299911,1,2,0:0:0:0:
500,131,300079,1,2,0:0:0:0:
461,108,300163,1,2,0:0:0:0:
417,102,300247,1,2,1:0:0:0:
373,114,300331,1,2,0:0:0:0:
339,142,300416,1,10,0:0:0:0:
370,262,300585,2,0,L|381:312,1,44.999998626709,2|2,0:0|0:0,0:0:0:0:
339,142,300754,6,0,L|241:158,1,89.9999972534181,0|2,1:0|0:0,0:0:0:0:
148,130,301091,1,8,0:0:0:0:
339,142,301259,1,0,0:0:0:0:
189,271,301428,1,2,0:0:0:0:
149,250,301512,1,2,0:0:0:0:
126,212,301596,1,2,1:0:0:0:
125,168,301680,1,2,0:0:0:0:
148,130,301765,2,0,P|169:119|196:115,1,44.999998626709,10|0,0:0|0:0,0:0:0:0:
339,142,301933,2,0,P|316:137|297:127,1,44.999998626709,2|0,1:0|0:0,0:0:0:0:
183,20,302102,5,6,1:0:0:0:
183,20,302186,1,2,0:0:0:0:
183,20,302271,1,2,0:0:0:0:
241,200,302439,1,8,0:0:0:0:
148,130,302608,1,2,0:0:0:0:
339,142,302776,5,2,0:0:0:0:
350,185,302860,1,2,0:0:0:0:
347,229,302944,1,2,1:0:0:0:
328,270,303028,1,2,0:0:0:0:
297,302,303113,2,0,L|181:295,1,104.999996795654,10|0,0:0|0:0,0:0:0:0:
169,293,303450,5,0,1:0:0:0:
295,377,303619,2,0,L|205:371,1,89.9999972534181,2|8,0:0|0:0,0:0:0:0:
104,363,303956,1,0,0:0:0:0:
62,211,304124,1,2,0:0:0:0:
106,208,304208,1,2,0:0:0:0:
151,205,304292,1,2,1:0:0:0:
196,203,304376,1,2,0:0:0:0:
241,200,304462,2,0,L|240:151,1,44.999998626709,10|2,0:0|0:0,0:0:0:0:
328,270,304630,2,0,L|328:314,1,44.999998626709,2|2,0:0|0:0,0:0:0:0:
396,186,304799,5,2,1:0:0:0:
283,64,304967,2,0,L|244:63,2,29.9999990844727,2|2|2,0:0|0:0|0:0,0:0:0:0:
313,69,305136,1,8,0:0:0:0:
241,200,305304,1,2,0:0:0:0:
406,292,305473,5,2,0:0:0:0:
434,257,305557,1,2,0:0:0:0:
442,213,305641,1,2,1:0:0:0:
429,170,305725,1,2,0:0:0:0:
397,139,305810,1,10,0:0:0:0:
334,222,305978,1,0,0:0:0:0:
178,156,306147,6,0,P|166:186|165:221,1,64.9999970245363,2|0,1:0|0:0,0:0:0:0:
177,302,306315,2,0,P|189:331|213:357,1,64.9999970245363,2|0,0:0|0:0,0:0:0:0:
296,369,306484,2,0,B|331:321|331:321|320:304|320:304|329:249,1,129.999994049073,10|0,0:0|0:0,0:0:0:0:
283,54,306821,6,0,P|253:66|227:90,1,64.9999970245363,2|0,0:0|0:0,0:0:0:0:
178,156,306989,2,0,P|165:185|165:221,1,64.9999970245363,2|0,1:0|0:0,0:0:0:0:
177,302,307158,1,10,0:0:0:0:
406,292,307327,1,2,0:0:0:0:
128,367,307495,6,0,P|143:227|252:335,1,359.999989013672,2|0,0:0|0:0,0:0:0:0:
177,302,308844,2,0,B|90:280|90:280|40:366,1,179.999994506836,2|0,0:0|0:0,0:0:0:0:
128,367,309518,2,0,L|194:383,1,59.9999981689454,2|0,0:0|0:0,0:0:0:0:
186,381,309855,1,2,0:0:0:0:
221,194,310192,6,0,L|98:197,1,119.999996337891,2|0,1:0|0:0,0:0:0:0:
77,197,310866,1,8,0:0:0:0:
221,194,311203,1,0,0:0:0:0:
163,48,311540,6,0,L|286:51,1,119.999996337891,2|0,0:0|0:0,0:0:0:0:
307,51,312214,1,8,0:0:0:0:
163,48,312551,1,0,0:0:0:0:
318,181,312888,6,0,P|340:125|320:63,1,119.999996337891,2|0,0:0|0:0,0:0:0:0:
307,51,313563,1,8,0:0:0:0:
318,181,313900,1,0,0:0:0:0:
307,311,314068,5,2,0:0:0:0:
307,311,314237,2,0,P|285:255|305:193,1,119.999996337891,2|0,0:0|0:0,0:0:0:0:
318,181,314911,1,8,0:0:0:0:
307,311,315248,1,0,0:0:0:0:
167,308,315585,6,0,B|225:294|225:294|287:307,1,119.999996337891,2|0,0:0|0:0,0:0:0:0:
307,311,316259,1,8,0:0:0:0:
167,308,316596,1,0,0:0:0:0:
318,181,316933,6,0,B|260:195|260:195|198:182,1,119.999996337891,2|0,0:0|0:0,0:0:0:0:
178,178,317607,1,8,0:0:0:0:
318,181,317945,1,8,0:0:0:0:
116,219,318282,6,0,P|105:184|110:152,1,69.9999978637696,0|0,1:0|0:0,0:0:0:0:
178,178,318535,1,0,0:0:0:0:
188,180,318619,1,2,0:0:0:0:
96,296,318787,1,2,1:0:0:0:
11,180,318956,6,0,L|19:103,1,69.9999978637696,10|0,0:0|0:0,0:0:0:0:
184,256,319293,2,0,L|191:325,1,69.9999978637696,2|0,0:0|0:0,0:0:0:0:
357,180,319630,2,0,L|349:103,1,69.9999978637696,2|0,0:0|0:0,0:0:0:0:
184,256,319967,5,2,1:0:0:0:
184,256,320304,2,0,P|175:221|182:186,1,69.9999978637696,10|0,0:0|0:0,0:0:0:0:
221,46,320641,2,0,P|227:80|219:114,1,69.9999978637696,2|0,0:0|0:0,0:0:0:0:
253,220,320978,5,2,1:0:0:0:
150,78,321315,1,2,0:0:0:0:
313,110,321484,1,2,1:0:0:0:
184,256,321653,6,0,B|79:253|79:253|112:234,1,139.999995727539,8|2,0:0|0:0,0:0:0:0:
213,257,322158,1,2,0:0:0:0:
87,365,322327,2,0,L|84:328,1,34.9999989318848,2|2,0:0|0:0,0:0:0:0:
79,253,322495,1,2,0:0:0:0:
173,72,322664,6,0,L|165:175,1,100,0|0,1:0|1:0,0:0:0:0:
213,257,323001,5,10,0:0:0:0:
173,72,323338,1,2,0:0:0:0:
79,253,323675,6,0,L|44:255,2,34.9999989318848,2|2|2,1:0|0:0|0:0,0:0:0:0:
79,174,323928,1,2,0:0:0:0:
79,174,324012,2,0,L|44:172,2,34.9999989318848,2|2|2,0:0|0:0|1:0,0:0:0:0:
213,257,324349,5,8,0:0:0:0:
27,303,324686,1,2,0:0:0:0:
272,201,325023,5,2,0:0:0:0:
289,231,325107,1,2,0:0:0:0:
293,265,325191,1,2,0:0:0:0:
283,298,325275,1,2,0:0:0:0:
260,325,325360,2,0,L|190:322,1,69.9999978637696,2|0,1:0|0:0,0:0:0:0:
97,262,325697,5,10,0:0:0:0:
260,325,326035,1,2,0:0:0:0:
188,118,326372,6,0,P|158:179|178:244,1,134.999995880127,4|0,1:0|0:0,0:0:0:0:
245,270,326709,1,2,0:0:0:0:
271,265,326793,1,2,0:0:0:0:
297,260,326877,1,2,0:0:0:0:
323,256,326962,1,2,0:0:0:0:
349,252,327046,6,0,B|448:239|448:239|417:279,1,150,2|0,0:0|0:0,0:0:0:0:
358,356,327720,1,0,1:0:0:0:
197,212,328057,5,0,0:0:0:0:
177,320,328226,1,2,0:0:0:0:
177,320,328310,1,2,0:0:0:0:
177,320,328394,6,0,P|232:334|296:317,1,119.999996337891,2|2,0:0|0:0,0:0:0:0:
328,249,328647,1,2,0:0:0:0:
307,246,328731,2,0,L|312:176,1,69.9999978637696,6|0,1:0|0:0,0:0:0:0:
105,45,329068,6,0,B|67:134|67:134|99:211,1,179.999994506836,4|10,1:0|0:0,0:0:0:0:
164,135,329574,1,2,0:0:0:0:
27,134,329742,1,2,0:0:0:0:
164,135,329911,2,0,L|343:135,1,179.999994506836,2|2,1:0|0:0,0:0:0:0:
276,45,330417,5,0,1:0:0:0:
230,179,330585,1,2,0:0:0:0:
348,224,330754,2,0,L|343:129,1,89.9999972534181,10|0,0:0|0:0,0:0:0:0:
168,45,331091,1,2,0:0:0:0:
168,45,331259,2,0,L|163:134,1,89.9999972534181,2|8,1:0|0:0,0:0:0:0:
98,210,331596,1,0,0:0:0:0:
230,328,331765,5,0,1:0:0:0:
119,227,331933,1,0,0:0:0:0:
257,225,332102,2,0,L|347:224,1,89.9999972534181,10|2,0:0|0:0,0:0:0:0:
452,136,332439,1,2,0:0:0:0:
435,306,332608,2,0,L|345:307,1,89.9999972534181,0|10,1:0|0:0,0:0:0:0:
245,309,332945,1,2,0:0:0:0:
167,161,333113,6,0,B|143:200|100:224|100:224|126:246|169:277,1,179.999994506836,2|10,1:0|0:0,0:0:0:0:
245,309,333619,1,2,0:0:0:0:
287,180,333787,2,0,L|196:181,1,89.9999972534181,2|0,0:0|1:0,0:0:0:0:
299,362,334124,2,0,P|319:327|314:277,1,89.9999972534181,10|0,0:0|0:0,0:0:0:0:
77,299,334462,6,0,B|159:337|159:337|245:309,1,179.999994506836,2|10,1:0|0:0,0:0:0:0:
307,198,334967,1,0,0:0:0:0:
167,161,335136,2,0,B|151:204|151:204|166:253,1,89.9999972534181,2|0,0:0|1:0,0:0:0:0:
374,238,335473,2,0,B|386:195|386:195|370:152,1,89.9999972534181,10|0,0:0|0:0,0:0:0:0:
266,73,335810,6,0,B|249:123|251:157|251:157|264:185|274:207|274:207|289:157,1,179.999994506836,2|10,1:0|0:0,0:0:0:0:
167,161,336315,1,2,0:0:0:0:
274,253,336484,1,2,0:0:0:0:
337,113,336653,1,0,1:0:0:0:
181,244,336821,1,10,0:0:0:0:
374,238,336990,1,2,0:0:0:0:
167,161,337158,6,0,P|118:230|184:243,1,179.999994506836,2|10,1:0|0:0,0:0:0:0:
283,168,337664,1,2,0:0:0:0:
163,71,337832,2,0,L|167:168,1,89.9999972534181,2|0,0:0|1:0,0:0:0:0:
281,258,338169,2,0,L|284:168,1,89.9999972534181,10|2,0:0|0:0,0:0:0:0:
87,104,338506,5,6,0:0:0:0:
283,168,338675,1,2,0:0:0:0:
92,260,338844,2,0,B|45:185|45:185|86:103,1,179.999994506836,10|6,0:0|0:0,0:0:0:0:
154,178,339349,1,2,0:0:0:0:
284,136,339518,2,0,L|324:144,2,29.9999990844727,10|2|2,0:0|0:0|0:0,0:0:0:0:
339,185,339686,6,0,P|357:162|360:133,1,59.9999981689454,2|0,0:0|0:0,0:0:0:0:
220,27,339855,6,0,B|188:11|188:11|193:156,1,179.999994506836,4|10,1:0|0:0,0:0:0:0:
85,103,340360,1,2,0:0:0:0:
85,103,340445,1,2,0:0:0:0:
85,103,340529,1,2,0:0:0:0:
220,27,340697,1,0,1:0:0:0:
253,220,340866,1,10,0:0:0:0:
46,186,341035,2,0,L|99:179,1,44.999998626709,2|2,0:0|0:0,0:0:0:0:
181,163,341203,6,0,L|177:255,1,89.9999972534181,2|0,1:0|0:0,0:0:0:0:
275,350,341540,1,10,0:0:0:0:
177,252,341709,1,0,0:0:0:0:
360,204,341877,2,0,P|363:226|357:247,1,44.999998626709,2|0,0:0|0:0,0:0:0:0:
163,251,342046,2,0,P|157:229|160:207,1,44.999998626709,2|0,1:0|0:0,0:0:0:0:
257,120,342214,1,10,0:0:0:0:
290,313,342383,1,2,0:0:0:0:
288,321,342467,1,2,0:0:0:0:
286,329,342551,6,0,L|195:328,1,89.9999972534181,2|0,1:0|0:0,0:0:0:0:
113,325,342804,1,0,0:0:0:0:
104,325,342888,1,10,0:0:0:0:
232,228,343057,1,2,0:0:0:0:
84,140,343226,2,0,L|134:134,1,44.999998626709,2|2,0:0|0:0,0:0:0:0:
207,123,343394,1,2,1:0:0:0:
155,260,343563,1,10,0:0:0:0:
10,117,343731,1,2,0:0:0:0:
12,108,343815,1,2,0:0:0:0:
14,99,343900,6,0,L|111:87,1,89.9999972534181,2|2,1:0|0:0,0:0:0:0:
232,228,344237,2,0,L|283:222,1,44.999998626709,10|0,0:0|0:0,0:0:0:0:
341,127,344405,2,0,L|335:82,1,44.999998626709,2|0,0:0|0:0,0:0:0:0:
240,18,344574,1,2,0:0:0:0:
137,164,344742,1,0,1:0:0:0:
335,82,344911,1,10,0:0:0:0:
232,228,345079,1,0,1:0:0:0:
83,86,345248,6,0,B|131:78|131:78|211:102|211:102|259:94,1,179.999994506836,6|8,1:0|0:0,0:0:0:0:
191,193,345754,1,2,0:0:0:0:
191,193,345838,1,2,0:0:0:0:
191,193,345922,2,0,L|280:180,1,89.9999972534181,2|0,0:0|0:0,0:0:0:0:
379,202,346259,1,8,1:0:0:0:
370,201,346428,6,0,L|190:192,1,179.999994506836,6|2,1:0|0:0,0:0:0:0:
109,185,346849,1,2,0:0:0:0:
100,184,346933,1,10,0:0:0:0:
211,102,347102,1,0,0:0:0:0:
292,250,347271,1,0,0:0:0:0:
420,127,347439,2,0,L|330:122,1,89.9999972534181,0|8,1:0|0:0,0:0:0:0:
190,192,347776,2,0,L|235:194,1,44.999998626709,2|2,1:0|0:0,0:0:0:0:
359,273,347945,6,0,B|283:269|283:269|182:290,1,179.999994506836,6|10,1:0|0:0,0:0:0:0:
57,221,348450,1,2,0:0:0:0:
57,221,348535,1,2,0:0:0:0:
57,221,348619,2,0,B|191:192|191:192|148:175,1,179.999994506836,6|10,1:0|0:0,0:0:0:0:
124,340,349124,6,0,B|182:290|182:290|283:269,1,179.999994506836,6|2,1:0|0:0,0:0:0:0:
366,247,349546,1,2,0:0:0:0:
363,238,349630,1,10,0:0:0:0:
252,112,349799,1,0,0:0:0:0:
182,290,349967,1,4,0:0:0:0:
61,181,350136,2,0,L|152:176,1,89.9999972534181,2|0,1:0|0:0,0:0:0:0:
252,112,350473,1,2,1:0:0:0:
400,244,350641,6,0,B|335:314|335:314|336:268|316:235|281:209|237:208|237:208|252:111|252:111|159:96|159:96|153:194|130:283|130:283|188:273|236:307,1,750,2|0,0:0|0:0,0:0:0:0:
400,244,353338,6,0,L|392:142,1,80,0|0,1:0|0:0,0:0:0:0:
249,112,353675,2,0,P|237:178|314:175,1,160,8|0,0:0|0:0,0:0:0:0:
336,95,354181,1,0,1:0:0:0:
473,159,354349,2,0,L|391:164,1,80,8|0,0:0|0:0,0:0:0:0:
239,273,354686,6,0,L|318:277,1,80,0|0,1:0|0:0,0:0:0:0:
393,163,355023,2,0,L|222:173,1,160,8|0,0:0|0:0,0:0:0:0:
127,130,355529,1,0,1:0:0:0:
220,63,355697,1,8,0:0:0:0:
235,258,355866,1,0,0:0:0:0:
47,135,356035,6,0,L|129:129,1,80,0|0,1:0|0:0,0:0:0:0:
231,177,356372,1,8,0:0:0:0:
130,269,356540,2,0,L|98:267,2,26.6666666666667
191,309,356709,2,0,L|278:303,1,80,0|0,0:0|1:0,0:0:0:0:
417,212,357046,2,0,L|330:206,1,80,8|0,0:0|0:0,0:0:0:0:
228,92,357383,6,0,P|242:164|168:198,1,160,0|8,1:0|0:0,0:0:0:0:
121,109,357888,1,0,0:0:0:0:
313,74,358057,1,0,0:0:0:0:
174,199,358226,1,0,1:0:0:0:
355,169,358394,1,8,0:0:0:0:
121,109,358563,1,0,0:0:0:0:
377,21,358731,6,0,P|393:56|392:97,1,80,0|0,1:0|0:0,0:0:0:0:
239,235,359068,2,0,B|198:165|198:165|228:90,1,160,8|0,0:0|0:0,0:0:0:0:
301,156,359574,1,0,1:0:0:0:
133,209,359742,2,0,P|121:177|130:125,1,80,8|0,0:0|0:0,0:0:0:0:
309,61,360079,6,0,P|315:100|302:137,1,80,0|0,1:0|0:0,0:0:0:0:
199,165,360417,1,8,0:0:0:0:
145,37,360585,2,0,L|151:8,2,26.6666666666667
93,89,360754,2,0,L|102:171,1,80,0|0,0:0|1:0,0:0:0:0:
75,301,361091,2,0,L|124:295,1,40,8|0,0:0|0:0,0:0:0:0:
238,252,361259,2,0,L|189:246,1,40
101,168,361428,6,0,L|186:161,1,80,0|0,1:0|0:0,0:0:0:0:
357,261,361765,2,0,L|192:246,1,160,8|0,0:0|0:0,0:0:0:0:
114,296,362271,1,0,1:0:0:0:
259,365,362439,2,0,L|266:283,1,80,8|0,0:0|0:0,0:0:0:0:
207,92,362776,6,0,B|215:132|215:132|191:212|191:212|199:252,1,160,0|8,1:0|0:0,0:0:0:0:
278,213,363282,1,0,1:0:0:0:
131,128,363450,1,4,1:0:0:0:
316,96,363619,1,0,0:0:0:0:
197,246,363787,1,4,1:0:0:0:
197,57,363956,1,0,0:0:0:0:
357,209,364124,6,0,L|275:213,1,80,4|0,1:0|0:0,0:0:0:0:
186,325,364462,2,0,L|106:321,1,80,8|0,0:0|0:0,0:0:0:0:
11,218,364799,2,0,L|61:209,1,40,2|0,0:0|0:0,0:0:0:0:
135,190,364967,2,0,L|185:181,1,40,2|0,1:0|0:0,0:0:0:0:
259,162,365136,1,10,0:0:0:0:
142,11,365304,1,2,0:0:0:0:
131,16,365388,1,2,0:0:0:0:
120,22,365473,6,0,L|132:103,1,80,2|0,1:0|0:0,0:0:0:0:
135,118,365726,1,0,0:0:0:0:
138,133,365810,1,8,0:0:0:0:
263,64,365978,1,0,0:0:0:0:
386,218,366147,2,0,P|360:228|340:229,1,40,2|0,0:0|0:0,0:0:0:0:
257,238,366315,2,0,P|229:233|211:224,1,40,2|0,1:0|0:0,0:0:0:0:
135,190,366484,1,10,0:0:0:0:
263,64,366653,1,2,0:0:0:0:
274,66,366737,1,2,0:0:0:0:
285,69,366821,6,0,L|293:164,1,80,2|0,1:0|0:0,0:0:0:0:
257,238,367158,1,8,0:0:0:0:
135,190,367327,1,2,0:0:0:0:
116,196,367411,1,2,0:0:0:0:
97,203,367495,1,2,0:0:0:0:
78,210,367579,1,2,0:0:0:0:
59,217,367664,1,2,1:0:0:0:
140,287,367832,1,8,0:0:0:0:
210,138,368001,1,0,0:0:0:0:
308,293,368169,6,0,L|390:289,1,80,0|0,1:0|0:0,0:0:0:0:
470,204,368506,1,8,0:0:0:0:
357,112,368675,1,2,0:0:0:0:
357,112,368759,1,2,0:0:0:0:
357,112,368844,2,0,L|312:118,1,40,2|2,0:0|0:0,0:0:0:0:
235,133,369012,1,2,1:0:0:0:
366,213,369181,1,8,0:0:0:0:
144,197,369349,1,0,1:0:0:0:
350,32,369518,6,0,L|357:112,1,80,4|0,1:0|0:0,0:0:0:0:
292,196,369855,1,8,0:0:0:0:
189,109,370023,1,2,0:0:0:0:
191,89,370107,1,2,0:0:0:0:
193,69,370191,1,2,0:0:0:0:
195,49,370275,1,2,0:0:0:0:
197,29,370360,1,2,1:0:0:0:
92,103,370529,1,8,0:0:0:0:
242,193,370697,1,0,0:0:0:0:
73,295,370866,6,0,L|70:215,1,80,0|2,1:0|0:0,0:0:0:0:
77,200,371119,1,2,0:0:0:0:
83,185,371203,1,10,0:0:0:0:
176,253,371372,2,0,L|264:243,1,80
351,228,371709,1,0,1:0:0:0:
287,120,371877,2,0,P|272:135|264:166,1,40,10|2,0:0|0:0,0:0:0:0:
255,243,372046,2,0,P|256:264|275:290,1,40,2|2,0:0|0:0,0:0:0:0:
328,346,372214,5,2,1:0:0:0:
206,334,372383,1,0,0:0:0:0:
343,276,372551,1,8,0:0:0:0:
343,276,372720,2,0,B|406:325|406:325|328:346,1,160,0|0,0:0|1:0,0:0:0:0:
195,330,373226,1,10,0:0:0:0:
195,330,373563,6,0,B|140:272|140:272|209:225,1,162.499992561341,0|0,1:0|0:0,0:0:0:0:
238,211,374068,1,0,1:0:0:0:
375,269,374237,5,0,1:0:0:0:
403,277,374321,1,2,0:0:0:0:
433,276,374405,1,2,0:0:0:0:
461,266,374489,1,2,0:0:0:0:
491,235,374574,2,0,L|507:298,2,50,2|2|2,0:0|0:0|0:0,0:0:0:0:
292,158,374911,5,6,1:0:0:0:
292,158,374995,1,2,1:0:0:0:
292,158,375079,2,0,L|206:170,1,64.9999970245363,2|0,1:0|0:0,0:0:0:0:
70,187,375248,1,8,0:0:0:0:
260,67,375417,1,2,0:0:0:0:
206,266,375585,1,0,0:0:0:0:
30,90,375754,1,0,1:0:0:0:
328,111,375922,2,0,B|321:256|321:256|274:226,1,194.999991073609,8|0,0:0|0:0,0:0:0:0:
262,218,376259,5,0,1:0:0:0:
423,109,376428,2,0,L|418:239,1,129.999994049073,2|8,0:0|0:0,0:0:0:0:
242,330,376765,1,0,0:0:0:0:
418,238,376933,1,0,0:0:0:0:
176,154,377102,1,2,1:0:0:0:
425,44,377271,2,0,L|422:108,1,64.9999970245363,10|0,0:0|0:0,0:0:0:0:
262,218,377439,2,0,L|264:153,1,64.9999970245363,2|0,0:0|0:0,0:0:0:0:
115,31,377608,6,0,P|143:97|43:135,1,194.999991073609,0|0,1:0|0:0,0:0:0:0:
36,125,377945,1,8,0:0:0:0:
269,113,378113,2,0,L|127:109,1,129.999994049073,2|0,0:0|0:0,0:0:0:0:
13,233,378450,1,0,1:0:0:0:
271,138,378619,1,8,0:0:0:0:
232,349,378787,1,0,0:0:0:0:
206,343,378872,1,0,0:0:0:0:
180,337,378956,5,0,1:0:0:0:
13,233,379124,1,2,0:0:0:0:
277,220,379293,1,8,0:0:0:0:
16,264,379462,1,0,0:0:0:0:
180,337,379630,2,0,L|173:263,1,64.9999970245363
270,155,379799,2,0,L|277:220,1,64.9999970245363,2|0,1:0|0:0,0:0:0:0:
397,256,379967,6,0,B|355:272|321:256|321:256|288:239|246:256,1,150,10|0,0:0|0:0,0:0:0:0:
173,272,380304,5,6,1:0:0:0:
173,272,380388,1,2,1:0:0:0:
173,272,380473,2,0,L|154:203,1,64.9999970245363,2|0,1:0|0:0,0:0:0:0:
127,110,380641,1,8,0:0:0:0:
308,229,380810,1,2,0:0:0:0:
45,245,380978,1,0,0:0:0:0:
227,41,381147,1,0,1:0:0:0:
327,316,381315,2,0,B|358:279|358:279|207:284,1,194.999991073609,10|0,0:0|0:0,0:0:0:0:
184,285,381653,5,0,1:0:0:0:
403,216,381821,2,0,P|420:233|412:334,1,129.999994049073,2|8,0:0|0:0,0:0:0:0:
258,374,382158,1,0,0:0:0:0:
158,156,382327,1,0,0:0:0:0:
358,278,382495,1,2,1:0:0:0:
114,289,382664,2,0,P|106:253|115:220,1,64.9999970245363,10|0,0:0|0:0,0:0:0:0:
261,81,382832,2,0,P|267:112|259:143,1,64.9999970245363,2|0,0:0|0:0,0:0:0:0:
182,254,383001,5,2,1:0:0:0:
56,107,383169,2,0,L|54:58,2,43.3333313496908,2|2|2,0:0|0:0|0:0,0:0:0:0:
47,141,383338,1,8,0:0:0:0:
182,254,383506,1,2,0:0:0:0:
262,81,383675,1,0,0:0:0:0:
117,200,383844,1,0,1:0:0:0:
320,233,384012,1,8,0:0:0:0:
320,233,384096,1,0,0:0:0:0:
320,233,384181,1,0,0:0:0:0:
125,135,384349,6,0,L|116:202,1,64.9999970245363,2|0,1:0|0:0,0:0:0:0:
220,345,384518,2,0,L|228:280,1,64.9999970245363,2|0,1:0|0:0,0:0:0:0:
368,168,384686,1,10,1:0:0:0:
247,356,384855,1,0,1:0:0:0:
27,210,385023,6,0,B|134:213|134:213|110:194,1,129.999994049073,4|0,1:0|0:0,0:0:0:0:
285,63,385360,2,0,B|178:66|178:66|202:47,1,129.999994049073,12|0,1:0|0:0,0:0:0:0:
406,167,385697,5,6,1:0:0:0:
406,167,385782,1,2,1:0:0:0:
406,167,385866,2,0,L|336:171,1,64.9999970245363,2|0,1:0|0:0,0:0:0:0:
224,181,386035,1,8,0:0:0:0:
305,313,386203,1,2,0:0:0:0:
470,219,386372,5,0,0:0:0:0:
487,177,386456,1,0,0:0:0:0:
480,133,386540,1,0,1:0:0:0:
450,98,386624,1,0,0:0:0:0:
408,84,386709,1,8,0:0:0:0:
291,223,386877,2,0,L|222:218,1,64.9999970245363
113,158,387046,6,0,P|107:110|163:51,1,129.999994049073,0|2,1:0|0:0,0:0:0:0:
372,85,387383,1,8,0:0:0:0:
182,126,387551,1,0,0:0:0:0:
350,270,387720,2,0,P|363:240|359:203,1,64.9999970245363,2|0,0:0|0:0,0:0:0:0:
272,79,387888,2,0,P|269:111|282:140,1,64.9999970245363,2|0,1:0|0:0,0:0:0:0:
395,212,388057,1,10,0:0:0:0:
198,216,388226,1,0,0:0:0:0:
483,103,388394,6,0,B|513:130|513:130|449:117|357:134,1,194.999991073609,0|0,1:0|0:0,0:0:0:0:
334,142,388731,1,8,0:0:0:0:
489,235,388900,1,2,0:0:0:0:
343,357,389068,1,0,0:0:0:0:
300,344,389153,1,0,0:0:0:0:
271,309,389237,1,0,1:0:0:0:
267,265,389321,1,0,0:0:0:0:
288,225,389405,1,8,0:0:0:0:
408,285,389574,2,0,P|376:287|344:281,1,64.9999970245363
218,211,389742,6,0,P|242:157|208:91,1,129.999994049073,0|2,1:0|0:0,0:0:0:0:
13,159,390079,1,8,0:0:0:0:
165,156,390248,1,0,0:0:0:0:
32,310,390417,5,0,0:0:0:0:
9,295,390502,1,0,0:0:0:0:
2,250,390586,1,2,1:0:0:0:
4,204,390670,1,0,0:0:0:0:
13,159,390754,1,8,0:0:0:0:
124,242,390922,1,0,1:0:0:0:
285,121,391091,5,6,1:0:0:0:
285,121,391175,1,2,1:0:0:0:
285,121,391259,2,0,L|261:185,1,64.9999970245363,2|0,1:0|0:0,0:0:0:0:
215,315,391428,1,8,0:0:0:0:
165,156,391596,2,0,L|100:158,2,64.9999970245363,2|2|2,0:0|0:0|0:0,0:0:0:0:
328,238,391933,1,0,1:0:0:0:
140,343,392102,2,0,B|116:319|108:295|108:295|116:255|148:199|148:199|164:239,1,194.999991073609,8|0,0:0|0:0,0:0:0:0:
166,254,392439,5,0,1:0:0:0:
10,343,392608,2,0,L|140:343,1,129.999994049073,2|8,0:0|0:0,0:0:0:0:
300,244,392945,1,0,0:0:0:0:
141,135,393113,2,0,L|148:201,1,64.9999970245363,2|0,0:0|0:0,0:0:0:0:
293,308,393282,2,0,L|299:243,1,64.9999970245363,2|0,1:0|0:0,0:0:0:0:
313,123,393450,1,10,0:0:0:0:
58,190,393619,1,0,0:0:0:0:
293,308,393787,6,0,L|363:306,1,64.9999970245363,0|0,1:0|0:0,0:0:0:0:
452,230,393956,2,0,L|502:235,2,43.3333313496908,2|2|2,0:0|0:0|0:0,0:0:0:0:
419,217,394124,1,8,0:0:0:0:
327,102,394293,1,2,0:0:0:0:
160,232,394462,5,0,0:0:0:0:
173,275,394547,1,0,0:0:0:0:
205,307,394631,1,0,1:0:0:0:
248,318,394715,1,0,0:0:0:0:
292,307,394799,1,8,0:0:0:0:
383,204,394967,1,0,0:0:0:0:
223,18,395136,6,0,P|212:47|211:88,1,64.9999970245363,2|0,1:0|0:0,0:0:0:0:
219,172,395304,2,0,P|223:202|243:238,1,64.9999970245363,2|0,0:0|0:0,0:0:0:0:
292,307,395473,2,0,B|390:292|390:292|356:278,1,129.999994049073,10|0,0:0|0:0,0:0:0:0:
78,309,395810,6,0,P|106:321|146:325,1,64.9999970245363,2|0,0:0|0:0,0:0:0:0:
230,323,395978,2,0,P|260:320|298:303,1,64.9999970245363,2|0,1:0|0:0,0:0:0:0:
369,260,396147,2,0,L|356:128,1,129.999994049073,10|0,0:0|1:0,0:0:0:0:
230,7,396484,5,6,1:0:0:0:
230,7,396568,1,2,0:0:0:0:
230,7,396653,1,2,0:0:0:0:
157,193,396821,1,8,0:0:0:0:
356,130,396990,2,0,L|242:123,1,110.000003356934,2|0,0:0|0:0,0:0:0:0:
163,215,397327,1,0,1:0:0:0:
270,270,397495,1,8,0:0:0:0:
246,123,397664,1,0,0:0:0:0:
90,289,397832,6,0,B|122:275|122:275|199:286,1,110.000003356934,0|2,1:0|0:0,0:0:0:0:
272,168,398169,2,0,P|264:142|245:122,1,55.0000016784668,8|0,0:0|0:0,0:0:0:0:
165,65,398338,2,0,P|141:63|106:73,1,55.0000016784668
18,107,398506,2,0,B|9:148|9:148|30:222,1,110.000003356934,0|0,0:0|1:0,0:0:0:0:
90,289,398844,1,10,0:0:0:0:
205,190,399012,2,0,L|227:252,1,55.0000016784668,2|2,0:0|0:0,0:0:0:0:
261,331,399181,6,0,P|200:372|209:273,1,220.000006713867,0|8,1:0|0:0,0:0:0:0:
337,270,399686,1,2,0:0:0:0:
206,163,399855,2,0,L|203:273,1,110.000003356934,0|0,0:0|1:0,0:0:0:0:
339,379,400192,2,0,L|336:269,1,110.000003356934,10|2,0:0|0:0,0:0:0:0:
399,135,400529,5,0,1:0:0:0:
317,248,400697,1,0,0:0:0:0:
206,127,400866,1,8,0:0:0:0:
446,139,401035,1,0,0:0:0:0:
335,325,401203,2,0,P|306:327|278:317,1,55.0000016784668,2|0,0:0|0:0,0:0:0:0:
207,196,401372,2,0,P|221:220|224:249,1,55.0000016784668,2|0,1:0|0:0,0:0:0:0:
170,325,401540,2,0,P|118:336|59:307,1,110.000003356934,10|0,0:0|0:0,0:0:0:0:
12,148,401877,5,6,1:0:0:0:
12,148,401962,1,2,0:0:0:0:
12,148,402046,1,2,0:0:0:0:
219,86,402214,1,8,0:0:0:0:
139,244,402383,2,0,L|127:132,1,110.000003356934,2|0,0:0|0:0,0:0:0:0:
240,203,402720,1,0,1:0:0:0:
55,220,402888,2,0,B|138:245|138:245|210:216,1,165.000005035401,8|0,0:0|0:0,0:0:0:0:
240,203,403226,5,0,1:0:0:0:
127,134,403394,1,2,0:0:0:0:
91,319,403563,2,0,P|140:335|194:317,1,110.000003356934,8|0,0:0|0:0,0:0:0:0:
240,203,403900,1,0,0:0:0:0:
290,318,404068,1,2,1:0:0:0:
141,244,404237,2,0,L|145:182,1,55.0000016784668,10|0,0:0|0:0,0:0:0:0:
286,263,404405,2,0,L|289:317,1,55.0000016784668,2|0,0:0|0:0,0:0:0:0:
398,209,404574,5,2,1:0:0:0:
323,75,404742,2,0,L|327:37,2,36.6666677856446,2|2|2,0:0|0:0|0:0,0:0:0:0:
306,99,404911,1,8,0:0:0:0:
127,58,405079,2,0,L|241:47,1,110.000003356934,2|0,0:0|0:0,0:0:0:0:
345,146,405417,1,0,1:0:0:0:
170,227,405585,1,8,0:0:0:0:
345,146,405754,1,0,0:0:0:0:
127,58,405922,6,0,L|123:116,1,55.0000016784668,2|0,1:0|0:0,0:0:0:0:
259,234,406091,2,0,L|255:179,1,55.0000016784668,2|0,0:0|0:0,0:0:0:0:
206,61,406259,2,0,L|202:119,1,55.0000016784668,10|0,0:0|0:0,0:0:0:0:
338,231,406428,2,0,L|334:173,1,55.0000016784668,2|0,0:0|0:0,0:0:0:0:
285,64,406596,5,2,0:0:0:0:
170,227,406765,1,2,1:0:0:0:
373,90,406933,1,10,0:0:0:0:
123,112,407102,1,2,0:0:0:0:
338,231,407271,5,6,1:0:0:0:
338,231,407355,1,2,0:0:0:0:
338,231,407439,1,2,0:0:0:0:
127,224,407608,1,8,0:0:0:0:
328,121,407776,2,0,L|338:238,1,110.000003356934,2|0,0:0|0:0,0:0:0:0:
261,336,408113,1,0,1:0:0:0:
152,225,408282,1,8,0:0:0:0:
337,230,408450,1,0,0:0:0:0:
242,362,408619,6,0,L|130:352,1,110.000003356934,0|2,1:0|0:0,0:0:0:0:
41,245,408956,1,8,0:0:0:0:
246,218,409124,1,0,0:0:0:0:
132,352,409293,2,0,L|127:298,1,55.0000016784668,2|0,0:0|0:0,0:0:0:0:
251,163,409462,2,0,L|245:217,1,55.0000016784668,2|0,1:0|0:0,0:0:0:0:
232,331,409630,1,10,0:0:0:0:
41,245,409799,1,0,0:0:0:0:
251,163,409967,6,0,B|414:171|414:171|359:198,1,220.000006713867,2|8,1:0|0:0,0:0:0:0:
182,207,410473,2,0,P|169:158|197:102,1,110.000003356934,2|0,0:0|0:0,0:0:0:0:
328,71,410810,1,0,1:0:0:0:
293,254,410978,1,10,0:0:0:0:
192,106,411147,1,2,0:0:0:0:
414,171,411315,6,0,L|295:175,1,110.000003356934,0|0,1:0|0:0,0:0:0:0:
219,338,411653,2,0,L|328:341,1,110.000003356934,8|0,0:0|0:0,0:0:0:0:
432,252,411990,1,2,0:0:0:0:
251,163,412158,1,2,1:0:0:0:
453,168,412327,1,10,0:0:0:0:
222,267,412495,1,2,0:0:0:0:
326,62,412664,5,6,1:0:0:0:
326,62,412748,1,2,0:0:0:0:
326,62,412832,1,2,0:0:0:0:
348,259,413001,1,8,0:0:0:0:
177,185,413169,2,0,L|288:172,1,110.000003356934,2|0,0:0|0:0,0:0:0:0:
380,278,413506,1,0,1:0:0:0:
202,340,413675,2,0,B|165:268|165:268|176:184,1,165.000005035401,8|0,0:0|0:0,0:0:0:0:
181,157,414012,5,0,1:0:0:0:
290,249,414181,1,2,0:0:0:0:
101,327,414349,2,0,P|81:282|101:212,1,110.000003356934,8|0,0:0|0:0,0:0:0:0:
181,157,414686,1,0,0:0:0:0:
307,225,414855,1,2,1:0:0:0:
166,268,415023,2,0,L|225:271,1,55.0000016784668,10|0,0:0|0:0,0:0:0:0:
307,225,415192,2,0,L|362:223,1,55.0000016784668,2|0,0:0|0:0,0:0:0:0:
450,263,415360,5,0,1:0:0:0:
334,365,415529,2,0,L|297:362,2,36.6666677856446,2|2|2,0:0|0:0|0:0,0:0:0:0:
362,359,415697,1,8,0:0:0:0:
482,247,415866,2,0,B|450:239|450:239|402:255|402:255|368:250,1,110.000003356934,2|0,0:0|0:0,0:0:0:0:
259,236,416203,1,0,1:0:0:0:
451,327,416372,1,8,0:0:0:0:
388,144,416540,1,0,0:0:0:0:
180,296,416709,6,0,P|210:307|240:310,1,55.0000016784668,2|0,1:0|0:0,0:0:0:0:
322,306,416877,2,0,P|353:300|380:288,1,55.0000016784668,2|0,0:0|0:0,0:0:0:0:
449,243,417046,2,0,P|447:186|414:142,1,110.000003356934,10|0,0:0|0:0,0:0:0:0:
175,101,417383,6,0,P|164:131|161:161,1,55.0000016784668,2|0,0:0|0:0,0:0:0:0:
165,243,417551,2,0,P|170:274|182:301,1,55.0000016784668,2|0,1:0|0:0,0:0:0:0:
228,370,417720,2,0,L|341:358,1,110.000003356934,10|0,0:0|0:0,0:0:0:0:
449,243,418057,6,0,L|438:164,1,80,2|2,1:0|0:0,0:0:0:0:
301,63,418394,1,0,0:0:0:0:
296,69,418563,2,0,P|270:154|297:218,1,160,2|0,0:0|0:0,0:0:0:0:
437,163,419068,2,0,L|426:84,1,80,2|0,0:0|0:0,0:0:0:0:
296,69,419405,5,0,0:0:0:0:
229,263,419574,2,0,P|290:298|366:259,1,160,2|0,0:0|0:0,0:0:0:0:
297,136,420079,1,0,0:0:0:0:
295,216,420248,2,0,L|297:136,1,80,0|2,1:0|0:0,0:0:0:0:
161,153,420585,1,2,0:0:0:0:
161,153,420669,1,2,0:0:0:0:
161,153,420754,6,0,L|1:162,1,160,2|0,1:0|0:0,0:0:0:0:
76,273,421259,2,0,L|79:182,1,80,2|0,0:0|0:0,0:0:0:0:
171,119,421596,1,0,0:0:0:0:
229,271,421765,6,0,P|152:289|75:272,1,160,2|0,0:0|0:0,0:0:0:0:
1,161,422271,2,0,L|80:156,1,80,2|0,0:0|0:0,0:0:0:0:
184,152,422608,1,0,0:0:0:0:
229,271,422776,1,0,0:0:0:0:
227,349,422945,2,0,P|221:310|229:271,1,80,0|2,1:0|0:0,0:0:0:0:
354,265,423282,1,2,0:0:0:0:
354,265,423366,1,2,0:0:0:0:
354,265,423450,6,0,P|355:220|344:177,1,80,2|2,1:0|0:0,0:0:0:0:
216,90,423787,1,0,0:0:0:0:
213,97,423956,2,0,B|181:172|181:172|220:245,1,160,2|0,0:0|0:0,0:0:0:0:
354,169,424462,1,2,0:0:0:0:
354,169,424546,1,2,0:0:0:0:
354,169,424630,6,0,L|270:172,1,80,2|0,0:0|0:0,0:0:0:0:
135,255,424967,1,2,0:0:0:0:
284,293,425136,1,0,0:0:0:0:
290,287,425304,2,0,P|296:247|292:204,1,80,2|0,0:0|0:0,0:0:0:0:
293,207,425641,1,0,1:0:0:0:
178,127,425810,1,2,0:0:0:0:
114,272,425978,1,2,0:0:0:0:
114,272,426063,1,2,0:0:0:0:
114,272,426147,6,0,L|32:266,1,80,2|0,1:0|0:0,0:0:0:0:
152,127,426484,1,0,0:0:0:0:
160,127,426653,2,0,L|323:126,1,160,2|0,0:0|0:0,0:0:0:0:
237,239,427158,2,0,P|228:197|235:156,1,80,2|0,0:0|0:0,0:0:0:0:
297,42,427495,5,2,0:0:0:0:
400,111,427664,2,0,L|396:278,1,160,2|0,0:0|0:0,0:0:0:0:
314,344,428169,1,0,0:0:0:0:
307,264,428338,2,0,L|314:344,1,80,0|2,1:0|0:0,0:0:0:0:
197,337,428675,1,2,0:0:0:0:
197,337,428759,1,2,0:0:0:0:
197,337,428844,6,0,B|1:226|-35:381|85:414|148:393|174:244|118:176,1,450,0|0,1:0|0:0,0:0:0:0:
122,181,431540,6,0,B|246:235|313:66|461:99|495:206|451:336|324:307|227:210,1,600,0|0,1:0|0:0,0:0:0:0:
273,318,434237,6,0,P|373:313|229:232,1,450,0|0,1:0|0:0,0:0:0:0:
319,240,436933,6,0,B|365:214|365:214|477:219|477:219|453:145|453:145|292:136,1,400,0|0,1:0|0:0,0:0:0:0:
201,189,438450,2,0,P|225:293|319:239,1,250,0|0,1:0|0:0,0:0:0:0:
295,136,439630,5,0,1:0:0:0:
256,192,439714,12,0,446372,0:0:0:0:
