osu file format v14

[General]
AudioFilename: audio.mp3
AudioLeadIn: 0
PreviewTime: 17601
Countdown: 0
SampleSet: Soft
StackLeniency: 0.7
Mode: 3
LetterboxInBreaks: 0
SpecialStyle: 0
WidescreenStoryboard: 0

[Editor]
Bookmarks: 43651,107251,120051
DistanceSpacing: 2
BeatDivisor: 4
GridSize: 4
TimelineZoom: 3.259998

[Metadata]
Title:Throwback
TitleUnicode:Throwback
Artist:Electro-Light
ArtistUnicode:Electro-Light
Creator:AlisceaSparku
Version:Liberation
Source:
Tags:
BeatmapID:1429587
BeatmapSetID:675846

[Difficulty]
HPDrainRate:8.5
CircleSize:4
OverallDifficulty:7.6
ApproachRate:5
SliderMultiplier:1.4
SliderTickRate:1

[Events]
//Background and Video events
0,0,"throwback.jpg",0,0
//Break Periods
//Storyboard Layer 0 (Background)
//Storyboard Layer 1 (Fail)
//Storyboard Layer 2 (Pass)
//Storyboard Layer 3 (Foreground)
//Storyboard Sound Samples

[TimingPoints]
1651.89003465845,400,4,2,0,33,1,0
54451,-200,4,2,0,33,0,0
56051,-100,4,2,0,33,0,1
81651,-100,4,2,0,33,0,0
156851,-200,4,2,0,33,0,0
158051,-100,4,2,0,33,0,0
158151,-133.333333333333,4,2,0,33,0,0
158451,-40,4,2,0,33,0,1
158482,-125,4,2,0,33,0,1
158651,-40,4,2,0,33,0,1
158676,-125,4,2,0,33,0,1
158851,-40,4,2,0,33,0,1
158876,-125,4,2,0,33,0,1
159051,-40,4,2,0,33,0,1
159076,-125,4,2,0,33,0,1
159251,-40,4,2,0,33,0,1
159276,-125,4,2,0,33,0,1
159451,-40,4,2,0,33,0,1
159476,-125,4,2,0,33,0,1
159651,-40,4,2,0,33,0,1
159676,-125,4,2,0,33,0,1
159851,-40,4,2,0,33,0,1
159876,-125,4,2,0,33,0,1
160051,-40,4,2,0,33,0,1
160076,-125,4,2,0,33,0,1
160251,-40,4,2,0,33,0,1
160276,-125,4,2,0,33,0,1
160451,-40,4,2,0,33,0,1
160476,-125,4,2,0,33,0,1
160651,-40,4,2,0,33,0,1
160676,-125,4,2,0,33,0,1
160851,-100,4,2,0,33,0,1
161151,-90.9090909090909,4,2,0,33,0,1
161451,-83.3333333333333,4,2,0,33,0,1
161651,-40,4,2,0,33,0,1
161676,-133.333333333333,4,2,0,33,0,1
161851,-40,4,2,0,33,0,1
161876,-133.333333333333,4,2,0,33,0,1
162051,-40,4,2,0,33,0,1
162076,-133.333333333333,4,2,0,33,0,1
162251,-40,4,2,0,33,0,1
162276,-133.333333333333,4,2,0,33,0,1
162451,-40,4,2,0,33,0,1
162476,-133.333333333333,4,2,0,33,0,1
162651,-40,4,2,0,33,0,1
162676,-133.333333333333,4,2,0,33,0,1
162851,-40,4,2,0,33,0,1
162876,-133.333333333333,4,2,0,33,0,1
163051,-40,4,2,0,33,0,1
163076,-133.333333333333,4,2,0,33,0,1
163251,-40,4,2,0,33,0,1
163276,-133.333333333333,4,2,0,33,0,1
163451,-40,4,2,0,33,0,1
163476,-133.333333333333,4,2,0,33,0,1
163651,-40,4,2,0,33,0,1
163676,-133.333333333333,4,2,0,33,0,1
163851,-40,4,2,0,33,0,1
163876,-133.333333333333,4,2,0,33,0,1
164051,-83.3333333333333,4,2,0,33,0,1
164351,-100,4,2,0,33,0,1
164651,-125,4,2,0,33,0,1
164851,-40,4,2,0,33,0,1
164876,-133.333333333333,4,2,0,33,0,1
165051,-40,4,2,0,33,0,1
165076,-133.333333333333,4,2,0,33,0,1
165251,-40,4,2,0,33,0,1
165276,-133.333333333333,4,2,0,33,0,1
165451,-40,4,2,0,33,0,1
165476,-133.333333333333,4,2,0,33,0,1
165651,-40,4,2,0,33,0,1
165676,-133.333333333333,4,2,0,33,0,1
165851,-40,4,2,0,33,0,1
165876,-133.333333333333,4,2,0,33,0,1
166051,-40,4,2,0,33,0,1
166076,-133.333333333333,4,2,0,33,0,1
166251,-40,4,2,0,33,0,1
166276,-133.333333333333,4,2,0,33,0,1
166451,-40,4,2,0,33,0,1
166476,-133.333333333333,4,2,0,33,0,1
166651,-40,4,2,0,33,0,1
166676,-133.333333333333,4,2,0,33,0,1
166851,-40,4,2,0,33,0,1
166876,-133.333333333333,4,2,0,33,0,1
167051,-40,4,2,0,33,0,1
167076,-133.333333333333,4,2,0,33,0,1
167251,-100,4,2,0,33,0,1
167551,-90.9090909090909,4,2,0,33,0,1
167851,-83.3333333333333,4,2,0,33,0,1
168051,-100,4,2,0,33,0,1
171251,-40,4,2,0,33,0,1
171276,-133.333333333333,4,2,0,33,0,1
171451,-40,4,2,0,33,0,1
171476,-133.333333333333,4,2,0,33,0,1
171651,-40,4,2,0,33,0,1
171676,-133.333333333333,4,2,0,33,0,1
171851,-40,4,2,0,33,0,1
171876,-133.333333333333,4,2,0,33,0,1
172051,-40,4,2,0,33,0,1
172076,-133.333333333333,4,2,0,33,0,1
172251,-40,4,2,0,33,0,1
172276,-133.333333333333,4,2,0,33,0,1
172451,-40,4,2,0,33,0,1
172476,-133.333333333333,4,2,0,33,0,1
172651,-40,4,2,0,33,0,1
172676,-133.333333333333,4,2,0,33,0,1
172851,-40,4,2,0,33,0,1
172876,-133.333333333333,4,2,0,33,0,1
173051,-80,4,2,0,33,0,1
173076,-133.333333333333,4,2,0,33,0,1
173251,-40,4,2,0,33,0,1
173276,-133.333333333333,4,2,0,33,0,1
173451,-40,4,2,0,33,0,1
173476,-133.333333333333,4,2,0,33,0,1
173651,-100,4,2,0,33,0,1
173951,-90.9090909090909,4,2,0,33,0,1
174251,-83.3333333333333,4,2,0,33,0,1
174451,-40,4,2,0,33,0,1
174476,-133.333333333333,4,2,0,33,0,1
174651,-40,4,2,0,33,0,1
174676,-133.333333333333,4,2,0,33,0,1
174851,-40,4,2,0,33,0,1
174876,-133.333333333333,4,2,0,33,0,1
175051,-40,4,2,0,33,0,1
175076,-133.333333333333,4,2,0,33,0,1
175251,-40,4,2,0,33,0,1
175276,-133.333333333333,4,2,0,33,0,1
175451,-40,4,2,0,33,0,1
175476,-133.333333333333,4,2,0,33,0,1
175651,-40,4,2,0,33,0,1
175676,-133.333333333333,4,2,0,33,0,1
175851,-40,4,2,0,33,0,1
175876,-133.333333333333,4,2,0,33,0,1
176051,-40,4,2,0,33,0,1
176076,-133.333333333333,4,2,0,33,0,1
176251,-40,4,2,0,33,0,1
176276,-133.333333333333,4,2,0,33,0,1
176451,-40,4,2,0,33,0,1
176476,-133.333333333333,4,2,0,33,0,1
176651,-40,4,2,0,33,0,1
176676,-133.333333333333,4,2,0,33,0,1
176851,-83.3333333333333,4,2,0,33,0,1
177151,-100,4,2,0,33,0,1
177451,-125,4,2,0,33,0,1
177651,-40,4,2,0,33,0,1
177676,-133.333333333333,4,2,0,33,0,1
177851,-40,4,2,0,33,0,1
177876,-133.333333333333,4,2,0,33,0,1
178051,-40,4,2,0,33,0,1
178076,-133.333333333333,4,2,0,33,0,1
178251,-40,4,2,0,33,0,1
178276,-133.333333333333,4,2,0,33,0,1
178451,-40,4,2,0,33,0,1
178476,-133.333333333333,4,2,0,33,0,1
178651,-40,4,2,0,33,0,1
178676,-133.333333333333,4,2,0,33,0,1
178851,-40,4,2,0,33,0,1
178876,-133.333333333333,4,2,0,33,0,1
179051,-40,4,2,0,33,0,1
179076,-133.333333333333,4,2,0,33,0,1
179251,-40,4,2,0,33,0,1
179276,-133.333333333333,4,2,0,33,0,1
179451,-40,4,2,0,33,0,1
179476,-133.333333333333,4,2,0,33,0,1
179651,-40,4,2,0,33,0,1
179676,-133.333333333333,4,2,0,33,0,1
179851,-40,4,2,0,33,0,1
179876,-133.333333333333,4,2,0,33,0,1
180051,-100,4,2,0,33,0,1
180351,-90.9090909090909,4,2,0,33,0,1
180651,-83.3333333333333,4,2,0,33,0,1
180851,-100,4,2,0,33,0,1
184051,-100,4,2,0,33,0,0

[HitObjects]
64,192,1651,5,0,0:0:0:0:
192,192,1651,1,0,0:0:0:0:
448,192,1851,128,0,2051:0:0:0:0:
64,192,2051,128,0,2251:0:0:0:0:
320,192,2051,1,0,0:0:0:0:
64,192,2451,128,0,2651:0:0:0:0:
448,192,2451,1,0,0:0:0:0:
192,192,2651,128,0,2751:0:0:0:0:
320,192,2751,128,0,3051:0:0:0:0:
448,192,2851,1,0,0:0:0:0:
64,192,2851,1,0,0:0:0:0:
64,192,3251,128,0,3451:0:0:0:0:
192,192,3251,1,0,0:0:0:0:
320,192,3651,1,0,0:0:0:0:
448,192,3651,1,0,0:0:0:0:
192,192,3851,128,0,4051:0:0:0:0:
64,192,4051,128,0,4251:0:0:0:0:
320,192,4051,1,0,0:0:0:0:
64,192,4451,128,0,4651:0:0:0:0:
448,192,4451,1,0,0:0:0:0:
320,192,4851,128,0,5051:0:0:0:0:
448,192,4851,1,0,0:0:0:0:
192,192,5051,128,0,5251:0:0:0:0:
64,192,5251,128,0,5451:0:0:0:0:
448,192,5251,1,0,0:0:0:0:
320,192,5651,128,0,5851:0:0:0:0:
448,192,5651,1,0,0:0:0:0:
192,192,5851,128,0,6051:0:0:0:0:
448,192,6051,128,0,6251:0:0:0:0:
64,192,6051,1,0,0:0:0:0:
320,192,6451,128,0,6651:0:0:0:0:
64,192,6451,1,0,0:0:0:0:
192,192,6651,128,0,6851:0:0:0:0:
64,192,6851,128,0,7051:0:0:0:0:
448,192,6851,1,0,0:0:0:0:
320,192,7251,128,0,7451:0:0:0:0:
448,192,7251,1,0,0:0:0:0:
192,192,7451,128,0,7651:0:0:0:0:
448,192,7651,128,0,7851:0:0:0:0:
64,192,7651,1,0,0:0:0:0:
320,192,7851,128,0,8051:0:0:0:0:
192,192,8051,1,0,0:0:0:0:
64,192,8051,1,0,0:0:0:0:
448,192,8251,128,0,8451:0:0:0:0:
192,192,8451,128,0,8651:0:0:0:0:
64,192,8451,1,0,0:0:0:0:
192,192,8851,128,0,9051:0:0:0:0:
448,192,8851,1,0,0:0:0:0:
320,192,9051,128,0,9151:0:0:0:0:
448,192,9151,128,0,9451:0:0:0:0:
192,192,9251,1,0,0:0:0:0:
64,192,9251,1,0,0:0:0:0:
64,192,9651,128,0,9851:0:0:0:0:
192,192,9651,1,0,0:0:0:0:
448,192,10051,128,0,10151:0:0:0:0:
320,192,10051,1,0,0:0:0:0:
192,192,10251,128,0,10451:0:0:0:0:
64,192,10451,128,0,10651:0:0:0:0:
320,192,10451,1,0,0:0:0:0:
64,192,10851,128,0,11051:0:0:0:0:
448,192,10851,1,0,0:0:0:0:
320,192,11251,128,0,11451:0:0:0:0:
448,192,11251,1,0,0:0:0:0:
192,192,11451,128,0,11651:0:0:0:0:
64,192,11651,128,0,11851:0:0:0:0:
448,192,11651,1,0,0:0:0:0:
320,192,12051,128,0,12251:0:0:0:0:
448,192,12051,1,0,0:0:0:0:
192,192,12251,128,0,12451:0:0:0:0:
448,192,12451,128,0,12651:0:0:0:0:
64,192,12451,1,0,0:0:0:0:
320,192,12851,128,0,13051:0:0:0:0:
64,192,12851,1,0,0:0:0:0:
192,192,13051,128,0,13251:0:0:0:0:
64,192,13251,128,0,13451:0:0:0:0:
448,192,13251,1,0,0:0:0:0:
320,192,13651,128,0,13851:0:0:0:0:
448,192,13651,1,0,0:0:0:0:
192,192,13851,128,0,14051:0:0:0:0:
320,192,14051,128,0,14251:0:0:0:0:
64,192,14051,1,0,0:0:0:0:
448,192,14251,128,0,14451:0:0:0:0:
192,192,14451,1,0,0:0:0:0:
64,192,14451,1,0,0:0:0:0:
320,192,14451,1,0,0:0:0:0:
192,192,17651,128,0,17851:0:0:0:0:
448,192,17651,128,0,18051:0:0:0:0:
192,192,18051,128,0,18251:0:0:0:0:
64,192,18251,128,0,18451:0:0:0:0:
448,192,18451,128,0,18551:0:0:0:0:
448,192,18651,1,0,0:0:0:0:
320,192,18751,128,0,18851:0:0:0:0:
320,192,18951,1,0,0:0:0:0:
192,192,19051,128,0,20051:0:0:0:0:
448,192,19251,128,0,19451:0:0:0:0:
448,192,19651,128,0,19851:0:0:0:0:
64,192,20051,128,0,20151:0:0:0:0:
64,192,20251,1,0,0:0:0:0:
64,192,20351,128,0,20451:0:0:0:0:
64,192,20551,1,0,0:0:0:0:
320,192,20651,128,0,20851:0:0:0:0:
448,192,20851,128,0,21251:0:0:0:0:
192,192,21251,128,0,21451:0:0:0:0:
448,192,21451,128,0,21651:0:0:0:0:
192,192,21651,128,0,21751:0:0:0:0:
192,192,21851,1,0,0:0:0:0:
320,192,21951,128,0,22051:0:0:0:0:
320,192,22151,1,0,0:0:0:0:
64,192,22251,128,0,23251:0:0:0:0:
320,192,22451,128,0,22651:0:0:0:0:
320,192,22851,128,0,23051:0:0:0:0:
192,192,23251,128,0,23351:0:0:0:0:
192,192,23451,1,0,0:0:0:0:
192,192,23551,128,0,23651:0:0:0:0:
192,192,23751,1,0,0:0:0:0:
448,192,23851,128,0,24051:0:0:0:0:
320,192,24051,128,0,24251:0:0:0:0:
64,192,24051,128,0,24851:0:0:0:0:
320,192,24451,128,0,24651:0:0:0:0:
448,192,24851,128,0,25051:0:0:0:0:
320,192,25051,1,0,0:0:0:0:
320,192,25151,128,0,25351:0:0:0:0:
192,192,25351,1,0,0:0:0:0:
192,192,25451,128,0,26451:0:0:0:0:
448,192,25651,128,0,25851:0:0:0:0:
448,192,26051,128,0,26251:0:0:0:0:
320,192,26451,128,0,26551:0:0:0:0:
320,192,26651,1,0,0:0:0:0:
320,192,26751,128,0,26851:0:0:0:0:
320,192,26951,1,0,0:0:0:0:
320,192,27051,128,0,27251:0:0:0:0:
448,192,27251,128,0,27651:0:0:0:0:
64,192,27651,128,0,27851:0:0:0:0:
448,192,27851,128,0,28051:0:0:0:0:
192,192,28051,128,0,28151:0:0:0:0:
192,192,28251,1,0,0:0:0:0:
192,192,28351,128,0,28451:0:0:0:0:
192,192,28551,1,0,0:0:0:0:
64,192,28651,128,0,28851:0:0:0:0:
320,192,28851,128,0,29651:0:0:0:0:
448,192,28851,128,0,29051:0:0:0:0:
448,192,29251,128,0,29451:0:0:0:0:
64,192,29651,128,0,29751:0:0:0:0:
64,192,29851,1,0,0:0:0:0:
64,192,29951,128,0,30051:0:0:0:0:
64,192,30151,1,0,0:0:0:0:
64,192,30251,128,0,30351:0:0:0:0:
192,192,30451,128,0,30651:0:0:0:0:
448,192,30451,128,0,30851:0:0:0:0:
320,192,30451,1,0,0:0:0:0:
192,192,30851,128,0,31051:0:0:0:0:
320,192,30851,1,0,0:0:0:0:
64,192,31051,128,0,31251:0:0:0:0:
448,192,31251,128,0,31351:0:0:0:0:
448,192,31451,1,0,0:0:0:0:
320,192,31551,128,0,31651:0:0:0:0:
64,192,31651,1,0,0:0:0:0:
192,192,31651,1,0,0:0:0:0:
320,192,31751,1,0,0:0:0:0:
192,192,31851,128,0,32851:0:0:0:0:
448,192,32051,128,0,32251:0:0:0:0:
448,192,32451,128,0,32651:0:0:0:0:
64,192,32451,1,0,0:0:0:0:
64,192,32851,128,0,32951:0:0:0:0:
64,192,33051,1,0,0:0:0:0:
64,192,33151,128,0,33251:0:0:0:0:
448,192,33251,1,0,0:0:0:0:
192,192,33251,1,0,0:0:0:0:
64,192,33351,1,0,0:0:0:0:
320,192,33451,128,0,33651:0:0:0:0:
448,192,33651,128,0,34051:0:0:0:0:
192,192,34051,128,0,34251:0:0:0:0:
64,192,34051,1,0,0:0:0:0:
448,192,34251,128,0,34451:0:0:0:0:
192,192,34451,128,0,34551:0:0:0:0:
192,192,34651,1,0,0:0:0:0:
320,192,34751,128,0,34851:0:0:0:0:
448,192,34851,1,0,0:0:0:0:
64,192,34851,1,0,0:0:0:0:
320,192,34951,1,0,0:0:0:0:
192,192,35051,128,0,36051:0:0:0:0:
64,192,35251,128,0,35451:0:0:0:0:
64,192,35651,128,0,35851:0:0:0:0:
320,192,35651,1,0,0:0:0:0:
448,192,36051,128,0,36151:0:0:0:0:
448,192,36251,1,0,0:0:0:0:
320,192,36351,128,0,36451:0:0:0:0:
64,192,36451,1,0,0:0:0:0:
192,192,36451,1,0,0:0:0:0:
320,192,36551,1,0,0:0:0:0:
192,192,36651,128,0,36851:0:0:0:0:
320,192,36851,128,0,37051:0:0:0:0:
64,192,36851,128,0,37651:0:0:0:0:
320,192,37251,128,0,37451:0:0:0:0:
448,192,37251,1,0,0:0:0:0:
448,192,37651,128,0,37851:0:0:0:0:
320,192,37851,1,0,0:0:0:0:
320,192,37951,128,0,38151:0:0:0:0:
64,192,38051,1,0,0:0:0:0:
448,192,38051,1,0,0:0:0:0:
192,192,38151,1,0,0:0:0:0:
192,192,38251,128,0,39251:0:0:0:0:
448,192,38451,128,0,38651:0:0:0:0:
448,192,38851,128,0,39051:0:0:0:0:
64,192,38851,1,0,0:0:0:0:
320,192,39251,128,0,39351:0:0:0:0:
320,192,39451,1,0,0:0:0:0:
320,192,39551,128,0,39651:0:0:0:0:
64,192,39651,1,0,0:0:0:0:
192,192,39651,1,0,0:0:0:0:
320,192,39751,1,0,0:0:0:0:
320,192,39851,128,0,40051:0:0:0:0:
448,192,40051,128,0,40451:0:0:0:0:
64,192,40451,128,0,40651:0:0:0:0:
192,192,40451,1,0,0:0:0:0:
448,192,40651,128,0,40851:0:0:0:0:
192,192,40851,128,0,40951:0:0:0:0:
192,192,41051,1,0,0:0:0:0:
192,192,41151,128,0,41251:0:0:0:0:
320,192,41251,1,0,0:0:0:0:
448,192,41251,1,0,0:0:0:0:
192,192,41351,1,0,0:0:0:0:
64,192,41451,128,0,41651:0:0:0:0:
320,192,41651,128,0,42451:0:0:0:0:
448,192,41651,128,0,41851:0:0:0:0:
448,192,42051,128,0,42251:0:0:0:0:
192,192,42051,1,0,0:0:0:0:
64,192,42451,128,0,42551:0:0:0:0:
64,192,42651,1,0,0:0:0:0:
192,192,42751,128,0,42851:0:0:0:0:
320,192,42851,1,0,0:0:0:0:
448,192,42851,1,0,0:0:0:0:
192,192,42951,1,0,0:0:0:0:
448,192,43051,128,0,43151:0:0:0:0:
320,192,43251,5,0,0:0:0:0:
192,192,43251,1,0,0:0:0:0:
64,192,43251,1,0,0:0:0:0:
448,192,43451,128,0,43651:0:0:0:0:
64,192,43651,128,0,43851:0:0:0:0:
320,192,43651,1,0,0:0:0:0:
192,192,43651,1,0,0:0:0:0:
64,192,44051,128,0,44251:0:0:0:0:
448,192,44051,1,0,0:0:0:0:
192,192,44251,128,0,44451:0:0:0:0:
64,192,44451,1,0,0:0:0:0:
320,192,44451,128,0,44851:0:0:0:0:
448,192,44451,1,0,0:0:0:0:
64,192,44851,128,0,45051:0:0:0:0:
192,192,44851,1,0,0:0:0:0:
320,192,45251,1,0,0:0:0:0:
448,192,45251,1,0,0:0:0:0:
64,192,45251,1,0,0:0:0:0:
192,192,45451,128,0,45651:0:0:0:0:
64,192,45651,128,0,45851:0:0:0:0:
320,192,45651,1,0,0:0:0:0:
64,192,46051,128,0,46251:0:0:0:0:
448,192,46051,1,0,0:0:0:0:
192,192,46051,1,0,0:0:0:0:
320,192,46451,128,0,46651:0:0:0:0:
448,192,46451,1,0,0:0:0:0:
192,192,46651,128,0,46851:0:0:0:0:
64,192,46851,128,0,47051:0:0:0:0:
448,192,46851,1,0,0:0:0:0:
320,192,46851,1,0,0:0:0:0:
320,192,47251,128,0,47451:0:0:0:0:
448,192,47251,1,0,0:0:0:0:
192,192,47451,128,0,47651:0:0:0:0:
448,192,47651,128,0,47851:0:0:0:0:
64,192,47651,1,0,0:0:0:0:
320,192,47651,1,0,0:0:0:0:
320,192,48051,128,0,48251:0:0:0:0:
64,192,48051,1,0,0:0:0:0:
192,192,48251,128,0,48451:0:0:0:0:
64,192,48451,128,0,48651:0:0:0:0:
448,192,48451,1,0,0:0:0:0:
320,192,48451,1,0,0:0:0:0:
320,192,48851,128,0,49051:0:0:0:0:
448,192,48851,1,0,0:0:0:0:
192,192,49051,128,0,49251:0:0:0:0:
448,192,49251,128,0,49451:0:0:0:0:
64,192,49251,1,0,0:0:0:0:
320,192,49251,1,0,0:0:0:0:
320,192,49451,128,0,49651:0:0:0:0:
192,192,49651,1,0,0:0:0:0:
64,192,49651,1,0,0:0:0:0:
320,192,49751,1,0,0:0:0:0:
448,192,49851,128,0,50051:0:0:0:0:
64,192,49951,1,0,0:0:0:0:
192,192,50051,128,0,50251:0:0:0:0:
320,192,50051,1,0,0:0:0:0:
448,192,50151,1,0,0:0:0:0:
64,192,50251,1,0,0:0:0:0:
320,192,50351,1,0,0:0:0:0:
192,192,50451,128,0,50651:0:0:0:0:
64,192,50451,1,0,0:0:0:0:
448,192,50551,1,0,0:0:0:0:
320,192,50651,128,0,50851:0:0:0:0:
64,192,50751,1,0,0:0:0:0:
192,192,50851,1,0,0:0:0:0:
448,192,50851,128,0,51251:0:0:0:0:
64,192,50951,1,0,0:0:0:0:
192,192,51051,1,0,0:0:0:0:
320,192,51151,1,0,0:0:0:0:
64,192,51251,128,0,51451:0:0:0:0:
192,192,51251,1,0,0:0:0:0:
320,192,51351,1,0,0:0:0:0:
448,192,51451,1,0,0:0:0:0:
192,192,51551,1,0,0:0:0:0:
448,192,51651,128,0,51751:0:0:0:0:
320,192,51651,1,0,0:0:0:0:
64,192,51751,1,0,0:0:0:0:
192,192,51851,128,0,52051:0:0:0:0:
448,192,51951,1,0,0:0:0:0:
64,192,52051,128,0,52251:0:0:0:0:
320,192,52051,1,0,0:0:0:0:
448,192,52151,1,0,0:0:0:0:
192,192,52251,1,0,0:0:0:0:
320,192,52351,1,0,0:0:0:0:
64,192,52451,128,0,52651:0:0:0:0:
448,192,52451,1,0,0:0:0:0:
320,192,52551,1,0,0:0:0:0:
192,192,52651,1,0,0:0:0:0:
64,192,52751,1,0,0:0:0:0:
320,192,52851,128,0,53051:0:0:0:0:
448,192,52851,1,0,0:0:0:0:
64,192,52951,1,0,0:0:0:0:
192,192,53051,128,0,53251:0:0:0:0:
448,192,53151,1,0,0:0:0:0:
64,192,53251,128,0,53451:0:0:0:0:
320,192,53251,1,0,0:0:0:0:
448,192,53351,5,0,0:0:0:0:
320,192,53451,1,0,0:0:0:0:
192,192,53551,1,0,0:0:0:0:
320,192,53651,128,0,53851:0:0:0:0:
448,192,53651,1,0,0:0:0:0:
64,192,53751,1,0,0:0:0:0:
192,192,53851,128,0,54051:0:0:0:0:
320,192,53951,1,0,0:0:0:0:
448,192,54051,128,0,54451:0:0:0:0:
64,192,54051,1,0,0:0:0:0:
320,192,54151,1,0,0:0:0:0:
192,192,54251,1,0,0:0:0:0:
64,192,54351,1,0,0:0:0:0:
320,192,54451,128,0,56051:0:0:0:0:
64,192,54451,1,0,0:0:0:0:
192,192,54451,1,0,0:0:0:0:
448,192,56051,128,0,56451:0:0:0:0:
192,192,56051,1,0,0:0:0:0:
64,192,56051,1,0,0:0:0:0:
320,192,56251,1,0,0:0:0:0:
192,192,56451,128,0,56651:0:0:0:0:
320,192,56451,1,0,0:0:0:0:
64,192,56451,1,0,0:0:0:0:
320,192,56651,128,0,57051:0:0:0:0:
192,192,56851,1,0,0:0:0:0:
448,192,56851,128,0,56951:0:0:0:0:
64,192,56851,1,0,0:0:0:0:
448,192,57051,128,0,57351:0:0:0:0:
320,192,57151,128,0,57251:0:0:0:0:
64,192,57251,1,0,0:0:0:0:
192,192,57251,1,0,0:0:0:0:
320,192,57351,128,0,57651:0:0:0:0:
192,192,57451,128,0,57651:0:0:0:0:
448,192,57651,128,0,57851:0:0:0:0:
64,192,57651,1,0,0:0:0:0:
64,192,57851,128,0,58051:0:0:0:0:
192,192,58051,1,0,0:0:0:0:
320,192,58051,1,0,0:0:0:0:
448,192,58051,1,0,0:0:0:0:
320,192,58251,128,0,58651:0:0:0:0:
192,192,58451,1,0,0:0:0:0:
448,192,58451,128,0,58551:0:0:0:0:
64,192,58451,1,0,0:0:0:0:
448,192,58651,128,0,58951:0:0:0:0:
320,192,58751,128,0,58851:0:0:0:0:
64,192,58851,1,0,0:0:0:0:
192,192,58851,1,0,0:0:0:0:
320,192,58951,128,0,59251:0:0:0:0:
192,192,59051,128,0,59251:0:0:0:0:
448,192,59251,128,0,59651:0:0:0:0:
64,192,59251,1,0,0:0:0:0:
192,192,59451,1,0,0:0:0:0:
192,192,59651,128,0,59851:0:0:0:0:
64,192,59651,1,0,0:0:0:0:
320,192,59651,1,0,0:0:0:0:
448,192,59851,128,0,60251:0:0:0:0:
192,192,60051,1,0,0:0:0:0:
64,192,60051,128,0,60151:0:0:0:0:
320,192,60051,1,0,0:0:0:0:
64,192,60251,128,0,60551:0:0:0:0:
448,192,60351,128,0,60451:0:0:0:0:
320,192,60451,1,0,0:0:0:0:
192,192,60451,1,0,0:0:0:0:
448,192,60551,128,0,60851:0:0:0:0:
192,192,60651,128,0,60851:0:0:0:0:
64,192,60851,128,0,61051:0:0:0:0:
320,192,60851,1,0,0:0:0:0:
448,192,61051,128,0,61251:0:0:0:0:
320,192,61251,1,0,0:0:0:0:
192,192,61251,1,0,0:0:0:0:
64,192,61251,1,0,0:0:0:0:
192,192,61451,128,0,61851:0:0:0:0:
448,192,61651,128,0,61751:0:0:0:0:
64,192,61651,1,0,0:0:0:0:
320,192,61651,1,0,0:0:0:0:
448,192,61851,128,0,62151:0:0:0:0:
192,192,61951,128,0,62051:0:0:0:0:
64,192,62051,1,0,0:0:0:0:
320,192,62051,1,0,0:0:0:0:
192,192,62151,128,0,62451:0:0:0:0:
320,192,62251,128,0,62451:0:0:0:0:
64,192,62451,1,0,0:0:0:0:
448,192,62451,128,0,62851:0:0:0:0:
192,192,62651,1,0,0:0:0:0:
320,192,62851,128,0,63051:0:0:0:0:
64,192,62851,1,0,0:0:0:0:
192,192,62851,1,0,0:0:0:0:
192,192,63051,128,0,63451:0:0:0:0:
320,192,63251,1,0,0:0:0:0:
64,192,63251,1,0,0:0:0:0:
448,192,63251,128,0,63651:0:0:0:0:
64,192,63451,1,0,0:0:0:0:
64,192,63551,128,0,63951:0:0:0:0:
320,192,63651,1,0,0:0:0:0:
192,192,63651,1,0,0:0:0:0:
448,192,63751,1,0,0:0:0:0:
448,192,63851,128,0,64051:0:0:0:0:
192,192,64051,128,0,64251:0:0:0:0:
320,192,64051,1,0,0:0:0:0:
64,192,64051,1,0,0:0:0:0:
448,192,64251,128,0,64451:0:0:0:0:
192,192,64451,1,0,0:0:0:0:
64,192,64451,1,0,0:0:0:0:
320,192,64451,1,0,0:0:0:0:
448,192,64651,128,0,65051:0:0:0:0:
192,192,64851,128,0,65251:0:0:0:0:
64,192,64851,1,0,0:0:0:0:
320,192,64851,1,0,0:0:0:0:
320,192,65051,1,0,0:0:0:0:
320,192,65151,128,0,65551:0:0:0:0:
448,192,65251,1,0,0:0:0:0:
64,192,65251,1,0,0:0:0:0:
192,192,65351,1,0,0:0:0:0:
192,192,65451,128,0,65651:0:0:0:0:
64,192,65651,128,0,66051:0:0:0:0:
448,192,65651,1,0,0:0:0:0:
320,192,65651,1,0,0:0:0:0:
192,192,65851,1,0,0:0:0:0:
448,192,66051,128,0,66251:0:0:0:0:
192,192,66051,1,0,0:0:0:0:
320,192,66051,1,0,0:0:0:0:
64,192,66251,128,0,66651:0:0:0:0:
320,192,66451,1,0,0:0:0:0:
192,192,66451,1,0,0:0:0:0:
448,192,66451,128,0,66851:0:0:0:0:
320,192,66651,1,0,0:0:0:0:
320,192,66751,128,0,67151:0:0:0:0:
64,192,66851,1,0,0:0:0:0:
192,192,66851,1,0,0:0:0:0:
448,192,66951,1,0,0:0:0:0:
448,192,67051,128,0,67251:0:0:0:0:
192,192,67251,128,0,67451:0:0:0:0:
320,192,67251,1,0,0:0:0:0:
64,192,67251,1,0,0:0:0:0:
448,192,67351,1,0,0:0:0:0:
64,192,67451,128,0,67651:0:0:0:0:
192,192,67551,1,0,0:0:0:0:
320,192,67651,1,0,0:0:0:0:
448,192,67651,1,0,0:0:0:0:
64,192,67751,1,0,0:0:0:0:
192,192,67851,128,0,68151:0:0:0:0:
448,192,67951,1,0,0:0:0:0:
320,192,68051,128,0,68451:0:0:0:0:
64,192,68051,1,0,0:0:0:0:
448,192,68151,1,0,0:0:0:0:
192,192,68251,1,0,0:0:0:0:
192,192,68351,128,0,68751:0:0:0:0:
64,192,68451,1,0,0:0:0:0:
448,192,68451,1,0,0:0:0:0:
320,192,68551,1,0,0:0:0:0:
320,192,68651,128,0,68851:0:0:0:0:
64,192,68751,1,0,0:0:0:0:
64,192,68851,1,0,0:0:0:0:
448,192,68851,128,0,69251:0:0:0:0:
192,192,68851,1,0,0:0:0:0:
320,192,69051,1,0,0:0:0:0:
320,192,69251,128,0,69451:0:0:0:0:
64,192,69251,1,0,0:0:0:0:
192,192,69251,1,0,0:0:0:0:
64,192,69451,128,0,69851:0:0:0:0:
192,192,69651,128,0,69751:0:0:0:0:
320,192,69651,1,0,0:0:0:0:
448,192,69651,1,0,0:0:0:0:
192,192,69851,128,0,70151:0:0:0:0:
448,192,69951,128,0,70051:0:0:0:0:
64,192,70051,1,0,0:0:0:0:
320,192,70051,1,0,0:0:0:0:
448,192,70151,128,0,70451:0:0:0:0:
192,192,70251,128,0,70451:0:0:0:0:
320,192,70451,128,0,70651:0:0:0:0:
64,192,70451,1,0,0:0:0:0:
64,192,70651,128,0,70851:0:0:0:0:
192,192,70851,1,0,0:0:0:0:
320,192,70851,1,0,0:0:0:0:
448,192,70851,1,0,0:0:0:0:
64,192,71051,128,0,71451:0:0:0:0:
192,192,71251,128,0,71351:0:0:0:0:
448,192,71251,1,0,0:0:0:0:
320,192,71251,1,0,0:0:0:0:
192,192,71451,128,0,71751:0:0:0:0:
448,192,71551,128,0,71651:0:0:0:0:
64,192,71651,1,0,0:0:0:0:
320,192,71651,1,0,0:0:0:0:
448,192,71751,128,0,72051:0:0:0:0:
192,192,71851,128,0,72051:0:0:0:0:
64,192,72051,1,0,0:0:0:0:
320,192,72051,128,0,72451:0:0:0:0:
192,192,72251,1,0,0:0:0:0:
64,192,72451,128,0,72651:0:0:0:0:
192,192,72451,1,0,0:0:0:0:
448,192,72451,1,0,0:0:0:0:
320,192,72651,128,0,73051:0:0:0:0:
448,192,72851,128,0,72951:0:0:0:0:
192,192,72851,1,0,0:0:0:0:
64,192,72851,1,0,0:0:0:0:
448,192,73051,128,0,73351:0:0:0:0:
320,192,73151,128,0,73251:0:0:0:0:
64,192,73251,1,0,0:0:0:0:
192,192,73251,1,0,0:0:0:0:
320,192,73351,128,0,73651:0:0:0:0:
192,192,73451,128,0,73651:0:0:0:0:
448,192,73651,1,0,0:0:0:0:
64,192,73651,128,0,73851:0:0:0:0:
448,192,73851,128,0,74051:0:0:0:0:
320,192,74051,1,0,0:0:0:0:
192,192,74051,1,0,0:0:0:0:
64,192,74051,1,0,0:0:0:0:
192,192,74251,128,0,74651:0:0:0:0:
320,192,74451,128,0,74551:0:0:0:0:
64,192,74451,1,0,0:0:0:0:
448,192,74451,1,0,0:0:0:0:
320,192,74651,128,0,74951:0:0:0:0:
192,192,74751,128,0,74851:0:0:0:0:
448,192,74851,1,0,0:0:0:0:
64,192,74851,1,0,0:0:0:0:
192,192,74951,128,0,75251:0:0:0:0:
64,192,75051,128,0,75251:0:0:0:0:
320,192,75251,1,0,0:0:0:0:
448,192,75251,128,0,75651:0:0:0:0:
192,192,75451,1,0,0:0:0:0:
192,192,75651,128,0,75851:0:0:0:0:
64,192,75651,1,0,0:0:0:0:
320,192,75651,1,0,0:0:0:0:
320,192,75851,128,0,76251:0:0:0:0:
64,192,76051,128,0,76451:0:0:0:0:
192,192,76051,1,0,0:0:0:0:
448,192,76051,1,0,0:0:0:0:
448,192,76251,1,0,0:0:0:0:
448,192,76351,128,0,76851:0:0:0:0:
320,192,76451,1,0,0:0:0:0:
192,192,76451,1,0,0:0:0:0:
64,192,76551,1,0,0:0:0:0:
64,192,76651,128,0,76851:0:0:0:0:
192,192,76851,128,0,77051:0:0:0:0:
320,192,76851,1,0,0:0:0:0:
320,192,77051,128,0,77251:0:0:0:0:
64,192,77251,1,0,0:0:0:0:
192,192,77251,1,0,0:0:0:0:
448,192,77251,1,0,0:0:0:0:
448,192,77451,128,0,77851:0:0:0:0:
192,192,77651,128,0,78051:0:0:0:0:
64,192,77651,1,0,0:0:0:0:
320,192,77651,1,0,0:0:0:0:
320,192,77851,1,0,0:0:0:0:
320,192,77951,128,0,78451:0:0:0:0:
448,192,78051,1,0,0:0:0:0:
64,192,78051,1,0,0:0:0:0:
192,192,78151,1,0,0:0:0:0:
192,192,78251,128,0,78451:0:0:0:0:
64,192,78451,128,0,78851:0:0:0:0:
448,192,78451,1,0,0:0:0:0:
320,192,78651,1,0,0:0:0:0:
320,192,78851,128,0,79051:0:0:0:0:
192,192,78851,1,0,0:0:0:0:
448,192,78851,1,0,0:0:0:0:
448,192,79051,128,0,79451:0:0:0:0:
192,192,79251,128,0,79651:0:0:0:0:
64,192,79251,1,0,0:0:0:0:
320,192,79251,1,0,0:0:0:0:
64,192,79451,1,0,0:0:0:0:
64,192,79551,128,0,80051:0:0:0:0:
320,192,79651,1,0,0:0:0:0:
448,192,79651,1,0,0:0:0:0:
192,192,79751,1,0,0:0:0:0:
192,192,79851,128,0,80051:0:0:0:0:
448,192,80051,128,0,80251:0:0:0:0:
320,192,80051,1,0,0:0:0:0:
192,192,80151,1,0,0:0:0:0:
64,192,80251,128,0,80451:0:0:0:0:
320,192,80351,1,0,0:0:0:0:
192,192,80451,1,0,0:0:0:0:
448,192,80451,1,0,0:0:0:0:
64,192,80551,1,0,0:0:0:0:
192,192,80651,128,0,80951:0:0:0:0:
448,192,80751,1,0,0:0:0:0:
320,192,80851,128,0,81251:0:0:0:0:
64,192,80851,1,0,0:0:0:0:
448,192,80951,1,0,0:0:0:0:
192,192,81051,1,0,0:0:0:0:
192,192,81151,128,0,81551:0:0:0:0:
64,192,81251,1,0,0:0:0:0:
448,192,81251,1,0,0:0:0:0:
320,192,81351,1,0,0:0:0:0:
320,192,81451,128,0,81651:0:0:0:0:
64,192,81551,1,0,0:0:0:0:
192,192,81651,1,0,0:0:0:0:
64,192,81651,1,0,0:0:0:0:
448,192,81651,128,0,81851:0:0:0:0:
192,192,81851,1,0,0:0:0:0:
448,192,82051,128,0,82251:0:0:0:0:
320,192,82051,1,0,0:0:0:0:
64,192,82051,1,0,0:0:0:0:
64,192,82251,1,0,0:0:0:0:
448,192,82451,128,0,82651:0:0:0:0:
320,192,82451,1,0,0:0:0:0:
192,192,82651,1,0,0:0:0:0:
448,192,82851,128,0,83051:0:0:0:0:
320,192,82851,1,0,0:0:0:0:
64,192,82851,1,0,0:0:0:0:
192,192,83051,128,0,83251:0:0:0:0:
64,192,83251,128,0,83451:0:0:0:0:
320,192,83251,1,0,0:0:0:0:
320,192,83451,1,0,0:0:0:0:
64,192,83651,128,0,83851:0:0:0:0:
192,192,83651,1,0,0:0:0:0:
448,192,83651,1,0,0:0:0:0:
448,192,83851,1,0,0:0:0:0:
64,192,84051,128,0,84251:0:0:0:0:
320,192,84051,1,0,0:0:0:0:
448,192,84251,128,0,84451:0:0:0:0:
320,192,84451,128,0,84651:0:0:0:0:
192,192,84451,1,0,0:0:0:0:
64,192,84451,1,0,0:0:0:0:
64,192,84651,128,0,85251:0:0:0:0:
448,192,84851,128,0,85051:0:0:0:0:
192,192,84851,1,0,0:0:0:0:
320,192,85051,1,0,0:0:0:0:
448,192,85251,128,0,85451:0:0:0:0:
320,192,85251,1,0,0:0:0:0:
192,192,85251,1,0,0:0:0:0:
192,192,85451,1,0,0:0:0:0:
448,192,85651,128,0,85851:0:0:0:0:
64,192,85651,1,0,0:0:0:0:
64,192,85851,1,0,0:0:0:0:
448,192,86051,128,0,86251:0:0:0:0:
192,192,86051,1,0,0:0:0:0:
320,192,86051,1,0,0:0:0:0:
64,192,86251,1,0,0:0:0:0:
320,192,86451,128,0,86651:0:0:0:0:
192,192,86451,1,0,0:0:0:0:
64,192,86651,1,0,0:0:0:0:
320,192,86851,128,0,87051:0:0:0:0:
448,192,86851,1,0,0:0:0:0:
192,192,86851,1,0,0:0:0:0:
192,192,87051,1,0,0:0:0:0:
320,192,87251,128,0,87451:0:0:0:0:
448,192,87251,1,0,0:0:0:0:
64,192,87451,128,0,87651:0:0:0:0:
320,192,87651,128,0,87851:0:0:0:0:
192,192,87651,1,0,0:0:0:0:
448,192,87651,1,0,0:0:0:0:
448,192,87851,128,0,88451:0:0:0:0:
192,192,88051,128,0,88251:0:0:0:0:
64,192,88051,1,0,0:0:0:0:
320,192,88251,1,0,0:0:0:0:
192,192,88451,128,0,88651:0:0:0:0:
320,192,88451,1,0,0:0:0:0:
64,192,88451,1,0,0:0:0:0:
448,192,88651,1,0,0:0:0:0:
192,192,88851,128,0,89051:0:0:0:0:
64,192,88851,1,0,0:0:0:0:
320,192,89051,1,0,0:0:0:0:
192,192,89251,128,0,89451:0:0:0:0:
64,192,89251,1,0,0:0:0:0:
320,192,89251,1,0,0:0:0:0:
448,192,89451,1,0,0:0:0:0:
64,192,89651,128,0,89851:0:0:0:0:
320,192,89651,1,0,0:0:0:0:
320,192,89851,1,0,0:0:0:0:
64,192,90051,128,0,90251:0:0:0:0:
192,192,90051,1,0,0:0:0:0:
448,192,90051,1,0,0:0:0:0:
448,192,90251,1,0,0:0:0:0:
64,192,90451,128,0,90651:0:0:0:0:
320,192,90451,1,0,0:0:0:0:
448,192,90651,128,0,90851:0:0:0:0:
320,192,90851,128,0,91051:0:0:0:0:
192,192,90851,1,0,0:0:0:0:
64,192,90851,1,0,0:0:0:0:
192,192,91051,128,0,91651:0:0:0:0:
448,192,91251,128,0,91451:0:0:0:0:
64,192,91251,1,0,0:0:0:0:
320,192,91451,1,0,0:0:0:0:
448,192,91651,128,0,91851:0:0:0:0:
320,192,91651,1,0,0:0:0:0:
64,192,91651,1,0,0:0:0:0:
192,192,91851,1,0,0:0:0:0:
448,192,92051,128,0,92251:0:0:0:0:
192,192,92051,1,0,0:0:0:0:
64,192,92251,1,0,0:0:0:0:
448,192,92451,128,0,92651:0:0:0:0:
320,192,92451,1,0,0:0:0:0:
192,192,92451,1,0,0:0:0:0:
64,192,92651,1,0,0:0:0:0:
320,192,92851,128,0,93051:0:0:0:0:
192,192,92851,1,0,0:0:0:0:
64,192,93051,1,0,0:0:0:0:
320,192,93251,128,0,93451:0:0:0:0:
448,192,93251,1,0,0:0:0:0:
64,192,93251,1,0,0:0:0:0:
192,192,93451,1,0,0:0:0:0:
320,192,93651,128,0,93851:0:0:0:0:
192,192,93651,1,0,0:0:0:0:
64,192,93851,128,0,94051:0:0:0:0:
192,192,94051,128,0,94251:0:0:0:0:
320,192,94051,1,0,0:0:0:0:
448,192,94051,1,0,0:0:0:0:
448,192,94251,128,0,94851:0:0:0:0:
64,192,94451,128,0,94651:0:0:0:0:
320,192,94451,1,0,0:0:0:0:
192,192,94451,1,0,0:0:0:0:
64,192,94851,128,0,95051:0:0:0:0:
320,192,94851,1,0,0:0:0:0:
64,192,95251,128,0,95451:0:0:0:0:
448,192,95451,1,0,0:0:0:0:
448,192,95551,128,0,95751:0:0:0:0:
64,192,95651,128,0,95851:0:0:0:0:
192,192,95651,1,0,0:0:0:0:
320,192,95751,1,0,0:0:0:0:
320,192,95851,128,0,96051:0:0:0:0:
192,192,96051,128,0,96251:0:0:0:0:
192,192,96451,128,0,96651:0:0:0:0:
448,192,96451,1,0,0:0:0:0:
192,192,96851,128,0,97051:0:0:0:0:
448,192,97051,128,0,97251:0:0:0:0:
192,192,97251,128,0,97451:0:0:0:0:
320,192,97251,1,0,0:0:0:0:
64,192,97451,128,0,98051:0:0:0:0:
320,192,97651,128,0,97851:0:0:0:0:
320,192,98051,128,0,98251:0:0:0:0:
448,192,98051,1,0,0:0:0:0:
320,192,98451,128,0,98651:0:0:0:0:
64,192,98651,1,0,0:0:0:0:
64,192,98751,128,0,98951:0:0:0:0:
320,192,98851,128,0,99051:0:0:0:0:
448,192,98851,1,0,0:0:0:0:
192,192,98951,1,0,0:0:0:0:
192,192,99051,128,0,99251:0:0:0:0:
448,192,99251,128,0,99451:0:0:0:0:
448,192,99651,128,0,99851:0:0:0:0:
64,192,99651,1,0,0:0:0:0:
448,192,100051,128,0,100251:0:0:0:0:
64,192,100251,128,0,100451:0:0:0:0:
320,192,100451,128,0,100651:0:0:0:0:
192,192,100451,1,0,0:0:0:0:
448,192,100651,128,0,101251:0:0:0:0:
192,192,100851,128,0,101051:0:0:0:0:
192,192,101251,128,0,101451:0:0:0:0:
64,192,101251,1,0,0:0:0:0:
192,192,101651,128,0,101851:0:0:0:0:
448,192,101851,1,0,0:0:0:0:
448,192,101951,128,0,102151:0:0:0:0:
192,192,102051,128,0,102251:0:0:0:0:
64,192,102051,1,0,0:0:0:0:
320,192,102151,1,0,0:0:0:0:
320,192,102251,128,0,102451:0:0:0:0:
64,192,102451,128,0,102651:0:0:0:0:
64,192,102851,128,0,103051:0:0:0:0:
448,192,102851,1,0,0:0:0:0:
64,192,103251,128,0,103451:0:0:0:0:
448,192,103451,128,0,103651:0:0:0:0:
320,192,103651,128,0,103851:0:0:0:0:
64,192,103651,1,0,0:0:0:0:
192,192,103851,128,0,104451:0:0:0:0:
448,192,104051,128,0,104251:0:0:0:0:
448,192,104451,128,0,104651:0:0:0:0:
320,192,104451,1,0,0:0:0:0:
448,192,104851,128,0,105051:0:0:0:0:
64,192,105051,1,0,0:0:0:0:
64,192,105151,128,0,105351:0:0:0:0:
448,192,105251,128,0,105451:0:0:0:0:
320,192,105251,1,0,0:0:0:0:
192,192,105351,1,0,0:0:0:0:
192,192,105451,128,0,105651:0:0:0:0:
320,192,105651,128,0,105851:0:0:0:0:
320,192,106051,128,0,106251:0:0:0:0:
64,192,106051,1,0,0:0:0:0:
320,192,106451,128,0,106651:0:0:0:0:
64,192,106651,128,0,106851:0:0:0:0:
320,192,106851,128,0,107051:0:0:0:0:
192,192,106851,1,0,0:0:0:0:
448,192,107051,128,0,107651:0:0:0:0:
64,192,107251,128,0,107451:0:0:0:0:
192,192,107251,128,0,107451:0:0:0:0:
64,192,107651,128,0,107851:0:0:0:0:
192,192,107651,128,0,107851:0:0:0:0:
64,192,108051,1,0,0:0:0:0:
192,192,108051,1,0,0:0:0:0:
64,192,108251,1,0,0:0:0:0:
448,192,108251,1,0,0:0:0:0:
320,192,108251,1,0,0:0:0:0:
320,192,108351,128,0,108451:0:0:0:0:
448,192,108351,128,0,108451:0:0:0:0:
320,192,108551,1,0,0:0:0:0:
64,192,108551,1,0,0:0:0:0:
448,192,108551,1,0,0:0:0:0:
320,192,108651,128,0,108851:0:0:0:0:
448,192,108651,128,0,108851:0:0:0:0:
192,192,108851,128,0,109051:0:0:0:0:
64,192,108851,128,0,109051:0:0:0:0:
192,192,109251,128,0,109451:0:0:0:0:
64,192,109251,128,0,109451:0:0:0:0:
64,192,109651,1,0,0:0:0:0:
192,192,109651,1,0,0:0:0:0:
64,192,109851,1,0,0:0:0:0:
320,192,109851,1,0,0:0:0:0:
448,192,109851,1,0,0:0:0:0:
64,192,109951,128,0,110051:0:0:0:0:
320,192,109951,128,0,110051:0:0:0:0:
320,192,110151,1,0,0:0:0:0:
64,192,110151,1,0,0:0:0:0:
448,192,110151,1,0,0:0:0:0:
64,192,110251,128,0,110851:0:0:0:0:
320,192,110251,128,0,110451:0:0:0:0:
448,192,110451,128,0,110651:0:0:0:0:
192,192,110451,128,0,110651:0:0:0:0:
192,192,110851,128,0,111051:0:0:0:0:
448,192,110851,128,0,111051:0:0:0:0:
448,192,111251,1,0,0:0:0:0:
192,192,111251,1,0,0:0:0:0:
64,192,111451,1,0,0:0:0:0:
320,192,111451,1,0,0:0:0:0:
448,192,111451,1,0,0:0:0:0:
448,192,111551,128,0,111651:0:0:0:0:
64,192,111551,128,0,111651:0:0:0:0:
64,192,111751,1,0,0:0:0:0:
448,192,111751,1,0,0:0:0:0:
192,192,111751,1,0,0:0:0:0:
64,192,111851,128,0,112051:0:0:0:0:
448,192,111851,128,0,112051:0:0:0:0:
192,192,112051,128,0,112251:0:0:0:0:
320,192,112051,128,0,112251:0:0:0:0:
192,192,112451,128,0,112651:0:0:0:0:
320,192,112451,128,0,112651:0:0:0:0:
320,192,112851,1,0,0:0:0:0:
192,192,112851,1,0,0:0:0:0:
64,192,113051,1,0,0:0:0:0:
192,192,113051,1,0,0:0:0:0:
448,192,113051,1,0,0:0:0:0:
192,192,113151,128,0,113251:0:0:0:0:
448,192,113151,128,0,113251:0:0:0:0:
64,192,113351,1,0,0:0:0:0:
192,192,113351,1,0,0:0:0:0:
448,192,113351,1,0,0:0:0:0:
448,192,113451,128,0,114051:0:0:0:0:
192,192,113451,128,0,113651:0:0:0:0:
320,192,113651,128,0,113851:0:0:0:0:
64,192,113651,128,0,113851:0:0:0:0:
64,192,114051,128,0,114251:0:0:0:0:
320,192,114051,128,0,114251:0:0:0:0:
320,192,114451,1,0,0:0:0:0:
64,192,114451,1,0,0:0:0:0:
192,192,114651,1,0,0:0:0:0:
64,192,114651,1,0,0:0:0:0:
448,192,114651,1,0,0:0:0:0:
64,192,114751,128,0,114851:0:0:0:0:
448,192,114751,128,0,114851:0:0:0:0:
448,192,114951,1,0,0:0:0:0:
320,192,114951,1,0,0:0:0:0:
64,192,114951,1,0,0:0:0:0:
64,192,115051,128,0,115251:0:0:0:0:
448,192,115051,128,0,115251:0:0:0:0:
192,192,115251,128,0,115451:0:0:0:0:
320,192,115251,128,0,115451:0:0:0:0:
192,192,115651,128,0,115851:0:0:0:0:
320,192,115651,128,0,115851:0:0:0:0:
192,192,116051,1,0,0:0:0:0:
320,192,116051,1,0,0:0:0:0:
192,192,116251,1,0,0:0:0:0:
64,192,116251,1,0,0:0:0:0:
448,192,116251,1,0,0:0:0:0:
64,192,116351,128,0,116451:0:0:0:0:
192,192,116351,128,0,116451:0:0:0:0:
64,192,116551,1,0,0:0:0:0:
192,192,116551,1,0,0:0:0:0:
448,192,116551,1,0,0:0:0:0:
192,192,116651,128,0,116851:0:0:0:0:
64,192,116651,128,0,117251:0:0:0:0:
320,192,116851,128,0,117051:0:0:0:0:
448,192,116851,128,0,117051:0:0:0:0:
448,192,117251,128,0,117451:0:0:0:0:
320,192,117251,128,0,117451:0:0:0:0:
320,192,117651,1,0,0:0:0:0:
448,192,117651,1,0,0:0:0:0:
64,192,117851,1,0,0:0:0:0:
320,192,117851,1,0,0:0:0:0:
448,192,117851,1,0,0:0:0:0:
320,192,117951,128,0,118051:0:0:0:0:
448,192,117951,128,0,118051:0:0:0:0:
64,192,118151,1,0,0:0:0:0:
320,192,118151,1,0,0:0:0:0:
448,192,118151,1,0,0:0:0:0:
320,192,118251,128,0,118351:0:0:0:0:
448,192,118251,128,0,118351:0:0:0:0:
192,192,118451,128,0,118651:0:0:0:0:
192,192,118851,128,0,119051:0:0:0:0:
192,192,119251,128,0,119451:0:0:0:0:
64,192,119451,128,0,119651:0:0:0:0:
320,192,119651,128,0,119851:0:0:0:0:
448,192,119851,128,0,120451:0:0:0:0:
192,192,120051,1,0,0:0:0:0:
64,192,120051,1,0,0:0:0:0:
192,192,121651,1,0,0:0:0:0:
448,192,122651,128,0,122851:0:0:0:0:
320,192,122851,128,0,123051:0:0:0:0:
192,192,123051,128,0,123251:0:0:0:0:
448,192,123251,1,0,0:0:0:0:
192,192,124851,1,0,0:0:0:0:
64,192,125851,128,0,126051:0:0:0:0:
320,192,126051,128,0,126251:0:0:0:0:
448,192,126251,128,0,126451:0:0:0:0:
192,192,126451,1,0,0:0:0:0:
64,192,128051,1,0,0:0:0:0:
448,192,129051,128,0,129251:0:0:0:0:
320,192,129251,128,0,129451:0:0:0:0:
64,192,129451,128,0,129651:0:0:0:0:
448,192,129651,1,0,0:0:0:0:
320,192,131251,1,0,0:0:0:0:
64,192,132251,128,0,132451:0:0:0:0:
320,192,132451,128,0,132651:0:0:0:0:
448,192,132651,128,0,132851:0:0:0:0:
192,192,132851,1,0,0:0:0:0:
64,192,132851,1,0,0:0:0:0:
448,192,133051,128,0,133251:0:0:0:0:
64,192,133251,128,0,133451:0:0:0:0:
320,192,133251,1,0,0:0:0:0:
64,192,133651,128,0,133851:0:0:0:0:
192,192,133851,128,0,134051:0:0:0:0:
320,192,134051,128,0,134251:0:0:0:0:
448,192,134051,1,0,0:0:0:0:
64,192,134451,128,0,134651:0:0:0:0:
448,192,134851,128,0,134951:0:0:0:0:
320,192,134851,1,0,0:0:0:0:
192,192,135051,128,0,135251:0:0:0:0:
64,192,135251,128,0,135451:0:0:0:0:
64,192,135651,128,0,135851:0:0:0:0:
448,192,135651,1,0,0:0:0:0:
320,192,136051,128,0,136251:0:0:0:0:
192,192,136251,128,0,136451:0:0:0:0:
64,192,136451,128,0,136651:0:0:0:0:
448,192,136451,1,0,0:0:0:0:
320,192,136851,128,0,137051:0:0:0:0:
192,192,137051,128,0,137251:0:0:0:0:
448,192,137251,128,0,137451:0:0:0:0:
64,192,137251,1,0,0:0:0:0:
320,192,137651,128,0,137851:0:0:0:0:
192,192,137851,128,0,138051:0:0:0:0:
64,192,138051,128,0,138251:0:0:0:0:
448,192,138051,1,0,0:0:0:0:
320,192,138451,128,0,138651:0:0:0:0:
192,192,138651,128,0,138851:0:0:0:0:
320,192,138851,128,0,139051:0:0:0:0:
64,192,138851,1,0,0:0:0:0:
448,192,139051,128,0,139251:0:0:0:0:
192,192,139251,1,0,0:0:0:0:
448,192,139451,128,0,139651:0:0:0:0:
64,192,139651,128,0,139851:0:0:0:0:
320,192,139651,1,0,0:0:0:0:
64,192,140051,128,0,140251:0:0:0:0:
192,192,140251,128,0,140451:0:0:0:0:
320,192,140451,128,0,140651:0:0:0:0:
448,192,140451,1,0,0:0:0:0:
64,192,140851,128,0,141051:0:0:0:0:
448,192,141251,128,0,141351:0:0:0:0:
320,192,141251,1,0,0:0:0:0:
192,192,141451,128,0,141651:0:0:0:0:
64,192,141651,128,0,141851:0:0:0:0:
64,192,142051,128,0,142251:0:0:0:0:
448,192,142051,1,0,0:0:0:0:
320,192,142451,128,0,142651:0:0:0:0:
192,192,142651,128,0,142851:0:0:0:0:
64,192,142851,128,0,143051:0:0:0:0:
448,192,142851,1,0,0:0:0:0:
320,192,143251,128,0,143451:0:0:0:0:
192,192,143451,128,0,143651:0:0:0:0:
448,192,143651,128,0,143851:0:0:0:0:
64,192,143651,1,0,0:0:0:0:
320,192,144051,128,0,144251:0:0:0:0:
192,192,144251,128,0,144451:0:0:0:0:
64,192,144451,128,0,144651:0:0:0:0:
448,192,144451,1,0,0:0:0:0:
320,192,144851,128,0,145051:0:0:0:0:
192,192,145051,128,0,145251:0:0:0:0:
320,192,145251,128,0,145451:0:0:0:0:
64,192,145251,1,0,0:0:0:0:
448,192,145451,128,0,145651:0:0:0:0:
192,192,145651,1,0,0:0:0:0:
64,192,145651,1,0,0:0:0:0:
320,192,145751,1,0,0:0:0:0:
192,192,145851,1,0,0:0:0:0:
320,192,145951,1,0,0:0:0:0:
64,192,146051,1,0,0:0:0:0:
448,192,146051,1,0,0:0:0:0:
192,192,146151,1,0,0:0:0:0:
448,192,146251,1,0,0:0:0:0:
64,192,146351,1,0,0:0:0:0:
320,192,146451,1,0,0:0:0:0:
192,192,146451,1,0,0:0:0:0:
64,192,146551,1,0,0:0:0:0:
448,192,146651,1,0,0:0:0:0:
192,192,146751,1,0,0:0:0:0:
64,192,146851,1,0,0:0:0:0:
448,192,146851,1,0,0:0:0:0:
320,192,146951,1,0,0:0:0:0:
64,192,147051,1,0,0:0:0:0:
192,192,147151,1,0,0:0:0:0:
320,192,147251,1,0,0:0:0:0:
448,192,147251,1,0,0:0:0:0:
64,192,147351,1,0,0:0:0:0:
320,192,147451,1,0,0:0:0:0:
192,192,147551,1,0,0:0:0:0:
64,192,147651,1,0,0:0:0:0:
448,192,147651,1,0,0:0:0:0:
320,192,147751,1,0,0:0:0:0:
64,192,147851,1,0,0:0:0:0:
320,192,147951,1,0,0:0:0:0:
192,192,148051,1,0,0:0:0:0:
448,192,148051,1,0,0:0:0:0:
64,192,148151,1,0,0:0:0:0:
192,192,148251,1,0,0:0:0:0:
320,192,148351,1,0,0:0:0:0:
64,192,148451,1,0,0:0:0:0:
448,192,148451,1,0,0:0:0:0:
192,192,148551,1,0,0:0:0:0:
448,192,148651,1,0,0:0:0:0:
192,192,148751,1,0,0:0:0:0:
320,192,148851,1,0,0:0:0:0:
64,192,148851,1,0,0:0:0:0:
448,192,148951,1,0,0:0:0:0:
320,192,149051,1,0,0:0:0:0:
192,192,149151,1,0,0:0:0:0:
64,192,149251,1,0,0:0:0:0:
448,192,149251,1,0,0:0:0:0:
320,192,149351,1,0,0:0:0:0:
64,192,149451,1,0,0:0:0:0:
320,192,149551,1,0,0:0:0:0:
192,192,149651,1,0,0:0:0:0:
448,192,149651,1,0,0:0:0:0:
64,192,149751,1,0,0:0:0:0:
448,192,149851,1,0,0:0:0:0:
320,192,149951,1,0,0:0:0:0:
192,192,150051,1,0,0:0:0:0:
64,192,150051,1,0,0:0:0:0:
448,192,150151,1,0,0:0:0:0:
192,192,150251,1,0,0:0:0:0:
64,192,150351,1,0,0:0:0:0:
320,192,150451,1,0,0:0:0:0:
448,192,150451,1,0,0:0:0:0:
192,192,150551,1,0,0:0:0:0:
320,192,150651,1,0,0:0:0:0:
192,192,150751,1,0,0:0:0:0:
64,192,150851,1,0,0:0:0:0:
448,192,150851,1,0,0:0:0:0:
320,192,150951,1,0,0:0:0:0:
448,192,151051,1,0,0:0:0:0:
320,192,151151,1,0,0:0:0:0:
192,192,151251,1,0,0:0:0:0:
64,192,151251,1,0,0:0:0:0:
448,192,151351,1,0,0:0:0:0:
192,192,151451,1,0,0:0:0:0:
448,192,151551,1,0,0:0:0:0:
64,192,151651,1,0,0:0:0:0:
320,192,151651,1,0,0:0:0:0:
448,192,151751,1,0,0:0:0:0:
64,192,151851,1,0,0:0:0:0:
320,192,151951,1,0,0:0:0:0:
448,192,152051,1,0,0:0:0:0:
192,192,152051,1,0,0:0:0:0:
64,192,152151,1,0,0:0:0:0:
320,192,152251,1,0,0:0:0:0:
192,192,152351,1,0,0:0:0:0:
448,192,152451,1,0,0:0:0:0:
64,192,152451,1,0,0:0:0:0:
320,192,152551,1,0,0:0:0:0:
192,192,152651,1,0,0:0:0:0:
448,192,152751,1,0,0:0:0:0:
320,192,152851,1,0,0:0:0:0:
64,192,152851,1,0,0:0:0:0:
192,192,152951,1,0,0:0:0:0:
448,192,153051,1,0,0:0:0:0:
320,192,153151,1,0,0:0:0:0:
64,192,153251,1,0,0:0:0:0:
192,192,153251,1,0,0:0:0:0:
320,192,153351,1,0,0:0:0:0:
448,192,153451,1,0,0:0:0:0:
64,192,153551,1,0,0:0:0:0:
192,192,153651,1,0,0:0:0:0:
320,192,153651,1,0,0:0:0:0:
448,192,153751,1,0,0:0:0:0:
64,192,153851,1,0,0:0:0:0:
192,192,153951,1,0,0:0:0:0:
320,192,154051,1,0,0:0:0:0:
448,192,154051,1,0,0:0:0:0:
64,192,154151,1,0,0:0:0:0:
192,192,154251,1,0,0:0:0:0:
320,192,154351,1,0,0:0:0:0:
448,192,154451,1,0,0:0:0:0:
64,192,154451,1,0,0:0:0:0:
192,192,154551,1,0,0:0:0:0:
320,192,154651,1,0,0:0:0:0:
448,192,154651,1,0,0:0:0:0:
192,192,154751,1,0,0:0:0:0:
64,192,154851,1,0,0:0:0:0:
320,192,154951,1,0,0:0:0:0:
192,192,155051,1,0,0:0:0:0:
320,192,155151,1,0,0:0:0:0:
448,192,155251,1,0,0:0:0:0:
64,192,155251,1,0,0:0:0:0:
192,192,155351,1,0,0:0:0:0:
320,192,155451,1,0,0:0:0:0:
448,192,155551,1,0,0:0:0:0:
192,192,155651,1,0,0:0:0:0:
64,192,155651,1,0,0:0:0:0:
320,192,155751,5,0,0:0:0:0:
448,192,155851,1,0,0:0:0:0:
192,192,155951,1,0,0:0:0:0:
64,192,156051,1,0,0:0:0:0:
320,192,156051,1,0,0:0:0:0:
448,192,156151,1,0,0:0:0:0:
192,192,156251,1,0,0:0:0:0:
64,192,156351,1,0,0:0:0:0:
448,192,156451,1,0,0:0:0:0:
320,192,156451,1,0,0:0:0:0:
192,192,156551,1,0,0:0:0:0:
64,192,156651,1,0,0:0:0:0:
320,192,156751,1,0,0:0:0:0:
192,192,156851,128,0,158051:0:0:0:0:
448,192,156851,1,0,0:0:0:0:
64,192,156851,1,0,0:0:0:0:
320,192,158051,128,0,158451:0:0:0:0:
192,192,158151,128,0,158451:0:0:0:0:
448,192,158451,128,0,158851:0:0:0:0:
64,192,158451,1,0,0:0:0:0:
192,192,158651,128,0,159051:0:0:0:0:
320,192,158651,1,0,0:0:0:0:
64,192,158851,128,0,159251:0:0:0:0:
320,192,158851,1,0,0:0:0:0:
320,192,159051,128,0,159451:0:0:0:0:
448,192,159051,1,0,0:0:0:0:
448,192,159251,128,0,159651:0:0:0:0:
192,192,159251,1,0,0:0:0:0:
64,192,159451,128,0,159851:0:0:0:0:
192,192,159451,1,0,0:0:0:0:
320,192,159651,128,0,160051:0:0:0:0:
192,192,159651,1,0,0:0:0:0:
192,192,159851,128,0,160251:0:0:0:0:
448,192,159851,1,0,0:0:0:0:
448,192,160051,128,0,160451:0:0:0:0:
64,192,160051,1,0,0:0:0:0:
64,192,160251,128,0,160651:0:0:0:0:
320,192,160251,1,0,0:0:0:0:
192,192,160451,1,0,0:0:0:0:
320,192,160451,128,0,160851:0:0:0:0:
448,192,160651,128,0,161051:0:0:0:0:
192,192,160651,1,0,0:0:0:0:
64,192,160851,128,0,161151:0:0:0:0:
192,192,160851,1,0,0:0:0:0:
192,192,161051,1,0,0:0:0:0:
192,192,161151,128,0,161451:0:0:0:0:
320,192,161351,1,0,0:0:0:0:
320,192,161451,128,0,161651:0:0:0:0:
448,192,161651,128,0,162051:0:0:0:0:
64,192,161651,1,0,0:0:0:0:
320,192,161851,128,0,162251:0:0:0:0:
192,192,161851,1,0,0:0:0:0:
64,192,162051,128,0,162451:0:0:0:0:
192,192,162051,1,0,0:0:0:0:
192,192,162251,128,0,162651:0:0:0:0:
448,192,162251,1,0,0:0:0:0:
448,192,162451,128,0,162851:0:0:0:0:
320,192,162451,1,0,0:0:0:0:
64,192,162651,128,0,163051:0:0:0:0:
320,192,162651,1,0,0:0:0:0:
320,192,162851,128,0,163251:0:0:0:0:
192,192,162851,1,0,0:0:0:0:
192,192,163051,128,0,163451:0:0:0:0:
448,192,163051,1,0,0:0:0:0:
448,192,163251,128,0,163651:0:0:0:0:
64,192,163251,1,0,0:0:0:0:
320,192,163451,128,0,163851:0:0:0:0:
64,192,163451,1,0,0:0:0:0:
64,192,163651,128,0,164051:0:0:0:0:
192,192,163651,1,0,0:0:0:0:
192,192,163851,128,0,164251:0:0:0:0:
448,192,163851,1,0,0:0:0:0:
448,192,164051,128,0,164151:0:0:0:0:
320,192,164051,1,0,0:0:0:0:
448,192,164251,1,0,0:0:0:0:
320,192,164351,128,0,164451:0:0:0:0:
320,192,164551,1,0,0:0:0:0:
192,192,164651,128,0,164851:0:0:0:0:
448,192,164851,128,0,165251:0:0:0:0:
320,192,164851,1,0,0:0:0:0:
64,192,165051,128,0,165451:0:0:0:0:
192,192,165051,1,0,0:0:0:0:
320,192,165251,128,0,165651:0:0:0:0:
192,192,165251,1,0,0:0:0:0:
448,192,165451,128,0,165851:0:0:0:0:
192,192,165451,1,0,0:0:0:0:
64,192,165651,128,0,166051:0:0:0:0:
192,192,165651,1,0,0:0:0:0:
192,192,165851,128,0,166251:0:0:0:0:
320,192,165851,1,0,0:0:0:0:
448,192,166051,128,0,166451:0:0:0:0:
320,192,166051,1,0,0:0:0:0:
64,192,166251,128,0,166651:0:0:0:0:
320,192,166251,1,0,0:0:0:0:
320,192,166451,128,0,166851:0:0:0:0:
192,192,166451,1,0,0:0:0:0:
192,192,166651,128,0,167051:0:0:0:0:
448,192,166651,1,0,0:0:0:0:
448,192,166851,128,0,167251:0:0:0:0:
64,192,166851,1,0,0:0:0:0:
320,192,167051,128,0,167451:0:0:0:0:
64,192,167051,1,0,0:0:0:0:
64,192,167251,128,0,167551:0:0:0:0:
192,192,167251,1,0,0:0:0:0:
192,192,167451,1,0,0:0:0:0:
192,192,167551,128,0,167851:0:0:0:0:
320,192,167751,1,0,0:0:0:0:
320,192,167851,128,0,168051:0:0:0:0:
448,192,168051,128,0,168251:0:0:0:0:
64,192,168051,128,0,168151:0:0:0:0:
192,192,168151,128,0,168251:0:0:0:0:
320,192,168251,128,0,168451:0:0:0:0:
192,192,168351,128,0,168451:0:0:0:0:
64,192,168451,128,0,168651:0:0:0:0:
448,192,168551,128,0,168651:0:0:0:0:
192,192,168651,128,0,168851:0:0:0:0:
320,192,168751,128,0,168851:0:0:0:0:
448,192,168851,128,0,169051:0:0:0:0:
64,192,168851,128,0,168951:0:0:0:0:
192,192,168951,128,0,169051:0:0:0:0:
320,192,169051,128,0,169251:0:0:0:0:
192,192,169151,128,0,169251:0:0:0:0:
64,192,169251,128,0,169451:0:0:0:0:
448,192,169351,128,0,169451:0:0:0:0:
192,192,169451,128,0,169651:0:0:0:0:
320,192,169551,128,0,169651:0:0:0:0:
448,192,169651,128,0,169851:0:0:0:0:
64,192,169651,128,0,169751:0:0:0:0:
192,192,169751,128,0,169851:0:0:0:0:
320,192,169851,128,0,170051:0:0:0:0:
192,192,169951,128,0,170051:0:0:0:0:
64,192,170051,128,0,170251:0:0:0:0:
448,192,170151,128,0,170251:0:0:0:0:
192,192,170251,128,0,170451:0:0:0:0:
320,192,170351,128,0,170451:0:0:0:0:
64,192,170451,1,0,0:0:0:0:
448,192,170451,1,0,0:0:0:0:
320,192,170551,1,0,0:0:0:0:
192,192,170551,1,0,0:0:0:0:
64,192,170651,1,0,0:0:0:0:
448,192,170651,1,0,0:0:0:0:
320,192,170751,1,0,0:0:0:0:
192,192,170751,1,0,0:0:0:0:
64,192,170851,1,0,0:0:0:0:
448,192,170851,1,0,0:0:0:0:
320,192,170951,1,0,0:0:0:0:
192,192,170951,1,0,0:0:0:0:
64,192,171051,1,0,0:0:0:0:
448,192,171051,1,0,0:0:0:0:
320,192,171151,1,0,0:0:0:0:
192,192,171151,1,0,0:0:0:0:
448,192,171251,128,0,171651:0:0:0:0:
192,192,171251,1,0,0:0:0:0:
64,192,171251,1,0,0:0:0:0:
64,192,171451,128,0,171851:0:0:0:0:
320,192,171451,1,0,0:0:0:0:
320,192,171651,128,0,172051:0:0:0:0:
192,192,171651,1,0,0:0:0:0:
448,192,171851,128,0,172251:0:0:0:0:
192,192,171851,1,0,0:0:0:0:
64,192,172051,128,0,172451:0:0:0:0:
192,192,172051,1,0,0:0:0:0:
192,192,172251,128,0,172651:0:0:0:0:
320,192,172251,1,0,0:0:0:0:
320,192,172451,128,0,172851:0:0:0:0:
448,192,172451,1,0,0:0:0:0:
64,192,172651,128,0,173051:0:0:0:0:
448,192,172851,128,0,173251:0:0:0:0:
192,192,172851,1,0,0:0:0:0:
192,192,173051,128,0,173451:0:0:0:0:
320,192,173051,1,0,0:0:0:0:
320,192,173251,128,0,173651:0:0:0:0:
64,192,173251,1,0,0:0:0:0:
448,192,173451,128,0,173851:0:0:0:0:
64,192,173451,1,0,0:0:0:0:
64,192,173651,128,0,173951:0:0:0:0:
192,192,173651,1,0,0:0:0:0:
192,192,173851,1,0,0:0:0:0:
192,192,173951,128,0,174251:0:0:0:0:
320,192,174151,1,0,0:0:0:0:
320,192,174251,128,0,174451:0:0:0:0:
64,192,174451,128,0,174851:0:0:0:0:
448,192,174451,1,0,0:0:0:0:
192,192,174651,128,0,175051:0:0:0:0:
320,192,174651,1,0,0:0:0:0:
448,192,174851,128,0,175251:0:0:0:0:
320,192,174851,1,0,0:0:0:0:
320,192,175051,128,0,175451:0:0:0:0:
64,192,175051,1,0,0:0:0:0:
192,192,175251,128,0,175651:0:0:0:0:
64,192,175251,1,0,0:0:0:0:
448,192,175451,128,0,175851:0:0:0:0:
64,192,175451,1,0,0:0:0:0:
64,192,175651,128,0,176051:0:0:0:0:
320,192,175651,1,0,0:0:0:0:
320,192,175851,128,0,176251:0:0:0:0:
192,192,175851,1,0,0:0:0:0:
448,192,176051,128,0,176451:0:0:0:0:
192,192,176051,1,0,0:0:0:0:
64,192,176251,128,0,176651:0:0:0:0:
192,192,176251,1,0,0:0:0:0:
320,192,176451,128,0,176851:0:0:0:0:
192,192,176451,1,0,0:0:0:0:
192,192,176651,128,0,177051:0:0:0:0:
448,192,176651,1,0,0:0:0:0:
448,192,176851,128,0,176951:0:0:0:0:
64,192,176851,1,0,0:0:0:0:
448,192,177051,1,0,0:0:0:0:
320,192,177151,128,0,177251:0:0:0:0:
320,192,177351,1,0,0:0:0:0:
192,192,177451,128,0,177651:0:0:0:0:
320,192,177651,128,0,178051:0:0:0:0:
448,192,177651,1,0,0:0:0:0:
64,192,177851,128,0,178251:0:0:0:0:
192,192,177851,1,0,0:0:0:0:
448,192,178051,128,0,178451:0:0:0:0:
192,192,178051,1,0,0:0:0:0:
192,192,178251,128,0,178651:0:0:0:0:
320,192,178251,1,0,0:0:0:0:
64,192,178451,128,0,178851:0:0:0:0:
320,192,178451,1,0,0:0:0:0:
448,192,178651,128,0,179051:0:0:0:0:
320,192,178651,1,0,0:0:0:0:
192,192,178851,128,0,179251:0:0:0:0:
320,192,178851,1,0,0:0:0:0:
64,192,179051,128,0,179451:0:0:0:0:
320,192,179051,1,0,0:0:0:0:
320,192,179251,128,0,179651:0:0:0:0:
448,192,179251,1,0,0:0:0:0:
192,192,179451,128,0,179851:0:0:0:0:
448,192,179451,1,0,0:0:0:0:
448,192,179651,128,0,180051:0:0:0:0:
64,192,179651,1,0,0:0:0:0:
320,192,179851,128,0,180251:0:0:0:0:
64,192,179851,1,0,0:0:0:0:
64,192,180051,128,0,180351:0:0:0:0:
192,192,180051,1,0,0:0:0:0:
192,192,180251,1,0,0:0:0:0:
192,192,180351,128,0,180651:0:0:0:0:
320,192,180551,1,0,0:0:0:0:
320,192,180651,128,0,180851:0:0:0:0:
64,192,180851,128,0,181651:0:0:0:0:
448,192,180851,128,0,181051:0:0:0:0:
192,192,180951,128,0,181051:0:0:0:0:
320,192,181051,128,0,181251:0:0:0:0:
448,192,181151,128,0,181251:0:0:0:0:
192,192,181251,128,0,181451:0:0:0:0:
448,192,181351,128,0,181451:0:0:0:0:
320,192,181451,128,0,181651:0:0:0:0:
448,192,181651,128,0,182451:0:0:0:0:
192,192,181651,128,0,181851:0:0:0:0:
64,192,181751,128,0,181851:0:0:0:0:
320,192,181851,128,0,182051:0:0:0:0:
192,192,181951,128,0,182051:0:0:0:0:
64,192,182051,128,0,182251:0:0:0:0:
320,192,182151,128,0,182251:0:0:0:0:
192,192,182251,128,0,182451:0:0:0:0:
64,192,182451,128,0,183251:0:0:0:0:
320,192,182451,128,0,182651:0:0:0:0:
192,192,182551,128,0,182651:0:0:0:0:
448,192,182651,128,0,182851:0:0:0:0:
192,192,182751,128,0,182851:0:0:0:0:
320,192,182851,128,0,183051:0:0:0:0:
448,192,182951,128,0,183051:0:0:0:0:
192,192,183051,128,0,183251:0:0:0:0:
448,192,183251,128,0,184051:0:0:0:0:
320,192,183251,128,0,183351:0:0:0:0:
64,192,183351,128,0,183451:0:0:0:0:
320,192,183451,128,0,183551:0:0:0:0:
192,192,183551,128,0,183651:0:0:0:0:
64,192,183651,128,0,183751:0:0:0:0:
192,192,183751,128,0,183851:0:0:0:0:
64,192,183851,128,0,183951:0:0:0:0:
320,192,183951,128,0,184051:0:0:0:0:
64,192,184051,1,0,0:0:0:0:
192,192,184051,128,0,184251:0:0:0:0:
320,192,184251,1,0,0:0:0:0:
192,192,184351,1,0,0:0:0:0:
64,192,184451,1,0,0:0:0:0:
320,192,184451,1,0,0:0:0:0:
448,192,184451,128,0,184651:0:0:0:0:
64,192,184651,1,0,0:0:0:0:
192,192,184751,1,0,0:0:0:0:
320,192,184851,1,0,0:0:0:0:
448,192,184851,128,0,185051:0:0:0:0:
64,192,185051,1,0,0:0:0:0:
192,192,185151,1,0,0:0:0:0:
64,192,185251,1,0,0:0:0:0:
320,192,185251,1,0,0:0:0:0:
448,192,185251,128,0,185451:0:0:0:0:
192,192,185451,128,0,185651:0:0:0:0:
320,192,185551,1,0,0:0:0:0:
64,192,185651,128,0,185851:0:0:0:0:
448,192,185651,1,0,0:0:0:0:
448,192,185851,1,0,0:0:0:0:
192,192,186051,1,0,0:0:0:0:
64,192,186051,128,0,186251:0:0:0:0:
320,192,186051,1,0,0:0:0:0:
448,192,186251,1,0,0:0:0:0:
192,192,186351,1,0,0:0:0:0:
320,192,186451,1,0,0:0:0:0:
64,192,186451,128,0,186651:0:0:0:0:
448,192,186651,128,0,186851:0:0:0:0:
64,192,186851,1,0,0:0:0:0:
192,192,186851,1,0,0:0:0:0:
320,192,186851,128,0,187051:0:0:0:0:
64,192,187051,128,0,187651:0:0:0:0:
192,192,187251,1,0,0:0:0:0:
448,192,187251,128,0,187451:0:0:0:0:
192,192,187451,1,0,0:0:0:0:
320,192,187551,1,0,0:0:0:0:
192,192,187651,1,0,0:0:0:0:
448,192,187651,128,0,187851:0:0:0:0:
320,192,187851,1,0,0:0:0:0:
192,192,187951,1,0,0:0:0:0:
64,192,188051,1,0,0:0:0:0:
448,192,188051,128,0,188251:0:0:0:0:
192,192,188251,1,0,0:0:0:0:
320,192,188351,1,0,0:0:0:0:
64,192,188451,1,0,0:0:0:0:
448,192,188451,128,0,188651:0:0:0:0:
192,192,188451,1,0,0:0:0:0:
192,192,188651,1,0,0:0:0:0:
64,192,188751,1,0,0:0:0:0:
320,192,188851,128,0,189051:0:0:0:0:
448,192,188851,1,0,0:0:0:0:
64,192,189051,1,0,0:0:0:0:
448,192,189151,1,0,0:0:0:0:
192,192,189251,1,0,0:0:0:0:
320,192,189251,128,0,189451:0:0:0:0:
64,192,189251,1,0,0:0:0:0:
192,192,189451,1,0,0:0:0:0:
64,192,189551,1,0,0:0:0:0:
320,192,189651,128,0,189851:0:0:0:0:
448,192,189651,1,0,0:0:0:0:
64,192,189851,128,0,190051:0:0:0:0:
448,192,190051,1,0,0:0:0:0:
192,192,190051,1,0,0:0:0:0:
320,192,190051,128,0,190251:0:0:0:0:
448,192,190251,128,0,190851:0:0:0:0:
64,192,190451,1,0,0:0:0:0:
192,192,190451,128,0,190651:0:0:0:0:
320,192,190651,1,0,0:0:0:0:
64,192,190751,1,0,0:0:0:0:
320,192,190851,1,0,0:0:0:0:
192,192,190851,128,0,191051:0:0:0:0:
448,192,191051,1,0,0:0:0:0:
64,192,191151,1,0,0:0:0:0:
448,192,191251,1,0,0:0:0:0:
192,192,191251,128,0,191451:0:0:0:0:
320,192,191451,1,0,0:0:0:0:
448,192,191551,1,0,0:0:0:0:
64,192,191651,1,0,0:0:0:0:
192,192,191651,128,0,191851:0:0:0:0:
320,192,191651,1,0,0:0:0:0:
448,192,191851,1,0,0:0:0:0:
320,192,191951,1,0,0:0:0:0:
64,192,192051,128,0,192251:0:0:0:0:
192,192,192051,1,0,0:0:0:0:
320,192,192251,1,0,0:0:0:0:
192,192,192351,1,0,0:0:0:0:
448,192,192451,1,0,0:0:0:0:
320,192,192451,1,0,0:0:0:0:
64,192,192451,128,0,192651:0:0:0:0:
448,192,192651,1,0,0:0:0:0:
320,192,192751,1,0,0:0:0:0:
192,192,192851,1,0,0:0:0:0:
64,192,192851,128,0,193051:0:0:0:0:
448,192,193051,128,0,193251:0:0:0:0:
64,192,193251,1,0,0:0:0:0:
192,192,193251,1,0,0:0:0:0:
320,192,193251,128,0,193451:0:0:0:0:
192,192,193451,128,0,194051:0:0:0:0:
64,192,193651,1,0,0:0:0:0:
448,192,193651,128,0,193851:0:0:0:0:
320,192,193851,1,0,0:0:0:0:
64,192,194051,1,0,0:0:0:0:
320,192,194051,1,0,0:0:0:0:
448,192,194051,128,0,194251:0:0:0:0:
192,192,194251,1,0,0:0:0:0:
320,192,194351,1,0,0:0:0:0:
192,192,194451,1,0,0:0:0:0:
448,192,194451,128,0,194651:0:0:0:0:
64,192,194651,1,0,0:0:0:0:
320,192,194751,1,0,0:0:0:0:
192,192,194851,1,0,0:0:0:0:
448,192,194851,128,0,195051:0:0:0:0:
64,192,194851,1,0,0:0:0:0:
192,192,195051,1,0,0:0:0:0:
64,192,195151,1,0,0:0:0:0:
320,192,195251,128,0,195451:0:0:0:0:
448,192,195251,1,0,0:0:0:0:
192,192,195451,1,0,0:0:0:0:
448,192,195551,1,0,0:0:0:0:
64,192,195651,1,0,0:0:0:0:
320,192,195651,128,0,195851:0:0:0:0:
192,192,195651,1,0,0:0:0:0:
64,192,195851,1,0,0:0:0:0:
192,192,195951,1,0,0:0:0:0:
320,192,196051,128,0,196251:0:0:0:0:
448,192,196051,1,0,0:0:0:0:
64,192,196251,128,0,196451:0:0:0:0:
448,192,196451,1,0,0:0:0:0:
320,192,196451,1,0,0:0:0:0:
192,192,196451,128,0,196651:0:0:0:0:
448,192,196651,128,0,197251:0:0:0:0:
192,192,196851,1,0,0:0:0:0:
320,192,196851,1,0,0:0:0:0:
64,192,196851,128,0,197051:0:0:0:0:
320,192,197251,1,0,0:0:0:0:
64,192,197251,128,0,197451:0:0:0:0:
448,192,197451,1,0,0:0:0:0:
320,192,197551,1,0,0:0:0:0:
64,192,197651,128,0,197851:0:0:0:0:
448,192,197851,1,0,0:0:0:0:
320,192,197951,1,0,0:0:0:0:
64,192,198051,128,0,198251:0:0:0:0:
192,192,198251,1,0,0:0:0:0:
320,192,198351,1,0,0:0:0:0:
192,192,198451,128,0,198651:0:0:0:0:
448,192,198451,1,0,0:0:0:0:
320,192,198651,1,0,0:0:0:0:
448,192,198751,1,0,0:0:0:0:
192,192,198851,128,0,199051:0:0:0:0:
320,192,199051,1,0,0:0:0:0:
448,192,199151,1,0,0:0:0:0:
192,192,199251,128,0,199451:0:0:0:0:
448,192,199451,128,0,199651:0:0:0:0:
320,192,199551,1,0,0:0:0:0:
192,192,199651,128,0,199851:0:0:0:0:
64,192,199851,128,0,200451:0:0:0:0:
448,192,199951,1,0,0:0:0:0:
320,192,200051,128,0,200251:0:0:0:0:
192,192,200051,1,0,0:0:0:0:
448,192,200251,1,0,0:0:0:0:
192,192,200351,1,0,0:0:0:0:
320,192,200451,128,0,200651:0:0:0:0:
448,192,200651,1,0,0:0:0:0:
192,192,200751,1,0,0:0:0:0:
320,192,200851,128,0,201051:0:0:0:0:
448,192,201051,1,0,0:0:0:0:
192,192,201151,1,0,0:0:0:0:
320,192,201251,128,0,201451:0:0:0:0:
64,192,201451,1,0,0:0:0:0:
192,192,201551,1,0,0:0:0:0:
448,192,201651,128,0,201851:0:0:0:0:
320,192,201651,1,0,0:0:0:0:
64,192,201851,1,0,0:0:0:0:
320,192,201951,1,0,0:0:0:0:
448,192,202051,128,0,202251:0:0:0:0:
64,192,202251,1,0,0:0:0:0:
320,192,202351,1,0,0:0:0:0:
448,192,202451,128,0,202651:0:0:0:0:
64,192,202651,128,0,202851:0:0:0:0:
320,192,202851,128,0,203051:0:0:0:0:
448,192,203051,128,0,203651:0:0:0:0:
192,192,203251,128,0,203451:0:0:0:0:
64,192,203251,1,0,0:0:0:0:
320,192,203451,1,0,0:0:0:0:
64,192,203551,1,0,0:0:0:0:
192,192,203651,128,0,203851:0:0:0:0:
320,192,203851,1,0,0:0:0:0:
64,192,203951,1,0,0:0:0:0:
192,192,204051,128,0,204251:0:0:0:0:
320,192,204251,1,0,0:0:0:0:
64,192,204351,1,0,0:0:0:0:
192,192,204451,128,0,204651:0:0:0:0:
448,192,204651,1,0,0:0:0:0:
320,192,204751,1,0,0:0:0:0:
64,192,204851,128,0,205051:0:0:0:0:
192,192,204851,1,0,0:0:0:0:
320,192,205051,1,0,0:0:0:0:
448,192,205151,1,0,0:0:0:0:
64,192,205251,128,0,205451:0:0:0:0:
320,192,205451,1,0,0:0:0:0:
448,192,205551,1,0,0:0:0:0:
64,192,205651,128,0,205851:0:0:0:0:
448,192,205851,128,0,206051:0:0:0:0:
192,192,205951,1,0,0:0:0:0:
320,192,206051,128,0,206251:0:0:0:0:
192,192,206251,128,0,206851:0:0:0:0:
448,192,206351,1,0,0:0:0:0:
64,192,206451,128,0,206651:0:0:0:0:
448,192,206651,1,0,0:0:0:0:
320,192,206751,1,0,0:0:0:0:
64,192,206851,128,0,207051:0:0:0:0:
448,192,207051,1,0,0:0:0:0:
320,192,207151,1,0,0:0:0:0:
64,192,207251,128,0,207451:0:0:0:0:
448,192,207451,1,0,0:0:0:0:
320,192,207551,1,0,0:0:0:0:
64,192,207651,128,0,207851:0:0:0:0:
320,192,207851,1,0,0:0:0:0:
192,192,207951,1,0,0:0:0:0:
320,192,208051,128,0,208251:0:0:0:0:
448,192,208051,1,0,0:0:0:0:
64,192,208251,1,0,0:0:0:0:
192,192,208351,1,0,0:0:0:0:
320,192,208451,128,0,208651:0:0:0:0:
64,192,208651,1,0,0:0:0:0:
192,192,208751,1,0,0:0:0:0:
320,192,208851,128,0,209051:0:0:0:0:
64,192,209051,128,0,209251:0:0:0:0:
192,192,209151,1,0,0:0:0:0:
448,192,209251,128,0,209451:0:0:0:0:
192,192,209451,128,0,209651:0:0:0:0:
320,192,209551,1,0,0:0:0:0:
192,192,209851,128,0,210051:0:0:0:0:
192,192,210251,128,0,210451:0:0:0:0:
