osu file format v14

[General]
AudioFilename: audio.mp3
AudioLeadIn: 0
PreviewTime: 196235
Countdown: 1
SampleSet: Normal
StackLeniency: 0.8
Mode: 0
LetterboxInBreaks: 0
WidescreenStoryboard: 0

[Editor]
DistanceSpacing: 0.9
BeatDivisor: 4
GridSize: 8
TimelineZoom: 1.6

[Metadata]
Title:Ignite
TitleUnicode:Ignite
Artist:Electro-Light
ArtistUnicode:Electro-Light
Creator:HonoKaze
Version:Inferno
Source:
Tags:edm english electronic drum&bass
BeatmapID:1581630
BeatmapSetID:751219

[Difficulty]
HPDrainRate:6
CircleSize:4.2
OverallDifficulty:8.5
ApproachRate:9.3
SliderMultiplier:1.5
SliderTickRate:1

[Events]
//Background and Video events
0,0,"fire_samurai_girl_sword_weapon_element_anime_hd-wallpaper-vSKi.jpg",0,0
//Break Periods
2,106082,113798
2,151258,152622
2,154434,155445
2,157257,158269
//Storyboard Layer 0 (Background)
//Storyboard Layer 1 (Fail)
//Storyboard Layer 2 (Pass)
//Storyboard Layer 3 (Foreground)
//Storyboard Sound Samples

[TimingPoints]
0,352.941176470588,4,1,0,100,1,0
0,-1000,4,1,0,100,0,0
176,-25,4,1,0,25,0,0
6352,-200,4,1,0,25,0,0
16235,-133.333333333333,4,1,0,25,0,0
21176,-133.333333333333,4,1,0,35,0,0
27176,-200,4,1,0,50,0,0
36705,-100,4,1,0,50,0,0
37764,-200,4,1,0,50,0,0
38117,-100,4,1,0,75,0,0
59294,-1000,4,1,0,100,0,0
60705,-66.6666666666667,4,1,0,100,0,1
105882,-250,4,1,0,100,0,0
117176,-250,4,1,0,25,0,0
139058,-500,4,1,0,25,0,0
139764,-200,4,1,0,35,0,0
153176,-200,4,1,0,25,0,0
173647,-83.3333333333333,4,1,0,50,0,0
194823,-1000,4,1,0,100,0,0
196235,-66.6666666666667,4,1,0,100,0,1
201529,-100,4,1,0,100,0,1
202058,-66.6666666666667,4,1,0,100,0,1
239999,-40,4,1,0,100,0,1
241411,-200,4,1,0,25,0,0

[HitObjects]
256,192,0,12,4,4235,0:0:0:0:
80,80,6352,6,0,P|144:112|200:112,1,112.5,0|0,2:0|2:0,2:0:0:0:
272,112,7058,2,0,P|288:168|288:192,1,75,0|0,2:0|2:0,2:0:0:0:
424,312,9176,6,0,P|408:248|376:256,1,112.5,0|0,2:0|2:0,2:0:0:0:
304,288,9882,2,0,L|232:320,1,75,0|0,2:0|2:0,2:0:0:0:
72,240,12000,6,0,B|152:240|152:240|176:200,1,112.5,0|0,2:0|2:0,2:0:0:0:
200,136,12705,2,0,B|216:96|216:96,1,75,0|0,2:0|2:0,2:0:0:0:
256,192,13411,12,0,15176,3:0:0:0:
88,72,15529,5,4,0:0:0:0:
152,128,15882,1,8,0:0:0:0:
216,72,16235,2,0,P|256:72|288:80,1,56.2500021457673
280,152,16588,2,0,P|320:152|344:144,1,56.2500021457673,8|0,0:0|0:0,0:0:0:0:
440,216,17117,6,0,L|368:240,1,56.2500021457673,0|8,0:0|0:0,0:0:0:0:
256,280,17470,1,0,0:0:0:0:
432,336,17647,6,0,L|360:312,1,56.2500021457673
256,280,18000,1,8,0:0:0:0:
40,304,18352,5,4,0:0:0:0:
128,232,18705,1,8,0:0:0:0:
216,160,19058,2,0,P|240:176|248:216,1,56.2500021457673
256,288,19411,2,0,P|288:312|328:304,1,56.2500021457673,8|0,0:0|0:0,0:0:0:0:
400,264,19764,5,0,0:0:0:0:
376,192,19941,1,0,0:0:0:0:
328,136,20117,1,8,0:0:0:0:
256,112,20294,1,0,0:0:0:0:
176,120,20470,2,0,L|184:176,1,56.2500021457673
216,264,20823,1,8,0:0:0:0:
249,280,20911,1,0,0:0:0:0:
285,291,20999,1,0,0:0:0:0:
322,296,21087,1,0,0:0:0:0:
360,296,21175,5,4,0:0:0:0:
432,240,21529,1,8,0:0:0:0:
432,152,21882,2,0,L|376:112,1,56.2500021457673
296,176,22235,2,0,L|232:128,1,56.2500021457673,8|0,0:0|0:0,0:0:0:0:
80,64,22764,5,0,0:0:0:0:
120,184,22941,1,8,0:0:0:0:
168,288,23117,1,0,0:0:0:0:
272,232,23294,2,0,L|296:160,1,56.2500021457673
320,72,23647,2,0,L|248:56,1,56.2500021457673,8|0,0:0|0:0,0:0:0:0:
136,48,24000,5,4,0:0:0:0:
88,96,24352,1,8,0:0:0:0:
40,144,24705,2,0,P|80:200|136:232,1,112.500004291535,0|8,0:0|0:0,0:0:0:0:
288,256,25411,5,0,0:0:0:0:
376,136,25588,1,0,0:0:0:0:
160,144,25764,1,8,0:0:0:0:
176,272,25941,1,0,0:0:0:0:
288,328,26117,1,0,0:0:0:0:
324,318,26205,1,0,0:0:0:0:
357,301,26293,1,0,0:0:0:0:
387,278,26381,1,0,0:0:0:0:
411,249,26469,1,8,0:0:0:0:
429,217,26558,1,0,0:0:0:0:
441,181,26646,1,0,0:0:0:0:
445,144,26734,1,0,0:0:0:0:
442,107,26822,5,4,0:0:0:0:
368,96,27176,2,0,L|320:88,1,37.5,8|0,0:0|0:0,0:0:0:0:
256,88,27529,1,0,0:0:0:0:
184,104,27705,1,0,0:0:0:0:
112,136,27882,2,0,L|80:152,4,18.75,8|0|0|0|0,0:0|0:0|0:0|0:0|0:0,0:0:0:0:
40,240,28411,5,0,0:0:0:0:
128,288,28588,2,0,L|168:256,1,37.5,8|0,0:0|0:0,0:0:0:0:
240,224,28941,2,0,L|272:248,1,37.5
360,256,29294,1,8,0:0:0:0:
379,234,29382,1,0,0:0:0:0:
399,214,29470,1,0,0:0:0:0:
419,195,29558,1,0,0:0:0:0:
440,176,29647,5,4,0:0:0:0:
376,88,29823,1,0,0:0:0:0:
296,160,30000,1,8,0:0:0:0:
216,232,30176,1,0,0:0:0:0:
136,304,30352,2,0,L|104:272,1,37.5
82,250,30705,2,0,L|114:282,1,37.5,8|0,0:0|0:0,0:0:0:0:
208,312,31058,5,0,0:0:0:0:
280,280,31235,1,0,0:0:0:0:
336,224,31411,1,8,0:0:0:0:
368,152,31588,1,0,0:0:0:0:
360,80,31764,2,0,L|320:88,1,37.5
248,64,32117,1,8,0:0:0:0:
218,68,32205,1,0,0:0:0:0:
189,73,32293,1,0,0:0:0:0:
161,79,32381,1,0,0:0:0:0:
132,83,32469,5,4,0:0:0:0:
96,208,32823,1,8,0:0:0:0:
224,240,33176,2,0,L|240:192,1,37.5
247,168,33529,2,0,L|231:216,1,37.5,8|0,0:0|0:0,0:0:0:0:
200,304,33882,1,0,0:0:0:0:
336,296,34058,2,0,L|376:272,2,37.5,0|8|0,0:0|0:0|0:0,0:0:0:0:
240,272,34588,2,0,P|232:224|248:200,1,75,0|8,0:0|0:0,0:0:0:0:
384,112,35294,5,4,0:0:0:0:
384,112,35470,1,0,0:0:0:0:
256,112,35647,2,0,L|280:160,1,37.5,8|0,0:0|0:0,0:0:0:0:
320,208,36000,2,0,L|296:240,1,37.5
224,272,36352,2,0,L|192:240,1,37.5,8|0,0:0|0:0,0:0:0:0:
177,179,36705,5,0,0:0:0:0:
178,151,36793,1,0,0:0:0:0:
188,125,36881,1,0,0:0:0:0:
205,103,36969,1,0,0:0:0:0:
229,87,37057,1,8,0:0:0:0:
256,80,37146,1,0,0:0:0:0:
284,81,37234,1,0,0:0:0:0:
311,91,37322,1,0,0:0:0:0:
333,108,37410,1,0,0:0:0:0:
348,132,37499,1,0,0:0:0:0:
356,159,37587,1,0,0:0:0:0:
354,188,37675,1,0,0:0:0:0:
344,214,37764,2,0,L|312:288,1,75,8|4,0:0|0:0,0:0:0:0:
160,320,38470,5,8,0:0:0:0:
104,232,38647,1,0,0:0:0:0:
112,128,38823,2,0,P|168:104|200:96,1,75
336,152,39176,2,0,P|296:112|272:96,1,75,8|0,0:0|0:0,0:0:0:0:
64,64,39529,5,4,0:0:0:0:
80,192,39705,1,0,0:0:0:0:
168,288,39882,2,0,P|216:240|224:208,1,75,8|0,0:0|0:0,0:0:0:0:
383,220,40235,2,0,P|317:202|285:211,1,75
216,67,40588,2,0,P|234:133|258:156,1,75,8|0,0:0|0:0,0:0:0:0:
392,272,40941,5,4,0:0:0:0:
392,128,41117,1,0,0:0:0:0:
392,272,41294,2,0,P|344:304|304:304,1,75,8|0,0:0|0:0,0:0:0:0:
176,304,41647,1,0,0:0:0:0:
48,184,41823,1,0,0:0:0:0:
176,304,42000,1,8,0:0:0:0:
48,184,42176,1,0,0:0:0:0:
88,56,42352,5,4,0:0:0:0:
176,128,42529,1,0,0:0:0:0:
280,80,42705,2,0,P|312:136|312:160,1,75,8|0,0:0|0:0,0:0:0:0:
296,240,43058,2,0,P|352:256|400:240,1,75
440,176,43411,1,8,0:0:0:0:
405,162,43499,1,0,0:0:0:0:
367,158,43587,1,0,0:0:0:0:
256,160,43764,5,4,0:0:0:0:
184,264,44117,1,8,0:0:0:0:
312,232,44470,2,0,P|320:176|304:152,1,75
312,161,44823,2,0,P|352:184|400:176,1,75,8|0,0:0|0:0,0:0:0:0:
472,160,45176,5,4,0:0:0:0:
400,328,45352,1,0,0:0:0:0:
216,328,45529,1,8,0:0:0:0:
168,192,45705,1,0,0:0:0:0:
296,160,45882,2,0,P|312:216|312:248,1,75
392,232,46235,1,8,0:0:0:0:
387,194,46323,1,0,0:0:0:0:
375,159,46411,1,0,0:0:0:0:
120,56,46588,5,4,0:0:0:0:
216,176,46764,1,0,0:0:0:0:
280,72,46941,2,0,L|360:56,1,75,8|0,0:0|0:0,0:0:0:0:
432,128,47294,1,0,0:0:0:0:
296,256,47470,1,0,0:0:0:0:
452,161,47647,1,8,0:0:0:0:
275,222,47823,1,0,0:0:0:0:
88,152,48000,5,4,0:0:0:0:
192,264,48176,1,0,0:0:0:0:
320,176,48352,2,0,P|272:136|256:128,1,75,8|0,0:0|0:0,0:0:0:0:
136,176,48705,1,0,0:0:0:0:
146,211,48793,1,0,0:0:0:0:
157,247,48881,1,0,0:0:0:0:
296,304,49058,1,8,0:0:0:0:
285,268,49146,1,0,0:0:0:0:
274,232,49234,1,0,0:0:0:0:
112,80,49411,5,4,0:0:0:0:
208,296,49764,1,8,0:0:0:0:
400,80,50117,5,4,0:0:0:0:
304,296,50470,1,8,0:0:0:0:
112,296,50823,5,4,0:0:0:0:
208,80,51176,1,8,0:0:0:0:
400,296,51529,5,4,0:0:0:0:
304,80,51882,1,8,0:0:0:0:
120,288,52235,5,4,0:0:0:0:
256,72,52588,1,8,0:0:0:0:
376,296,52941,1,4,0:0:0:0:
128,192,53294,1,8,0:0:0:0:
392,96,53647,5,4,0:0:0:0:
256,312,54000,1,8,0:0:0:0:
136,88,54353,1,4,0:0:0:0:
432,192,54706,1,8,0:0:0:0:
432,296,55058,6,0,P|392:256|392:224,1,75,4|0,0:0|0:0,0:0:0:0:
432,88,55411,2,0,P|392:128|392:160,1,75,12|0,0:0|0:0,0:0:0:0:
328,296,55764,2,0,P|288:256|288:224,1,75,4|0,0:0|0:0,0:0:0:0:
328,88,56117,2,0,P|288:128|288:160,1,75,12|0,0:0|0:0,0:0:0:0:
224,296,56470,2,0,P|184:256|184:224,1,75,4|0,0:0|0:0,0:0:0:0:
224,88,56823,2,0,P|184:128|184:160,1,75,12|0,0:0|0:0,0:0:0:0:
104,296,57176,2,0,P|64:256|64:224,1,75,4|0,0:0|0:0,0:0:0:0:
104,88,57529,2,0,P|64:128|64:160,1,75,12|0,0:0|0:0,0:0:0:0:
64,288,57882,5,8,0:0:0:0:
98,302,57970,1,0,0:0:0:0:
133,315,58058,1,8,0:0:0:0:
170,324,58146,1,0,0:0:0:0:
206,331,58234,1,8,0:0:0:0:
244,334,58323,1,0,0:0:0:0:
281,332,58411,1,8,0:0:0:0:
318,325,58499,1,0,0:0:0:0:
353,312,58587,5,8,0:0:0:0:
385,292,58676,1,0,0:0:0:0:
410,264,58764,1,8,0:0:0:0:
427,231,58852,1,0,0:0:0:0:
436,195,58940,1,8,0:0:0:0:
436,157,59029,1,0,0:0:0:0:
430,120,59117,1,8,0:0:0:0:
417,85,59205,1,0,0:0:0:0:
399,52,59294,2,4,L|352:56,1,45
72,64,60705,5,4,3:0:0:0:
176,264,60882,1,0,3:0:0:0:
416,208,61058,1,8,3:0:0:0:
200,104,61235,1,0,3:0:0:0:
165,147,61323,1,0,3:0:0:0:
149,201,61411,1,0,3:0:0:0:
154,257,61499,1,0,3:0:0:0:
179,306,61587,1,0,3:0:0:0:
296,328,61764,2,0,L|408:256,1,112.500004291535,8|0,3:0|3:0,3:0:0:0:
384,104,62117,5,4,3:0:0:0:
176,160,62294,1,0,3:0:0:0:
432,216,62470,1,8,3:0:0:0:
208,296,62647,1,0,3:0:0:0:
56,176,62823,1,0,3:0:0:0:
91,132,62911,1,0,3:0:0:0:
136,99,62999,1,0,3:0:0:0:
188,78,63087,1,0,3:0:0:0:
244,71,63176,2,0,P|328:96|352:120,1,112.500004291535,8|0,3:0|3:0,3:0:0:0:
400,264,63529,5,4,3:0:0:0:
176,328,63705,1,0,3:0:0:0:
80,152,63882,2,0,L|160:40,1,112.500004291535,8|0,3:0|3:0,3:0:0:0:
272,56,64235,1,0,3:0:0:0:
326,70,64323,1,0,3:0:0:0:
373,100,64411,1,0,3:0:0:0:
408,144,64499,1,0,3:0:0:0:
428,196,64587,1,8,3:0:0:0:
392,328,64764,1,0,3:0:0:0:
94,325,64941,5,4,3:0:0:0:
160,39,65117,1,0,3:0:0:0:
275,344,65294,5,8,3:0:0:0:
294,30,65470,1,0,3:0:0:0:
446,96,65647,5,4,3:0:0:0:
103,249,65823,1,0,3:0:0:0:
436,353,65999,5,8,3:0:0:0:
152,104,66176,1,0,3:0:0:0:
48,128,66352,5,4,3:0:0:0:
168,288,66529,1,0,3:0:0:0:
368,208,66705,1,8,3:0:0:0:
360,48,66882,1,0,3:0:0:0:
303,44,66970,1,0,3:0:0:0:
247,47,67058,1,0,3:0:0:0:
192,56,67146,1,0,3:0:0:0:
138,71,67234,1,0,3:0:0:0:
56,160,67411,2,0,P|88:240|120:280,1,112.500004291535,8|0,3:0|3:0,3:0:0:0:
256,344,67764,6,0,L|376:288,1,112.500004291535,4|0,3:0|3:0,3:0:0:0:
448,224,68117,1,8,3:0:0:0:
416,112,68294,1,0,3:0:0:0:
363,132,68382,1,0,3:0:0:0:
307,132,68470,1,0,3:0:0:0:
255,111,68558,1,0,3:0:0:0:
214,73,68646,1,0,3:0:0:0:
56,48,68823,2,0,P|72:112|104:160,1,112.500004291535,8|0,3:0|3:0,3:0:0:0:
160,312,69176,5,4,3:0:0:0:
344,232,69352,1,0,3:0:0:0:
408,48,69529,1,8,3:0:0:0:
351,47,69617,1,0,3:0:0:0:
296,54,69705,1,0,3:0:0:0:
241,69,69793,1,0,3:0:0:0:
190,92,69881,1,0,3:0:0:0:
80,168,70058,1,0,3:0:0:0:
96,312,70235,2,0,P|144:328|216:328,1,112.500004291535,8|0,3:0|3:0,3:0:0:0:
320,48,70588,5,12,3:0:0:0:
182,283,70764,1,0,3:0:0:0:
437,361,70941,1,0,3:0:0:0:
163,77,71117,5,12,3:0:0:0:
198,346,71293,1,0,3:0:0:0:
448,251,71470,1,0,3:0:0:0:
45,155,71647,5,12,3:0:0:0:
388,341,71823,1,0,3:0:0:0:
416,112,71999,6,0,P|320:112|304:120,1,112.500004291535,4|0,3:0|3:0,3:0:0:0:
144,192,72352,1,8,3:0:0:0:
88,344,72529,1,0,3:0:0:0:
142,331,72617,1,0,3:0:0:0:
196,313,72705,1,0,3:0:0:0:
247,290,72793,1,0,3:0:0:0:
295,261,72881,1,0,3:0:0:0:
424,176,73058,2,0,L|416:296,1,112.500004291535,8|0,3:0|3:0,3:0:0:0:
272,312,73411,6,0,L|160:256,1,112.500004291535,4|0,3:0|3:0,3:0:0:0:
192,48,73764,2,0,P|240:80|272:128,1,112.500004291535,8|0,3:0|3:0,3:0:0:0:
384,288,74117,1,0,3:0:0:0:
416,242,74205,1,0,3:0:0:0:
441,191,74293,1,0,3:0:0:0:
453,137,74381,1,0,3:0:0:0:
454,81,74470,2,0,P|394:88|336:128,1,112.500004291535,8|0,3:0|3:0,3:0:0:0:
104,40,74823,5,4,3:0:0:0:
264,152,74999,1,0,3:0:0:0:
64,208,75176,1,8,3:0:0:0:
104,352,75352,1,0,3:0:0:0:
159,358,75440,1,0,3:0:0:0:
216,355,75528,1,0,3:0:0:0:
271,344,75616,1,0,3:0:0:0:
323,325,75704,1,0,3:0:0:0:
408,232,75882,2,0,P|344:192|296:192,1,112.500004291535,8|0,3:0|3:0,3:0:0:0:
96,40,76235,6,0,L|72:160,1,112.500004291535,4|0,3:0|3:0,3:0:0:0:
144,304,76588,2,0,L|168:176,1,112.500004291535,8|0,3:0|3:0,3:0:0:0:
240,64,76941,1,12,3:0:0:0:
294,78,77029,1,8,3:0:0:0:
343,106,77117,1,8,3:0:0:0:
384,144,77205,1,8,3:0:0:0:
415,190,77294,2,0,L|392:312,1,112.500004291535,8|8,3:0|3:0,3:0:0:0:
104,352,77647,5,4,3:0:0:0:
336,304,77823,1,0,3:0:0:0:
384,80,77999,1,8,3:0:0:0:
192,112,78176,1,0,3:0:0:0:
157,156,78264,1,0,3:0:0:0:
135,207,78352,1,0,3:0:0:0:
124,263,78440,1,0,3:0:0:0:
127,319,78528,1,0,3:0:0:0:
400,272,78705,2,0,L|379:161,1,112.500004291535,8|0,3:0|3:0,3:0:0:0:
136,120,79058,5,4,3:0:0:0:
336,192,79235,1,0,3:0:0:0:
152,312,79411,1,8,3:0:0:0:
384,320,79588,1,0,3:0:0:0:
424,281,79676,1,0,3:0:0:0:
449,230,79764,1,0,3:0:0:0:
456,175,79852,1,0,3:0:0:0:
443,120,79940,1,0,3:0:0:0:
344,40,80117,2,0,L|224:72,1,112.500004291535,8|0,3:0|3:0,3:0:0:0:
48,152,80470,6,0,P|80:216|128:272,1,112.500004291535,4|0,3:0|3:0,3:0:0:0:
216,296,80823,1,8,3:0:0:0:
344,256,80999,1,0,3:0:0:0:
372,207,81087,1,0,3:0:0:0:
389,154,81175,1,0,3:0:0:0:
393,98,81263,1,0,3:0:0:0:
384,42,81351,1,0,3:0:0:0:
240,48,81529,1,8,3:0:0:0:
104,112,81705,1,0,3:0:0:0:
136,304,81882,5,12,3:0:0:0:
288,80,82058,1,0,3:0:0:0:
408,296,82235,1,0,3:0:0:0:
136,80,82411,5,12,3:0:0:0:
288,304,82587,1,0,3:0:0:0:
408,88,82764,1,0,3:0:0:0:
80,176,82941,5,12,3:0:0:0:
416,264,83117,1,0,3:0:0:0:
176,232,83294,6,0,P|176:296|192:368,1,112.500004291535,4|0,3:0|3:0,3:0:0:0:
352,312,83647,1,8,3:0:0:0:
416,184,83823,1,0,3:0:0:0:
392,32,83999,1,0,3:0:0:0:
335,33,84087,1,0,3:0:0:0:
280,44,84176,2,0,P|208:72|160:104,1,112.500004291535,0|8,3:0|3:0,3:0:0:0:
80,208,84529,1,0,3:0:0:0:
200,336,84705,5,4,3:0:0:0:
232,104,84882,1,0,3:0:0:0:
440,176,85058,2,0,P|408:248|376:288,1,112.500004291535,8|0,3:0|3:0,3:0:0:0:
136,288,85411,1,8,3:0:0:0:
137,231,85499,1,8,3:0:0:0:
149,176,85587,1,8,3:0:0:0:
171,125,85675,1,8,3:0:0:0:
202,78,85763,1,8,3:0:0:0:
304,56,85941,1,0,3:0:0:0:
448,56,86117,5,4,3:0:0:0:
256,128,86294,1,0,3:0:0:0:
432,240,86470,1,8,3:0:0:0:
240,296,86647,1,0,3:0:0:0:
72,208,86823,1,0,3:0:0:0:
89,154,86911,1,0,3:0:0:0:
121,109,86999,1,0,3:0:0:0:
166,75,87087,1,0,3:0:0:0:
219,56,87175,1,8,3:0:0:0:
368,96,87352,1,0,3:0:0:0:
400,320,87529,5,4,3:0:0:0:
344,314,87617,1,0,3:0:0:0:
290,296,87705,1,0,3:0:0:0:
241,269,87793,1,0,3:0:0:0:
199,232,87881,1,8,3:0:0:0:
120,112,88058,1,0,3:0:0:0:
272,32,88235,2,0,P|368:64|464:176,1,225.000008583069,4|8,3:0|3:0,3:0:0:0:
424,248,88764,1,0,3:0:0:0:
352,312,88941,5,4,3:0:0:0:
96,240,89294,5,8,3:0:0:0:
136,48,89470,1,0,3:0:0:0:
191,54,89558,1,0,3:0:0:0:
245,72,89646,1,0,3:0:0:0:
293,99,89734,1,0,3:0:0:0:
336,136,89822,1,0,3:0:0:0:
384,256,89999,2,0,L|264:336,1,112.500004291535,8|0,3:0|3:0,3:0:0:0:
136,264,90352,5,4,3:0:0:0:
384,152,90529,1,0,3:0:0:0:
200,48,90705,2,0,L|104:128,1,112.500004291535,8|0,3:0|3:0,3:0:0:0:
112,256,91058,1,8,3:0:0:0:
167,264,91146,1,8,3:0:0:0:
223,264,91234,1,8,3:0:0:0:
279,255,91322,1,8,3:0:0:0:
332,237,91410,1,8,3:0:0:0:
448,160,91588,1,0,3:0:0:0:
408,32,91764,5,4,3:0:0:0:
160,80,91941,1,0,3:0:0:0:
176,256,92117,2,0,L|280:312,1,112.500004291535,8|0,3:0|3:0,3:0:0:0:
400,280,92470,2,0,L|400:152,1,112.500004291535,0|0,3:0|3:0,3:0:0:0:
288,88,92823,2,0,L|184:176,1,112.500004291535,8|0,3:0|3:0,3:0:0:0:
72,272,93176,5,12,3:0:0:0:
121,298,93264,1,8,3:0:0:0:
174,315,93352,1,8,3:0:0:0:
230,323,93440,1,8,3:0:0:0:
286,322,93528,1,8,3:0:0:0:
416,216,93705,5,12,3:0:0:0:
426,161,93793,1,8,3:0:0:0:
406,109,93881,1,8,3:0:0:0:
361,77,93969,1,8,3:0:0:0:
306,74,94057,1,8,3:0:0:0:
112,88,94235,5,12,3:0:0:0:
256,304,94411,1,8,3:0:0:0:
408,320,94588,5,4,3:0:0:0:
328,144,94764,1,0,3:0:0:0:
160,256,94941,1,8,3:0:0:0:
104,72,95117,1,0,3:0:0:0:
155,93,95205,1,0,3:0:0:0:
203,123,95293,1,0,3:0:0:0:
243,162,95381,1,0,3:0:0:0:
275,208,95469,1,0,3:0:0:0:
352,304,95647,2,0,P|432:248|440:208,1,112.500004291535,8|0,3:0|3:0,3:0:0:0:
120,40,95999,5,4,3:0:0:0:
288,56,96176,1,0,3:0:0:0:
360,176,96352,1,8,3:0:0:0:
184,160,96529,1,0,3:0:0:0:
48,232,96705,1,8,3:0:0:0:
89,270,96793,1,8,3:0:0:0:
136,300,96881,1,8,3:0:0:0:
188,322,96969,1,8,3:0:0:0:
243,334,97058,2,8,P|312:344|368:344,1,112.500004291535,8|0,3:0|3:0,3:0:0:0:
432,208,97411,5,4,3:0:0:0:
128,64,97588,1,0,3:0:0:0:
416,48,97764,5,8,3:0:0:0:
104,144,97941,1,0,3:0:0:0:
200,311,98117,1,0,3:0:0:0:
256,308,98205,1,0,3:0:0:0:
312,303,98293,1,0,3:0:0:0:
368,296,98381,1,0,3:0:0:0:
424,288,98469,1,8,3:0:0:0:
408,152,98647,1,0,3:0:0:0:
144,48,98823,5,4,3:0:0:0:
176,272,98999,1,0,3:0:0:0:
424,176,99176,2,0,L|304:120,1,112.500004291535,8|0,3:0|3:0,3:0:0:0:
96,200,99529,2,8,L|208:256,1,112.500004291535,8|8,3:0|3:0,3:0:0:0:
408,272,99882,1,8,3:0:0:0:
412,215,99970,1,8,3:0:0:0:
416,159,100058,2,8,L|424:80,1,56.2500021457673,8|0,3:0|3:0,3:0:0:0:
424,40,100235,6,0,L|304:64,1,112.500004291535,4|0,3:0|3:0,3:0:0:0:
136,88,100588,1,8,3:0:0:0:
120,272,100764,1,0,3:0:0:0:
328,224,100941,1,0,3:0:0:0:
311,170,101029,1,0,3:0:0:0:
273,129,101117,1,0,3:0:0:0:
221,109,101205,1,0,3:0:0:0:
165,114,101293,1,8,3:0:0:0:
32,144,101470,1,0,3:0:0:0:
160,336,101647,5,4,3:0:0:0:
392,208,101823,1,0,3:0:0:0:
216,112,101999,2,0,L|152:224,1,112.500004291535,8|0,3:0|3:0,3:0:0:0:
320,280,102352,1,0,3:0:0:0:
352,233,102440,1,0,3:0:0:0:
375,182,102528,1,0,3:0:0:0:
388,128,102616,1,0,3:0:0:0:
392,72,102704,1,8,3:0:0:0:
464,176,102882,1,0,3:0:0:0:
440,336,103058,5,4,3:0:0:0:
208,336,103235,1,8,3:0:0:0:
208,176,103411,1,0,3:0:0:0:
368,176,103588,1,0,3:0:0:0:
368,48,103764,1,0,3:0:0:0:
311,44,103852,1,0,3:0:0:0:
255,40,103940,1,0,3:0:0:0:
199,36,104028,1,0,3:0:0:0:
143,32,104116,1,8,3:0:0:0:
48,64,104294,1,0,3:0:0:0:
40,184,104470,6,0,L|104:304,1,112.500004291535,12|0,3:0|3:0,3:0:0:0:
368,224,104823,1,0,3:0:0:0:
152,112,104999,1,12,3:0:0:0:
136,304,105176,1,0,3:0:0:0:
190,291,105264,1,0,3:0:0:0:
240,266,105352,1,0,3:0:0:0:
282,229,105440,1,0,3:0:0:0:
314,182,105529,2,0,P|336:128|312:72,1,112.500004291535,12|0,3:0|3:0,3:0:0:0:
176,48,105882,1,4,3:0:0:0:
256,192,114352,12,0,116823,2:0:0:0:
256,192,117176,5,4,2:0:0:0:
80,200,117882,1,0,2:0:0:0:
128,104,118588,1,0,2:0:0:0:
112,48,119117,5,0,2:0:0:0:
112,48,119294,2,0,L|88:112,1,60,0|0,2:0|2:0,2:0:0:0:
48,192,119999,5,0,2:0:0:0:
128,288,120352,1,0,2:0:0:0:
224,224,120882,5,0,2:0:0:0:
288,280,121411,5,0,2:0:0:0:
384,304,121941,5,0,2:0:0:0:
384,304,122117,2,0,L|352:240,1,60,0|0,2:0|2:0,2:0:0:0:
328,144,122823,2,0,B|336:80|248:56|248:56|256:112|200:144,1,240,0|0,2:0|2:0,2:0:0:0:
72,120,124941,6,0,L|80:184,1,60,0|0,2:0|2:0,2:0:0:0:
128,288,125647,2,0,B|168:200|128:112|128:112|160:112|184:88,1,240,0|0,2:0|2:0,2:0:0:0:
272,144,127411,1,0,2:0:0:0:
288,160,127764,1,0,2:0:0:0:
312,176,128117,2,0,L|368:224,1,60,0|4,2:0|2:0,2:0:0:0:
320,96,129176,5,8,2:0:0:0:
424,136,129882,2,0,L|384:192,1,60,0|0,2:0|2:0,2:0:0:0:
320,296,130588,2,0,L|264:272,1,60,0|0,2:0|2:0,2:0:0:0:
128,320,131294,1,0,2:0:0:0:
200,200,131647,1,0,2:0:0:0:
272,176,131999,2,0,L|258:117,1,60,8|0,2:0|2:0,2:0:0:0:
88,56,132705,6,0,L|112:112,1,60,0|0,2:0|2:0,2:0:0:0:
72,256,133411,2,0,L|96:320,1,60,0|0,2:0|2:0,2:0:0:0:
224,280,134117,5,0,2:0:0:0:
264,192,134470,1,0,2:0:0:0:
240,96,134823,2,8,P|192:112|184:120,1,60,8|0,2:0|2:0,2:0:0:0:
168,216,135529,6,0,L|224:192,1,60,0|0,2:0|2:0,2:0:0:0:
232,72,136235,2,0,L|296:48,1,60,0|0,2:0|2:0,2:0:0:0:
440,40,136941,2,0,B|416:112|344:112,2,120,0|8|0,2:0|2:0|2:0,2:0:0:0:
224,152,138705,1,0,2:0:0:0:
152,112,139058,2,0,L|144:168,1,45,0|0,2:0|2:0,2:0:0:0:
128,224,139764,5,4,2:0:0:0:
148,255,139940,1,0,2:0:0:0:
169,286,140116,1,0,2:0:0:0:
190,317,140293,1,0,2:0:0:0:
128,224,140470,5,8,2:0:0:0:
165,224,140646,1,0,2:0:0:0:
202,225,140822,1,0,2:0:0:0:
240,226,140999,1,0,2:0:0:0:
128,224,141176,5,0,2:0:0:0:
149,193,141352,1,0,2:0:0:0:
171,163,141528,1,0,2:0:0:0:
193,133,141705,1,0,2:0:0:0:
128,224,141882,5,8,2:0:0:0:
114,189,142058,1,0,2:0:0:0:
102,153,142234,1,0,2:0:0:0:
90,118,142411,1,0,2:0:0:0:
304,136,142588,5,0,2:0:0:0:
290,170,142764,1,0,2:0:0:0:
276,205,142940,1,0,2:0:0:0:
263,240,143117,1,0,2:0:0:0:
304,136,143294,5,8,2:0:0:0:
325,166,143470,1,0,2:0:0:0:
345,197,143646,1,0,2:0:0:0:
366,228,143823,1,0,2:0:0:0:
304,136,144000,5,0,2:0:0:0:
341,135,144176,1,0,2:0:0:0:
378,136,144352,1,0,2:0:0:0:
415,137,144529,1,0,2:0:0:0:
304,136,144706,5,8,2:0:0:0:
324,104,144882,1,0,2:0:0:0:
347,73,145058,1,0,2:0:0:0:
369,44,145235,1,0,2:0:0:0:
88,144,145411,5,0,2:0:0:0:
118,165,145587,1,0,2:0:0:0:
149,186,145763,1,0,2:0:0:0:
180,208,145940,1,0,2:0:0:0:
376,176,146117,5,8,2:0:0:0:
352,205,146293,1,0,2:0:0:0:
329,234,146469,1,0,2:0:0:0:
306,264,146646,1,0,2:0:0:0:
208,152,146823,5,0,2:0:0:0:
227,120,146999,1,0,2:0:0:0:
247,88,147175,1,0,2:0:0:0:
266,56,147352,1,0,2:0:0:0:
424,144,147529,5,8,2:0:0:0:
390,159,147705,1,0,2:0:0:0:
356,175,147881,1,0,2:0:0:0:
322,191,148058,1,0,2:0:0:0:
296,336,148235,5,0,2:0:0:0:
261,320,148411,1,0,2:0:0:0:
227,304,148587,1,0,2:0:0:0:
193,288,148764,1,0,2:0:0:0:
140,228,148941,5,8,2:0:0:0:
159,195,149117,1,0,2:0:0:0:
176,163,149293,1,0,2:0:0:0:
194,129,149470,1,0,2:0:0:0:
310,223,149647,5,0,2:0:0:0:
296,257,149823,1,0,2:0:0:0:
282,292,149999,1,0,2:0:0:0:
268,327,150176,1,0,2:0:0:0:
98,268,150353,5,8,2:0:0:0:
129,246,150529,1,0,2:0:0:0:
160,225,150705,2,0,L|192:200,1,37.5,0|0,2:0|2:0,2:0:0:0:
256,104,151058,5,4,2:0:0:0:
256,112,153176,5,0,2:0:0:0:
368,184,153882,2,0,L|304:232,1,75,0|0,2:0|2:0,2:0:0:0:
96,256,155999,5,0,2:0:0:0:
208,344,156705,2,0,L|272:304,1,75,0|0,2:0|2:0,2:0:0:0:
392,112,158823,5,0,2:0:0:0:
128,32,159529,2,0,L|112:112,1,75,0|0,2:0|2:0,2:0:0:0:
256,192,160058,12,0,161999,2:0:0:0:
240,192,162352,5,4,2:0:0:0:
264,144,163764,1,0,2:0:0:0:
288,56,164470,2,0,L|352:104,1,75,0|0,2:0|2:0,2:0:0:0:
360,272,165176,1,0,2:0:0:0:
280,296,166588,1,0,2:0:0:0:
168,304,167294,6,0,L|160:216,1,75,0|0,2:0|2:0,2:0:0:0:
208,128,167999,1,0,2:0:0:0:
296,168,169411,1,0,2:0:0:0:
288,72,170117,6,0,L|368:104,1,75,0|0,2:0|2:0,2:0:0:0:
416,200,170823,1,0,2:0:0:0:
256,192,170999,12,0,173294,0:0:0:0:
240,136,173647,5,4,0:0:0:0:
136,280,173823,1,0,0:0:0:0:
312,296,173999,2,0,P|352:272|368:224,1,89.9999972534181,8|0,0:0|0:0,0:0:0:0:
384,104,174352,2,0,L|280:136,1,89.9999972534181
160,168,174705,1,8,0:0:0:0:
288,288,174882,1,0,0:0:0:0:
448,296,175058,5,4,0:0:0:0:
408,152,175235,1,0,0:0:0:0:
328,344,175411,1,8,0:0:0:0:
288,160,175588,1,0,0:0:0:0:
208,344,175764,2,0,L|160:240,1,89.9999972534181
96,192,176117,1,8,0:0:0:0:
125,157,176205,1,0,0:0:0:0:
154,123,176293,1,0,0:0:0:0:
183,88,176381,1,0,0:0:0:0:
208,56,176470,5,4,0:0:0:0:
416,136,176647,1,0,0:0:0:0:
202,74,176823,1,8,0:0:0:0:
421,117,177000,1,0,0:0:0:0:
136,136,177176,2,0,P|160:184|200:208,1,89.9999972534181
304,312,177529,2,0,P|344:256|344:216,1,89.9999972534181,8|0,0:0|0:0,0:0:0:0:
192,48,177882,5,4,0:0:0:0:
152,136,178058,1,0,0:0:0:0:
144,232,178235,1,8,0:0:0:0:
168,328,178411,1,0,0:0:0:0:
368,208,178588,1,0,0:0:0:0:
377,165,178676,1,0,0:0:0:0:
351,130,178764,1,0,0:0:0:0:
307,127,178852,1,0,0:0:0:0:
277,158,178940,1,8,0:0:0:0:
216,224,179117,5,0,0:0:0:0:
160,288,179294,5,4,0:0:0:0:
72,160,179647,1,8,0:0:0:0:
216,120,179999,2,0,L|296:168,1,89.9999972534181
432,240,180352,2,0,L|360:312,1,89.9999972534181,8|0,0:0|0:0,0:0:0:0:
256,336,180705,5,4,0:0:0:0:
160,272,180882,1,0,0:0:0:0:
328,248,181058,1,8,0:0:0:0:
256,336,181235,1,0,0:0:0:0:
160,272,181411,1,0,0:0:0:0:
173,229,181499,1,0,0:0:0:0:
201,194,181587,1,0,0:0:0:0:
240,172,181675,1,0,0:0:0:0:
284,167,181764,2,0,L|376:184,1,89.9999972534181,8|0,0:0|0:0,0:0:0:0:
456,208,182117,5,4,0:0:0:0:
256,88,182294,1,0,0:0:0:0:
256,208,182470,1,8,0:0:0:0:
256,328,182647,1,0,0:0:0:0:
424,136,182823,2,0,P|352:120|312:120,1,89.9999972534181
120,144,183176,2,0,P|88:200|88:240,1,89.9999972534181,8|0,0:0|0:0,0:0:0:0:
208,336,183529,5,4,0:0:0:0:
320,232,183705,1,0,0:0:0:0:
392,96,183882,2,0,L|272:104,1,89.9999972534181,8|0,0:0|0:0,0:0:0:0:
120,128,184235,1,0,0:0:0:0:
112,172,184323,1,0,0:0:0:0:
114,217,184411,1,0,0:0:0:0:
126,260,184499,1,0,0:0:0:0:
148,299,184587,1,8,0:0:0:0:
120,320,184941,5,4,0:0:0:0:
408,112,185294,1,8,0:0:0:0:
400,288,185647,5,4,0:0:0:0:
128,112,185999,1,8,0:0:0:0:
64,264,186352,5,4,0:0:0:0:
432,160,186705,1,8,0:0:0:0:
392,256,187058,5,4,0:0:0:0:
184,88,187411,1,8,0:0:0:0:
384,56,187764,5,4,0:0:0:0:
128,328,188117,1,8,0:0:0:0:
422,107,188470,5,4,0:0:0:0:
89,276,188823,1,8,0:0:0:0:
441,170,189176,5,4,0:0:0:0:
70,213,189529,1,8,0:0:0:0:
437,234,189882,5,4,0:0:0:0:
74,149,190235,1,8,0:0:0:0:
120,48,190588,6,0,P|144:104|184:128,1,89.9999972534181,4|0,0:0|0:0,0:0:0:0:
392,48,190941,2,0,P|368:104|328:128,1,89.9999972534181,12|0,0:0|0:0,0:0:0:0:
120,192,191294,2,0,P|144:248|184:272,1,89.9999972534181,4|0,0:0|0:0,0:0:0:0:
392,192,191647,2,0,P|368:248|328:272,1,89.9999972534181,12|0,0:0|0:0,0:0:0:0:
72,328,191999,6,0,P|72:256|96:224,1,89.9999972534181,4|0,0:0|0:0,0:0:0:0:
152,136,192352,2,0,P|232:144|256:128,1,89.9999972534181,12|0,0:0|0:0,0:0:0:0:
440,328,192705,6,0,P|440:256|416:224,1,89.9999972534181,4|0,0:0|0:0,0:0:0:0:
360,136,193058,2,0,P|280:144|256:128,1,89.9999972534181,12|0,0:0|0:0,0:0:0:0:
104,40,193411,5,0,0:0:0:0:
69,68,193499,1,0,0:0:0:0:
58,110,193587,1,0,0:0:0:0:
69,154,193675,1,0,0:0:0:0:
84,196,193763,1,0,0:0:0:0:
94,240,193852,1,0,0:0:0:0:
90,284,193940,1,0,0:0:0:0:
69,323,194028,1,0,0:0:0:0:
44,351,194116,5,0,0:0:0:0:
88,344,194205,1,0,0:0:0:0:
133,339,194293,1,0,0:0:0:0:
178,334,194381,1,0,0:0:0:0:
223,331,194469,1,0,0:0:0:0:
268,330,194558,1,0,0:0:0:0:
313,331,194646,1,0,0:0:0:0:
358,334,194734,1,0,0:0:0:0:
400,344,194823,2,4,L|445:355,1,45,12|0,0:0|0:0,0:0:0:0:
416,104,196235,5,4,3:0:0:0:
80,192,196411,1,0,3:0:0:0:
224,64,196588,1,8,3:0:0:0:
360,200,196764,1,0,3:0:0:0:
339,252,196852,1,0,3:0:0:0:
304,295,196940,1,0,3:0:0:0:
257,326,197028,1,0,3:0:0:0:
203,342,197116,1,0,3:0:0:0:
72,280,197294,2,0,P|104:184|112:168,1,112.500004291535,8|0,3:0|3:0,3:0:0:0:
224,32,197647,5,4,3:0:0:0:
392,240,197823,1,0,3:0:0:0:
152,168,197999,1,8,3:0:0:0:
408,104,198176,1,0,3:0:0:0:
392,280,198352,1,0,3:0:0:0:
342,307,198440,1,0,3:0:0:0:
289,323,198528,1,0,3:0:0:0:
233,328,198616,1,0,3:0:0:0:
177,322,198705,2,0,P|112:304|80:264,1,112.500004291535,8|0,3:0|3:0,3:0:0:0:
96,56,199058,5,4,3:0:0:0:
304,144,199235,1,0,3:0:0:0:
168,288,199411,1,8,3:0:0:0:
360,320,199588,1,0,3:0:0:0:
397,278,199676,1,0,3:0:0:0:
425,228,199764,1,0,3:0:0:0:
440,174,199852,1,0,3:0:0:0:
445,118,199940,1,0,3:0:0:0:
256,56,200117,1,8,3:0:0:0:
72,160,200294,1,0,3:0:0:0:
112,336,200470,6,0,L|232:312,1,112.500004291535,4|0,3:0|3:0,3:0:0:0:
408,216,200823,2,0,L|272:200,1,112.500004291535,8|0,3:0|3:0,3:0:0:0:
80,48,201176,1,0,3:0:0:0:
75,104,201264,1,0,3:0:0:0:
78,160,201352,1,0,3:0:0:0:
90,215,201440,1,0,3:0:0:0:
110,267,201529,2,0,P|152:320|168:328,2,75,8|0|4,3:0|3:0|3:0,3:0:0:0:
344,320,202058,5,0,3:0:0:0:
160,104,202235,1,8,3:0:0:0:
64,288,202411,1,0,3:0:0:0:
115,310,202499,1,0,3:0:0:0:
170,320,202587,1,0,3:0:0:0:
226,317,202675,1,0,3:0:0:0:
279,299,202763,1,0,3:0:0:0:
440,200,202941,2,0,L|336:144,1,112.500004291535,8|0,3:0|3:0,3:0:0:0:
104,104,203294,5,4,3:0:0:0:
208,328,203470,1,0,3:0:0:0:
464,280,203647,2,0,P|456:208|432:152,1,112.500004291535,8|0,3:0|0:0,0:0:0:0:
336,72,203999,1,8,3:0:0:0:
282,88,204087,1,8,3:0:0:0:
240,112,204175,1,8,3:0:0:0:
216,152,204263,1,8,3:0:0:0:
208,200,204352,2,8,P|238:274|278:298,1,112.500004291535,8|0,3:0|3:0,3:0:0:0:
438,246,204705,6,0,P|459:297|448:352,2,112.500004291535,4|0|8,3:0|3:0|3:0,3:0:0:0:
144,264,205235,1,0,3:0:0:0:
150,208,205323,1,0,3:0:0:0:
173,157,205411,1,0,3:0:0:0:
212,117,205499,1,0,3:0:0:0:
261,91,205587,1,0,3:0:0:0:
416,160,205764,2,0,L|368:280,1,112.500004291535,8|0,3:0|3:0,3:0:0:0:
64,296,206117,5,12,3:0:0:0:
256,64,206294,1,0,3:0:0:0:
368,320,206470,1,0,3:0:0:0:
152,40,206647,5,12,3:0:0:0:
384,232,206824,1,0,3:0:0:0:
128,344,207000,1,0,3:0:0:0:
448,160,207176,5,12,3:0:0:0:
48,216,207352,1,0,3:0:0:0:
232,48,207529,6,0,P|344:64|360:72,1,112.500004291535,4|0,3:0|3:0,3:0:0:0:
448,192,207882,1,8,3:0:0:0:
371,323,208058,1,0,3:0:0:0:
318,304,208146,1,0,3:0:0:0:
265,285,208234,1,0,3:0:0:0:
212,266,208322,1,0,3:0:0:0:
160,248,208410,1,0,3:0:0:0:
320,176,208588,2,0,P|248:136|200:144,1,112.500004291535,8|0,3:0|3:0,3:0:0:0:
56,88,208941,5,4,3:0:0:0:
128,320,209117,1,0,3:0:0:0:
408,216,209294,2,0,L|320:144,1,112.500004291535,8|0,3:0|3:0,3:0:0:0:
128,136,209647,2,0,L|232:224,1,112.500004291535,0|0,3:0|3:0,3:0:0:0:
432,336,209999,1,8,3:0:0:0:
425,280,210087,1,0,3:0:0:0:
418,224,210176,1,0,3:0:0:0:
409,168,210264,1,0,3:0:0:0:
401,112,210352,5,4,3:0:0:0:
232,56,210529,1,0,3:0:0:0:
64,192,210705,1,8,3:0:0:0:
112,360,210882,1,0,3:0:0:0:
168,355,210970,1,0,3:0:0:0:
223,343,211058,1,0,3:0:0:0:
276,326,211146,1,0,3:0:0:0:
327,302,211234,1,0,3:0:0:0:
440,120,211411,1,8,3:0:0:0:
160,80,211588,1,0,3:0:0:0:
128,344,211764,6,0,L|80:232,1,112.500004291535,4|0,3:0|3:0,3:0:0:0:
168,64,212117,2,0,L|216:176,1,112.500004291535,8|0,3:0|3:0,3:0:0:0:
304,336,212470,1,8,3:0:0:0:
352,307,212558,1,8,3:0:0:0:
392,268,212646,1,8,3:0:0:0:
421,220,212734,1,8,3:0:0:0:
437,166,212823,2,8,P|432:88|384:64,1,112.500004291535,8|0,3:0|3:0,3:0:0:0:
120,72,213176,5,4,3:0:0:0:
160,328,213352,1,0,3:0:0:0:
248,144,213529,1,8,3:0:0:0:
456,192,213705,1,0,3:0:0:0:
413,228,213793,1,0,3:0:0:0:
366,259,213881,1,0,3:0:0:0:
316,284,213969,1,0,3:0:0:0:
262,302,214057,1,0,3:0:0:0:
88,336,214235,2,0,L|40:232,1,112.500004291535,8|0,3:0|3:0,3:0:0:0:
80,128,214588,5,4,3:0:0:0:
320,224,214764,1,0,3:0:0:0:
224,72,214941,1,8,3:0:0:0:
152,248,215117,1,0,3:0:0:0:
344,336,215294,1,0,3:0:0:0:
376,290,215382,1,0,3:0:0:0:
391,236,215470,1,0,3:0:0:0:
388,180,215558,1,0,3:0:0:0:
366,129,215647,2,0,P|288:104|240:96,1,112.500004291535,8|0,3:0|3:0,3:0:0:0:
64,128,215999,5,4,3:0:0:0:
184,336,216176,1,0,3:0:0:0:
312,136,216352,1,8,3:0:0:0:
72,208,216529,1,0,3:0:0:0:
97,258,216617,1,0,3:0:0:0:
136,298,216705,1,0,3:0:0:0:
185,325,216793,1,0,3:0:0:0:
240,335,216881,1,0,3:0:0:0:
424,288,217058,1,8,3:0:0:0:
424,288,217235,1,0,3:0:0:0:
432,40,217411,5,12,3:0:0:0:
184,152,217588,1,0,3:0:0:0:
104,352,217764,1,0,3:0:0:0:
368,32,217941,5,12,3:0:0:0:
173,187,218118,1,0,3:0:0:0:
384,352,218294,1,0,3:0:0:0:
80,56,218470,5,12,3:0:0:0:
456,272,218647,1,0,3:0:0:0:
400,80,218823,6,0,P|312:40|288:40,1,112.500004291535,4|0,3:0|3:0,3:0:0:0:
120,96,219176,1,8,3:0:0:0:
176,272,219352,1,0,3:0:0:0:
368,320,219529,1,0,3:0:0:0:
368,263,219617,1,0,3:0:0:0:
368,207,219705,1,0,3:0:0:0:
368,151,219793,1,0,3:0:0:0:
331,117,219881,1,8,3:0:0:0:
152,96,220058,1,0,3:0:0:0:
120,312,220235,5,4,3:0:0:0:
312,328,220411,1,0,3:0:0:0:
216,176,220588,1,8,3:0:0:0:
400,128,220764,1,0,3:0:0:0:
120,64,220941,1,0,3:0:0:0:
99,116,221029,1,0,3:0:0:0:
78,168,221117,1,0,3:0:0:0:
160,352,221294,1,8,3:0:0:0:
180,299,221382,1,0,3:0:0:0:
201,247,221470,1,0,3:0:0:0:
376,288,221647,5,4,3:0:0:0:
344,96,221823,1,0,3:0:0:0:
176,32,221999,2,0,L|64:72,1,112.500004291535,8|0,3:0|3:0,3:0:0:0:
80,224,222352,1,0,3:0:0:0:
112,269,222440,1,0,3:0:0:0:
154,306,222528,1,0,3:0:0:0:
204,332,222616,1,0,3:0:0:0:
259,345,222704,1,8,3:0:0:0:
369,330,222881,1,0,3:0:0:0:
144,208,223058,5,4,3:0:0:0:
392,320,223235,1,0,3:0:0:0:
344,72,223411,1,8,3:0:0:0:
144,272,223588,1,0,3:0:0:0:
432,184,223764,1,8,3:0:0:0:
387,149,223852,1,8,3:0:0:0:
339,120,223940,1,8,3:0:0:0:
288,97,224028,1,8,3:0:0:0:
232,96,224117,2,8,P|157:109|109:125,1,112.500004291535,8|0,3:0|3:0,3:0:0:0:
40,272,224470,5,4,3:0:0:0:
200,328,224647,2,0,L|320:352,1,112.500004291535,0|8,3:0|3:0,3:0:0:0:
448,344,224999,1,0,3:0:0:0:
416,176,225176,1,0,3:0:0:0:
389,126,225264,1,0,3:0:0:0:
347,89,225352,1,0,3:0:0:0:
295,69,225440,1,0,3:0:0:0:
239,68,225528,1,8,3:0:0:0:
56,128,225705,1,0,3:0:0:0:
80,320,225882,5,4,3:0:0:0:
224,168,226058,1,0,3:0:0:0:
456,176,226235,2,0,L|416:304,1,112.500004291535,8|0,3:0|3:0,3:0:0:0:
224,312,226588,1,0,3:0:0:0:
183,273,226676,1,0,3:0:0:0:
151,227,226764,1,0,3:0:0:0:
130,175,226852,1,0,3:0:0:0:
120,120,226941,2,0,P|168:64|200:88,1,112.500004291535,8|0,3:0|3:0,3:0:0:0:
360,136,227294,5,4,3:0:0:0:
240,344,227470,1,0,3:0:0:0:
391,162,227647,5,8,3:0:0:0:
208,317,227823,1,0,3:0:0:0:
80,232,227999,1,0,3:0:0:0:
87,176,228087,1,0,3:0:0:0:
95,120,228175,1,0,3:0:0:0:
147,98,228263,1,0,3:0:0:0:
198,75,228351,1,8,3:0:0:0:
384,48,228529,1,0,3:0:0:0:
448,168,228705,5,12,3:0:0:0:
423,218,228793,1,8,3:0:0:0:
392,265,228881,1,8,3:0:0:0:
356,308,228969,1,8,3:0:0:0:
315,347,229057,1,8,3:0:0:0:
96,232,229235,5,12,3:0:0:0:
120,181,229323,1,8,3:0:0:0:
151,134,229411,1,8,3:0:0:0:
187,91,229499,1,8,3:0:0:0:
228,52,229587,1,8,3:0:0:0:
352,40,229764,5,12,3:0:0:0:
128,312,229941,1,0,3:0:0:0:
56,72,230117,6,0,L|176:88,1,112.500004291535,4|0,3:0|3:0,3:0:0:0:
392,104,230470,1,8,3:0:0:0:
392,336,230647,1,0,3:0:0:0:
336,326,230735,1,0,3:0:0:0:
287,300,230823,1,0,3:0:0:0:
248,260,230911,1,0,3:0:0:0:
224,209,230999,1,0,3:0:0:0:
208,56,231176,2,0,L|96:96,1,112.500004291535,8|0,3:0|3:0,3:0:0:0:
64,256,231529,5,4,3:0:0:0:
280,328,231705,1,0,3:0:0:0:
424,112,231882,2,0,L|304:128,1,112.500004291535,8|0,3:0|3:0,3:0:0:0:
128,176,232235,1,0,3:0:0:0:
160,221,232323,1,0,3:0:0:0:
201,260,232411,1,0,3:0:0:0:
247,291,232499,1,0,3:0:0:0:
299,314,232588,2,0,P|376:240|384:224,1,112.500004291535,8|0,3:0|3:0,3:0:0:0:
376,32,232941,5,4,3:0:0:0:
64,96,233117,1,0,3:0:0:0:
384,128,233294,5,8,3:0:0:0:
72,32,233470,1,0,3:0:0:0:
128,288,233647,1,0,3:0:0:0:
180,269,233735,1,0,3:0:0:0:
224,234,233823,1,0,3:0:0:0:
255,188,233911,1,0,3:0:0:0:
270,134,233999,1,8,3:0:0:0:
288,32,234176,1,0,3:0:0:0:
448,56,234352,6,0,L|424:176,1,112.500004291535,4|0,3:0|3:0,3:0:0:0:
128,344,234705,2,0,L|152:224,1,112.500004291535,8|0,3:0|3:0,3:0:0:0:
336,40,235058,1,8,3:0:0:0:
326,95,235146,1,8,3:0:0:0:
316,150,235234,1,8,3:0:0:0:
307,206,235322,1,8,3:0:0:0:
297,261,235410,1,8,3:0:0:0:
72,312,235588,1,0,3:0:0:0:
64,64,235764,6,0,L|200:88,1,112.500004291535,4|0,3:0|3:0,3:0:0:0:
400,112,236117,1,8,3:0:0:0:
304,312,236294,1,0,3:0:0:0:
72,240,236470,1,0,3:0:0:0:
80,184,236558,1,0,3:0:0:0:
106,135,236646,1,0,3:0:0:0:
146,96,236734,1,0,3:0:0:0:
197,72,236822,1,8,3:0:0:0:
384,88,236999,1,0,3:0:0:0:
176,320,237176,5,4,3:0:0:0:
416,192,237352,1,0,3:0:0:0:
72,136,237529,2,0,L|144:248,1,112.500004291535,8|0,3:0|3:0,3:0:0:0:
272,264,237882,1,0,3:0:0:0:
302,216,237970,1,0,3:0:0:0:
332,169,238058,1,0,3:0:0:0:
280,56,238235,1,8,3:0:0:0:
224,62,238323,1,0,3:0:0:0:
168,69,238411,1,0,3:0:0:0:
32,168,238588,5,4,3:0:0:0:
256,312,238764,1,0,3:0:0:0:
464,168,238941,1,8,3:0:0:0:
200,312,239117,1,0,3:0:0:0:
72,176,239294,1,0,3:0:0:0:
111,136,239382,1,0,3:0:0:0:
158,104,239470,1,0,3:0:0:0:
210,83,239558,1,0,3:0:0:0:
265,72,239646,1,8,3:0:0:0:
432,152,239823,1,0,3:0:0:0:
385,314,239999,5,12,3:0:0:0:
300,317,240087,1,0,3:0:0:0:
220,290,240175,1,0,3:0:0:0:
153,237,240263,1,0,3:0:0:0:
107,167,240351,1,0,3:0:0:0:
436,60,240529,5,12,3:0:0:0:
448,144,240617,1,0,3:0:0:0:
423,225,240705,1,0,3:0:0:0:
366,287,240793,1,0,3:0:0:0:
290,319,240881,1,0,3:0:0:0:
204,317,240970,1,0,3:0:0:0:
129,279,241058,1,12,3:0:0:0:
77,212,241146,1,0,3:0:0:0:
58,129,241234,1,0,3:0:0:0:
176,80,241411,6,0,B|152:120|168:224|168:224|104:200|67:243|67:243|64:264|88:288,1,300,4|0,2:0|2:0,2:0:0:0:
192,304,243529,1,0,2:0:0:0:
440,296,244235,2,0,B|414:218|368:168|368:168|338:257|248:240,1,300,0|0,2:0|2:0,2:0:0:0:
144,96,246352,1,0,2:0:0:0:
80,200,247058,2,0,B|168:248|192:152|192:152|264:216|312:120,1,300,0|0,2:0|2:0,2:0:0:0:
256,320,249176,1,0,2:0:0:0:
400,320,249882,2,0,B|392:248|440:176|440:176|360:128|304:184|304:184|232:176|184:96|184:96|160:152|160:240,1,600,0|0,2:0|2:0,2:0:0:0:
368,328,254117,5,0,2:0:0:0:
344,320,254823,1,0,2:0:0:0:
320,312,255529,2,0,B|184:272|216:208|216:208|136:176|96:256,1,300,0|0,2:0|2:0,2:0:0:0:
80,336,257647,2,0,L|160:312,1,75,0|0,2:0|2:0,2:0:0:0:
392,184,258352,2,0,B|304:88|248:192|248:192|336:240|328:288,1,300,0|0,2:0|2:0,2:0:0:0:
320,352,260470,1,0,2:0:0:0:
56,336,261176,6,0,B|121:279|136:208|136:208|69:144|80:80|80:80|160:104|224:64|224:64|224:136|280:200|280:200|344:152|344:72|344:72|432:96|472:144|472:144|416:208|432:288|432:288|344:272|280:328,1,1200,0|0,2:0|2:0,2:0:0:0:
