osu file format v14

[General]
AudioFilename: audio.mp3
AudioLeadIn: 0
PreviewTime: -1
Countdown: 0
SampleSet: None
StackLeniency: 0.6
Mode: 0
LetterboxInBreaks: 0
WidescreenStoryboard: 1

[Editor]
Bookmarks: 33533,50085,65924
DistanceSpacing: 0.8
BeatDivisor: 4
GridSize: 8
TimelineZoom: 1.7

[Metadata]
Title:Mr. Blue Sky
TitleUnicode:Mr. Blue Sky
Artist:Electric Light Orchestra
ArtistUnicode:Electric Light Orchestra
Creator:banter
Version:ya2
Source:
Tags:
BeatmapID:2182114
BeatmapSetID:1043722

[Difficulty]
HPDrainRate:4
CircleSize:4
OverallDifficulty:8
ApproachRate:9
SliderMultiplier:1.9
SliderTickRate:1

[Events]
//Background and Video events
0,0,"xxxxxx2800.jpg",0,0
//Break Periods
//Storyboard Layer 0 (Background)
//Storyboard Layer 1 (Fail)
//Storyboard Layer 2 (Pass)
//Storyboard Layer 3 (Foreground)
//Storyboard Layer 4 (Overlay)
//Storyboard Sound Samples

[TimingPoints]
22300,360.916363636364,4,2,0,37,1,0
23742,355.516363636363,4,2,0,37,1,0
25164,355.116363636363,4,2,0,37,1,0
26584,348.416363636363,4,2,0,37,1,0
27977,359.216363636363,4,2,0,37,1,0
28695,343.516363636363,4,2,0,37,1,0
30069,344.916363636363,4,2,0,37,1,0
31793,348.816363636363,4,2,0,37,1,0
33188,345.846363636363,4,2,0,37,1,0
34139,-100,4,2,0,5,0,0
34225,-100,4,2,0,37,0,0
35176,-100,4,2,0,5,0,0
35263,-100,4,2,0,37,0,0
37251,-100,4,2,0,5,0,0
37338,-100,4,2,0,37,0,0
37684,-90.9090909090909,4,2,0,37,0,0
38375,-100,4,2,0,37,0,0
38635,-100,4,2,0,5,0,0
38721,-100,4,2,0,37,0,0
39067,-100,4,2,0,37,0,0
39759,341.146363636363,4,2,0,37,1,0
41805,348.146363636363,4,2,0,37,1,0
41805,-90.9090909090909,4,2,0,37,0,0
42153,-100,4,2,0,37,0,0
42414,-100,4,2,0,5,0,0
42501,-100,4,2,0,37,0,0
43545,-90.9090909090909,4,2,0,37,0,0
43807,-100,4,2,0,5,0,0
43893,342.146363636363,4,2,0,37,1,0
43893,-90.9090909090909,4,2,0,37,0,0
44235,-90.9090909090909,4,2,0,37,0,0
44577,-100,4,2,0,37,0,0
45945,-90.9090909090909,4,2,0,37,0,0
46288,349.146363636363,4,2,0,37,1,0
46288,-90.9090909090909,4,2,0,37,0,0
47335,-100,4,2,0,37,0,0
48033,342.146363636363,4,2,0,37,1,0
48717,-83.3333333333333,4,2,0,37,0,0
50428,-90.9090909090909,4,2,0,37,0,0
52138,346.146363636363,4,2,0,37,1,0
52138,-83.3333333333333,4,2,0,37,0,0
53176,-90.9090909090909,4,2,0,37,0,0
53522,-100,4,2,0,37,0,0
53868,347.946363636363,4,2,0,37,1,0
54215,-83.3333333333333,4,2,0,37,0,0
54911,341.946363636363,4,2,0,37,1,0
54911,-105.263157894737,4,2,0,37,0,0
55594,340.746363636363,4,2,0,37,1,0
55594,-100,4,2,0,37,0,0
56616,-105.263157894737,4,2,0,37,0,0
56956,-90.9090909090909,4,2,0,37,0,0
58319,-90.9090909090909,4,2,0,37,0,0
59360,340.746363636363,4,2,0,37,1,0
59360,-90.9090909090909,4,2,0,37,0,0
59700,-90.9090909090909,4,2,0,37,0,0
60398,346.346363636363,4,2,0,37,1,0
60398,-105.263157894737,4,2,0,37,0,0
61783,-90.9090909090909,4,2,0,37,0,0
62129,-95.2380952380952,4,2,0,37,0,0
62476,-86.9565217391304,4,2,0,37,0,0
62822,-80,4,2,0,37,0,0
63168,-74.0740740740741,4,2,0,37,0,0
63847,345.137111928797,4,2,0,37,1,0
64896,345.137019396701,4,2,0,37,1,0
65241,341.880341880342,4,2,0,37,1,0
65241,-83.3333333333333,4,2,0,37,0,0

[Colours]
Combo1 : 243,243,67
Combo2 : 137,168,239
Combo3 : 102,67,224
Combo4 : 242,228,132

[HitObjects]
70,116,26584,6,0,P|55:87|51:56,2,63.3333333333333
60,205,26932,2,0,P|30:195|4:176,2,63.3333333333333
115,275,27280,2,0,P|86:289|55:293,2,63.3333333333333
149,193,27629,1,0,0:0:0:0:
236,181,27745,1,0,0:0:0:0:
315,219,27861,1,0,0:0:0:0:
345,299,27977,5,0,0:0:0:0:
289,117,28336,1,0,0:0:0:0:
259,339,28695,1,0,0:0:0:0:
460,245,29038,1,0,0:0:0:0:
223,195,29382,2,0,P|187:109|237:29,2,190
333,256,30413,1,0,0:0:0:0:
289,117,30758,6,0,L|478:102,1,190
180,283,31448,2,0,B|124:321|124:321|-11:309,1,190
461,220,32141,2,0,P|498:304|452:384,2,190
203,316,33188,2,0,L|132:324,3,47.5
74,354,33533,6,0,L|98:225,1,95
0,142,33879,2,0,P|60:178|129:166,1,142.5
144,128,34225,2,0,L|243:119,1,95
78,67,34571,1,0,0:0:0:0:
313,54,34917,2,0,B|338:105|338:105|323:210,1,142.5
352,258,35263,2,0,B|365:163,1,95
448,82,35608,2,0,B|461:176,1,95
482,281,35954,1,0,0:0:0:0:
339,351,36300,1,0,0:0:0:0:
185,293,36646,6,0,P|138:286|91:294,1,95
222,372,36992,2,0,L|235:207,1,142.5
239,200,37338,1,0,0:0:0:0:
239,200,37684,2,0,P|252:131|208:44,1,156.750004783631
185,45,38029,2,0,L|79:34,1,104.500003189087
0,126,38375,2,0,L|141:142,1,142.5
141,142,38721,2,0,P|147:188|139:235,1,95
429,167,39067,5,0,0:0:0:0:
399,57,39413,1,0,0:0:0:0:
310,186,39759,6,0,P|325:230|355:267,1,95
396,374,40100,2,0,P|349:365|302:372,1,95
154,382,40441,2,0,P|208:337|238:273,1,142.5
239,241,40782,1,0,0:0:0:0:
200,86,41123,1,0,0:0:0:0:
70,179,41464,2,0,B|117:193|117:193|163:177,1,95
296,67,41805,6,0,P|369:42|444:60,1,156.750004783631
453,95,42153,2,0,B|466:222,1,95
379,273,42501,2,0,B|392:400,1,95
388,367,42849,1,0,0:0:0:0:
283,336,43023,1,0,0:0:0:0:
283,336,43197,2,0,P|226:332|183:339,1,95
13,226,43545,6,0,P|88:256|168:246,1,156.750004783631
220,182,43893,2,0,P|176:211|120:222,1,104.500003189087
40,64,44235,2,0,P|89:80|128:114,1,104.500003189087
290,248,44577,5,0,0:0:0:0:
391,213,44919,1,0,0:0:0:0:
488,75,45261,6,0,P|419:87|352:65,1,142.5
321,38,45603,2,0,L|205:26,1,95
170,126,45945,2,0,L|7:109,1,156.750004783631
14,109,46288,2,0,B|-6:56|-6:56|4:-14,1,104.500003189087
129,9,46637,1,0,0:0:0:0:
170,126,46986,1,0,0:0:0:0:
240,291,47335,6,0,B|344:318|322:252|424:280,2,190
115,237,48204,5,0,0:0:0:0:
115,237,48375,2,0,L|123:331,1,95
283,194,48717,6,0,P|291:138|271:85,1,113.999996520996
124,332,49059,2,0,P|68:340|15:319,1,113.999996520996
161,70,49401,2,0,P|217:65|270:85,1,113.999996520996
14,319,49743,2,0,P|-5:267|0:211,1,113.999996520996
247,322,50085,6,0,B|305:351|305:351|410:338,1,170.999994781494
446,324,50428,2,0,L|456:202,1,104.500003189087
311,147,50770,2,0,L|320:260,1,104.500003189087
461,130,51112,1,0,0:0:0:0:
300,57,51454,1,0,0:0:0:0:
161,163,51796,1,0,0:0:0:0:
78,31,52138,6,0,L|191:40,1,113.999996520996
14,149,52484,2,0,L|127:158,1,113.999996520996
69,276,52830,2,0,L|239:290,1,170.999994781494
239,290,53176,6,0,P|220:215|237:140,1,156.750004783631
263,111,53522,2,0,P|313:98|368:107,1,95
437,248,53868,1,0,0:0:0:0:
437,248,54215,2,0,B|472:148|383:129|419:27,1,227.999993041992
339,203,54911,2,0,B|286:235|269:301|269:301|243:281|211:280,1,180.49999518013
110,380,55594,2,0,P|92:313|24:244,1,142.5
10,250,55934,5,0,0:0:0:0:
174,289,56275,1,0,0:0:0:0:
221,191,56445,5,0,0:0:0:0:
221,191,56616,2,0,L|375:203,1,135.374996385098
398,223,56956,6,0,P|422:263|428:328,1,104.500003189087
281,375,57297,2,0,P|256:334|251:270,1,104.500003189087
408,112,57638,2,0,P|331:112|260:71,1,156.750004783631
229,104,57979,2,0,L|220:0,1,104.500003189087
103,118,58319,6,0,B|68:167|68:167|82:282,1,156.750004783631
110,295,58660,2,0,L|214:303,1,104.500003189087
394,218,59001,2,0,L|498:226,1,104.500003189087
311,327,59360,2,0,L|302:222,1,104.500003189087
287,39,59700,2,0,P|358:69|436:66,1,156.750004783631
468,39,60041,1,0,0:0:0:0:
238,134,60398,2,0,P|158:132|90:148,1,135.374996385098
75,172,60744,1,0,0:0:0:0:
302,222,61090,5,0,0:0:0:0:
287,39,61437,1,0,0:0:0:0:
114,231,61783,6,0,P|56:282|32:356,1,156.750004783631
57,384,62129,2,0,P|108:390|159:383,1,99.7499969558717
334,383,62476,2,0,P|377:349|405:302,1,109.250002083778
471,132,62822,2,0,P|458:52|423:-15,1,118.75
138,66,63168,2,0,P|231:87|327:88,1,192.375000733852
361,73,63515,1,0,0:0:0:0:
254,202,63688,1,0,0:0:0:0:
254,202,63850,6,0,B|239:271|239:271|256:325|256:325|247:387,2,190
350,259,64752,5,0,0:0:0:0:
349,258,64896,2,0,P|396:266|467:261,1,95
148,215,65241,6,0,P|134:285|152:341,1,113.999996520996
296,116,65582,2,0,P|350:132|392:173,1,113.999996520996
148,215,65924,2,0,P|91:197|51:157,1,113.999996520996
298,6,66265,2,0,P|309:62|295:116,1,113.999996520996
153,55,66608,5,0,0:0:0:0:
299,296,67976,5,0,0:0:0:0:
307,308,68317,1,0,0:0:0:0:
461,270,69343,5,0,0:0:0:0:
