osu file format v14

[General]
AudioFilename: audio.mp3
AudioLeadIn: 0
PreviewTime: 46270
Countdown: 0
SampleSet: Soft
StackLeniency: 1
Mode: 2
LetterboxInBreaks: 0
WidescreenStoryboard: 1

[Editor]
Bookmarks: 15550,30910,46270,61630,76990,92350,107710,123070,138430,153790,169150
DistanceSpacing: 1
BeatDivisor: 4
GridSize: 16
TimelineZoom: 1.9

[Metadata]
Title:Suzuki
TitleUnicode:Suzuki
Artist:Eldzhey
ArtistUnicode:Элджей
Creator:M0RU
Version:Nelly's Platter
Source:
Tags:Nelly Sayonara Boy X Medet Shayakhmetov русский russian hip-hop rap Allj
BeatmapID:3554287
BeatmapSetID:1729039

[Difficulty]
HPDrainRate:4
CircleSize:3.7
OverallDifficulty:7.5
ApproachRate:7.5
SliderMultiplier:2.4
SliderTickRate:1

[Events]
//Background and Video events
0,0,"bg2.jpg",0,0
//Break Periods
//Storyboard Layer 0 (Background)
//Storyboard Layer 1 (Fail)
//Storyboard Layer 2 (Pass)
//Storyboard Layer 3 (Foreground)
//Storyboard Layer 4 (Overlay)
//Storyboard Sound Samples

[TimingPoints]
190,480,4,2,0,40,1,0
2110,-100,4,2,0,40,0,0
3550,-100,4,2,0,40,0,0
5950,-100,4,2,0,40,0,0
7390,-100,4,2,0,40,0,0
7870,-100,4,2,0,50,0,0
13630,-100,4,2,0,5,0,0
13750,-100,4,2,0,7,0,0
13870,-100,4,2,0,8,0,0
13990,-100,4,2,0,10,0,0
14110,-100,4,2,0,15,0,0
14230,-100,4,2,0,20,0,0
14350,-100,4,2,0,25,0,0
14470,-100,4,2,0,35,0,0
14590,-100,4,2,0,45,0,0
14710,-100,4,2,0,50,0,0
14830,-100,4,2,0,55,0,0
14950,-100,4,2,0,65,0,0
15070,-100,4,2,0,35,0,0
15550,-100,4,2,0,55,0,0
30910,-100,4,2,0,60,0,0
44350,-100,4,2,0,35,0,0
46270,-100,4,2,0,75,0,1
46510,-100,4,2,0,65,0,0
49150,-100,4,2,0,65,0,0
49510,-100,4,2,0,65,0,0
53950,-100,4,2,0,75,0,1
54190,-100,4,2,0,65,0,0
56830,-100,4,2,0,65,0,0
57190,-100,4,2,0,65,0,0
61630,-55.5555555555556,4,2,0,75,0,1
61870,-100,4,2,0,65,0,0
61990,-55.5555555555556,4,2,0,65,0,1
62230,-100,4,2,0,65,0,0
62350,-55.5555555555556,4,2,0,65,0,1
62590,-100,4,2,0,65,0,0
62710,-55.5555555555556,4,2,0,65,0,1
62950,-100,4,2,0,65,0,0
63070,-100,4,2,0,85,0,1
63310,-100,4,2,0,65,0,0
64510,-100,4,2,0,65,0,0
64870,-100,4,2,0,65,0,0
69310,-55.5555555555556,4,2,0,75,0,1
69550,-100,4,2,0,65,0,0
69670,-55.5555555555556,4,2,0,65,0,1
69910,-100,4,2,0,65,0,0
70030,-55.5555555555556,4,2,0,65,0,1
70270,-100,4,2,0,65,0,0
70390,-55.5555555555556,4,2,0,65,0,1
70630,-100,4,2,0,65,0,0
70750,-100,4,2,0,85,0,1
70990,-100,4,2,0,65,0,0
72190,-100,4,2,0,65,0,0
72550,-100,4,2,0,65,0,0
76990,-100,4,3,0,40,0,0
82750,-100,4,3,0,45,0,0
83230,-100,4,3,0,40,0,0
83710,-100,4,3,0,50,0,0
84430,-100,4,3,0,40,0,0
84670,-100,4,3,0,45,0,0
92350,-100,4,2,0,60,0,0
107710,-100,4,2,0,45,0,0
115390,-100,4,2,0,50,0,0
121150,-100,4,2,0,5,0,0
121270,-100,4,2,0,7,0,0
121390,-100,4,2,0,10,0,0
121510,-100,4,2,0,15,0,0
121630,-100,4,2,0,25,0,0
121750,-100,4,2,0,30,0,0
121870,-100,4,2,0,35,0,0
121990,-100,4,2,0,40,0,0
122110,-100,4,2,0,45,0,0
122230,-100,4,2,0,55,0,0
122350,-100,4,2,0,60,0,0
122470,-100,4,2,0,65,0,0
122590,-100,4,2,0,35,0,0
123070,-100,4,2,0,75,0,1
123310,-100,4,2,0,65,0,0
125950,-100,4,2,0,65,0,0
126310,-100,4,2,0,65,0,0
130750,-100,4,2,0,65,0,1
130990,-100,4,2,0,65,0,0
133630,-100,4,2,0,65,0,0
133990,-100,4,2,0,65,0,0
138430,-55.5555555555556,4,2,0,65,0,1
138670,-100,4,2,0,65,0,0
138790,-55.5555555555556,4,2,0,65,0,1
139030,-100,4,2,0,65,0,0
139150,-55.5555555555556,4,2,0,65,0,1
139390,-100,4,2,0,65,0,0
139510,-55.5555555555556,4,2,0,65,0,1
139750,-100,4,2,0,65,0,0
139870,-100,4,2,0,65,0,1
140110,-100,4,2,0,65,0,0
141310,-100,4,2,0,65,0,0
141670,-100,4,2,0,65,0,0
146110,-55.5555555555556,4,2,0,65,0,1
146350,-100,4,2,0,65,0,0
146470,-55.5555555555556,4,2,0,65,0,1
146710,-100,4,2,0,65,0,0
146830,-55.5555555555556,4,2,0,65,0,1
147070,-100,4,2,0,65,0,0
147190,-55.5555555555556,4,2,0,65,0,1
147430,-100,4,2,0,65,0,0
147550,-100,4,2,0,65,0,1
147790,-100,4,2,0,65,0,0
148990,-100,4,2,0,65,0,0
149350,-100,4,2,0,65,0,0
153790,-100,4,3,0,45,0,0

[Colours]
Combo1 : 172,29,50
Combo2 : 199,179,150
Combo3 : 151,47,102
Combo4 : 188,85,68

[HitObjects]
80,256,190,5,2,0:0:0:0:
80,256,550,1,0,0:0:0:0:
80,256,910,1,0,0:0:0:0:
80,256,1270,1,0,0:0:0:0:
80,256,1630,1,8,0:0:0:0:
256,224,2110,5,2,0:0:0:0:
256,224,2470,1,0,0:0:0:0:
256,224,2830,1,0,0:0:0:0:
256,224,3190,1,0,0:0:0:0:
256,224,3550,1,8,0:0:0:0:
432,256,4030,5,2,0:0:0:0:
432,256,4390,1,0,0:0:0:0:
432,256,4750,1,0,0:0:0:0:
432,256,5110,1,0,0:0:0:0:
432,256,5470,1,8,0:0:0:0:
256,224,5950,5,2,0:0:0:0:
256,224,6310,1,0,0:0:0:0:
256,224,6670,1,0,0:0:0:0:
256,224,7030,1,0,0:0:0:0:
256,224,7390,1,10,0:0:0:0:
80,256,7870,5,2,0:0:0:0:
80,256,8230,1,0,0:0:0:0:
80,256,8590,1,0,0:0:0:0:
80,256,8950,1,0,0:0:0:0:
80,256,9310,1,8,0:0:0:0:
256,224,9790,5,2,0:0:0:0:
256,224,10150,1,0,0:0:0:0:
256,224,10510,1,0,0:0:0:0:
256,224,10870,1,0,0:0:0:0:
256,224,11230,1,8,0:0:0:0:
432,256,11710,5,2,0:0:0:0:
432,256,12070,1,0,0:0:0:0:
432,256,12430,1,0,0:0:0:0:
432,256,12790,1,0,0:0:0:0:
432,256,13150,1,8,0:0:0:0:
256,192,13630,12,0,15070,0:0:0:0:
81,48,15550,6,0,L|76:228,1,180,2|2,0:0|0:0,0:0:0:0:
256,320,16270,2,0,L|76:315,2,180,2|2|8,0:0|0:0|0:0,0:0:0:0:
431,48,17470,6,0,L|436:228,1,180,2|2,0:0|0:0,0:0:0:0:
256,320,18190,2,0,L|436:315,2,180,2|2|8,0:0|0:0|0:0,0:0:0:0:
76,195,19390,6,0,L|255:198,1,180,2|2,0:0|0:0,0:0:0:0:
315,201,19870,1,8,0:0:0:0:
196,115,20110,1,2,0:0:0:0:
316,109,20350,2,0,L|318:228,1,120,2|0,0:0|0:0,0:0:0:0:
198,210,20830,2,0,L|196:329,1,120,8|2,0:0|3:0,0:0:0:0:
316,355,21310,6,0,L|435:352,1,120,2|0,0:0|0:0,0:0:0:0:
437,304,21670,1,2,0:0:0:0:
438,256,21790,1,8,0:0:0:0:
318,221,22030,1,2,0:0:0:0:
138,103,22390,2,0,L|318:98,1,180,2|8,0:0|0:0,0:0:0:0:
320,188,22990,1,2,3:0:0:0:
80,336,23230,6,0,L|76:156,1,180,0|0,0:0|0:0,0:0:0:0:
256,64,23950,2,0,L|76:69,2,180,0|0|0,0:0|0:0|0:0,0:0:0:0:
431,335,25150,6,0,L|436:156,1,180,2|2,0:0|0:0,0:0:0:0:
256,64,25870,2,0,L|436:68,2,180,2|2|8,0:0|0:0|0:0,0:0:0:0:
76,188,27070,6,0,L|255:183,1,180,2|2,0:0|0:0,0:0:0:0:
315,181,27550,1,8,0:0:0:0:
195,268,27790,1,0,0:0:0:0:
316,275,28030,2,0,L|317:155,1,120,2|0,3:0|3:0,0:0:0:0:
197,174,28510,2,0,L|195:55,1,120,8|2,0:0|3:0,0:0:0:0:
316,29,28990,6,0,L|435:32,1,120,2|0,0:0|0:0,0:0:0:0:
437,80,29350,1,2,0:0:0:0:
438,128,29470,1,8,0:0:0:0:
318,162,29710,1,2,0:0:0:0:
138,280,30070,2,0,L|317:285,1,180,2|8,0:0|0:0,0:0:0:0:
320,196,30670,1,0,3:0:0:0:
80,59,30910,6,0,L|78:241,1,180,2|2,0:0|0:0,0:0:0:0:
138,241,31390,1,8,0:0:0:0:
258,250,31630,2,0,L|259:70,1,180,0|0,0:0|0:0,0:0:0:0:
440,55,32350,1,0,0:0:0:0:
441,102,32470,1,2,0:0:0:0:
442,149,32590,1,2,0:0:0:0:
322,333,32830,6,0,L|320:151,1,180,0|0,3:0|0:0,0:0:0:0:
248,219,33310,2,0,L|246:97,1,120,8|2,0:0|0:0,0:0:0:0:
366,72,33790,1,2,0:0:0:0:
246,69,34030,1,0,0:0:0:0:
30,62,34270,2,0,L|28:181,1,120,8|0,0:0|0:0,0:0:0:0:
268,339,34750,6,0,L|269:156,1,180,2|2,0:0|0:0,0:0:0:0:
210,156,35230,1,8,0:0:0:0:
90,147,35470,2,0,L|88:327,1,180,0|0,0:0|0:0,0:0:0:0:
268,349,36190,1,0,0:0:0:0:
269,302,36310,1,2,0:0:0:0:
270,255,36430,1,2,0:0:0:0:
150,299,36670,6,0,L|148:117,1,180,0|0,0:0|0:0,0:0:0:0:
76,187,37150,2,0,L|74:65,1,120,8|2,0:0|0:0,0:0:0:0:
194,148,37630,2,0,L|196:26,1,120,2|0,0:0|0:0,0:0:0:0:
412,131,38110,2,0,L|414:9,1,120,8|2,0:0|0:0,0:0:0:0:
174,29,38590,6,0,L|173:212,1,180,0|0,0:0|0:0,0:0:0:0:
232,211,39070,1,8,0:0:0:0:
352,311,39310,2,0,L|172:309,1,180,0|0,0:0|0:0,0:0:0:0:
352,226,40030,1,8,0:0:0:0:
353,179,40150,1,2,0:0:0:0:
354,132,40270,1,2,0:0:0:0:
474,80,40510,6,0,L|476:261,1,180,0|0,0:0|0:0,0:0:0:0:
404,192,40990,2,0,L|402:314,1,120,8|2,0:0|0:0,0:0:0:0:
282,305,41470,1,0,0:0:0:0:
162,300,41710,1,0,0:0:0:0:
378,243,41950,2,0,L|379:123,1,120,8|0,0:0|3:0,0:0:0:0:
139,32,42430,6,0,L|138:215,1,180,0|0,0:0|0:0,0:0:0:0:
197,214,42910,1,8,0:0:0:0:
317,305,43150,2,0,L|137:307,2,180,0|0|8,0:0|0:0|0:0,0:0:0:0:
76,198,44350,5,2,3:0:0:0:
76,198,44830,1,8,0:0:0:0:
76,198,45790,1,8,0:0:0:0:
76,198,46030,1,0,3:0:0:0:
390,199,46270,6,0,P|428:191|390:97,1,180,4|0,2:0|0:0,0:0:0:0:
330,96,46750,2,0,L|449:94,1,120,0|0,0:0|0:0,0:0:0:0:
234,41,47230,2,0,L|232:162,1,120,2|2,0:0|0:0,0:0:0:0:
352,193,47710,1,8,0:0:0:0:
412,191,47830,1,2,0:0:0:0:
352,193,47950,1,2,0:0:0:0:
136,204,48190,5,0,0:0:0:0:
256,192,48430,2,0,L|257:72,1,120,0|8,0:0|0:0,0:0:0:0:
377,61,48910,1,2,0:0:0:0:
161,55,49150,1,0,0:0:0:0:
8,65,49510,1,2,0:0:0:0:
59,61,49630,1,8,0:0:0:0:
161,55,49870,1,0,0:0:0:0:
377,55,50110,6,0,L|498:58,1,120,0|2,0:0|0:0,0:0:0:0:
377,152,50590,2,0,L|372:272,1,120,8|0,0:0|0:0,0:0:0:0:
156,348,51070,2,0,L|151:228,1,120,0|2,0:0|0:0,0:0:0:0:
271,158,51550,1,8,0:0:0:0:
211,153,51670,2,0,L|200:92,1,60,2|2,0:0|0:0,0:0:0:0:
416,70,52030,6,0,L|417:190,1,120,0|0,0:0|0:0,0:0:0:0:
297,214,52510,2,0,L|296:94,1,120,8|2,0:0|0:0,0:0:0:0:
79,30,52990,1,0,0:0:0:0:
232,40,53350,1,2,0:0:0:0:
181,37,53470,1,8,0:0:0:0:
79,30,53710,1,0,0:0:0:0:
386,199,53950,6,0,P|424:191|386:97,1,180,4|0,0:0|0:0,0:0:0:0:
326,96,54430,2,0,L|445:94,1,120,8|0,0:0|0:0,0:0:0:0:
230,41,54910,2,0,L|228:162,1,120,0|0,0:0|0:0,0:0:0:0:
348,193,55390,1,8,0:0:0:0:
408,191,55510,1,2,0:0:0:0:
348,193,55630,1,0,0:0:0:0:
132,204,55870,5,0,0:0:0:0:
252,192,56110,2,0,L|253:72,1,120,0|8,0:0|0:0,0:0:0:0:
373,61,56590,1,2,0:0:0:0:
157,55,56830,1,0,0:0:0:0:
4,65,57190,1,2,0:0:0:0:
55,62,57310,1,8,0:0:0:0:
157,55,57550,1,2,0:0:0:0:
373,75,57790,6,0,L|374:195,1,120,0|2,0:0|0:0,0:0:0:0:
253,200,58270,1,8,0:0:0:0:
373,194,58510,1,0,0:0:0:0:
157,306,58750,2,0,L|277:305,1,120,0|2,0:0|0:0,0:0:0:0:
397,203,59230,1,8,0:0:0:0:
337,202,59350,1,2,0:0:0:0:
277,202,59470,1,2,0:0:0:0:
61,192,59710,6,0,L|60:72,1,120,0|0,0:0|0:0,0:0:0:0:
181,67,60190,1,8,0:0:0:0:
61,73,60430,1,2,0:0:0:0:
277,67,60670,1,2,0:0:0:0:
430,77,61030,1,2,0:0:0:0:
379,74,61150,1,8,0:0:0:0:
277,67,61390,1,2,0:0:0:0:
177,186,61630,6,0,L|394:183,1,215.999993408203,4|2,0:0|0:0,0:0:0:0:
393,272,61990,6,0,L|176:269,1,215.999993408203,4|0,3:0|0:0,0:0:0:0:
177,186,62350,6,0,L|394:183,1,215.999993408203,4|0,0:0|0:0,0:0:0:0:
393,272,62710,6,0,L|176:269,1,215.999993408203,4|0,3:0|0:0,0:0:0:0:
177,186,63070,6,0,L|301:183,1,120,4|2,0:0|0:0,0:0:0:0:
81,25,63550,6,0,L|80:145,1,120,0|0,0:0|0:0,0:0:0:0:
140,151,63910,1,0,0:0:0:0:
200,157,64030,2,0,L|201:277,1,120,8|2,0:0|0:0,0:0:0:0:
417,339,64510,1,0,0:0:0:0:
264,349,64870,1,2,0:0:0:0:
315,347,64990,1,8,0:0:0:0:
417,339,65230,1,2,0:0:0:0:
201,248,65470,6,0,L|80:245,1,120,0|2,0:0|0:0,0:0:0:0:
201,150,65950,1,8,0:0:0:0:
82,147,66190,1,0,0:0:0:0:
298,56,66430,2,0,L|419:53,1,120,0|2,0:0|0:0,0:0:0:0:
298,150,66910,1,8,0:0:0:0:
358,153,67030,2,0,L|360:212,1,60,2|2,0:0|0:0,0:0:0:0:
144,273,67390,5,0,0:0:0:0:
264,261,67630,2,0,L|265:141,1,120,0|8,0:0|0:0,0:0:0:0:
385,130,68110,1,2,0:0:0:0:
169,61,68350,1,2,0:0:0:0:
323,50,68710,1,2,0:0:0:0:
272,53,68830,1,8,0:0:0:0:
169,61,69070,1,0,0:0:0:0:
49,159,69310,6,0,L|266:155,1,215.999993408203,4|2,0:0|0:0,0:0:0:0:
265,244,69670,6,0,L|48:241,1,215.999993408203,4|0,3:0|0:0,0:0:0:0:
49,159,70030,6,0,L|266:155,1,215.999993408203,4|0,0:0|0:0,0:0:0:0:
265,244,70390,6,0,L|48:241,1,215.999993408203,4|0,3:0|0:0,0:0:0:0:
52,165,70750,6,0,L|176:162,1,120,4|2,0:0|0:0,0:0:0:0:
377,48,71230,6,0,L|256:45,1,120,0|0,0:0|0:0,0:0:0:0:
137,139,71710,2,0,L|258:136,1,120,8|2,0:0|0:0,0:0:0:0:
473,251,72190,1,0,0:0:0:0:
319,240,72550,1,2,0:0:0:0:
370,244,72670,1,8,0:0:0:0:
473,251,72910,1,2,0:0:0:0:
257,369,73150,6,0,L|256:249,1,120,0|2,0:0|0:0,0:0:0:0:
377,175,73630,1,8,0:0:0:0:
257,169,73870,1,0,0:0:0:0:
41,153,74110,2,0,L|40:33,1,120,0|2,0:0|0:0,0:0:0:0:
160,24,74590,1,8,0:0:0:0:
101,22,74710,1,2,0:0:0:0:
41,21,74830,1,2,0:0:0:0:
257,107,75070,5,0,0:0:0:0:
137,130,75310,2,0,L|136:250,1,120,0|8,0:0|0:0,0:0:0:0:
256,272,75790,1,2,0:0:0:0:
40,351,76030,1,2,0:0:0:0:
194,340,76390,1,0,2:0:0:0:
143,345,76510,1,8,3:2:0:0:
40,351,76750,1,0,3:0:0:0:
256,268,76990,5,2,0:0:0:0:
256,268,77350,1,0,0:0:0:0:
256,268,77710,1,2,0:0:0:0:
256,268,78070,1,0,0:0:0:0:
256,268,78430,1,2,0:0:0:0:
432,236,78910,5,2,0:0:0:0:
432,236,79270,1,0,0:0:0:0:
432,236,79630,1,2,0:0:0:0:
432,236,79990,1,0,0:0:0:0:
432,236,80350,1,2,0:0:0:0:
256,268,80830,5,2,0:0:0:0:
256,268,81190,1,0,0:0:0:0:
256,268,81550,1,2,0:0:0:0:
256,268,81910,1,0,0:0:0:0:
256,268,82270,1,2,0:0:0:0:
80,236,82750,5,2,2:0:0:0:
80,236,83110,1,0,0:0:0:0:
80,236,83470,1,0,0:0:0:0:
80,236,83830,1,0,0:0:0:0:
80,236,84190,1,0,0:0:0:0:
256,268,84670,5,2,0:0:0:0:
256,268,85030,1,0,0:0:0:0:
256,268,85390,1,2,0:0:0:0:
256,268,85750,1,0,0:0:0:0:
256,268,86110,1,2,0:0:0:0:
432,236,86590,5,2,0:0:0:0:
432,236,86950,1,0,0:0:0:0:
432,236,87310,1,2,0:0:0:0:
432,236,87670,1,0,0:0:0:0:
432,236,88030,1,2,0:0:0:0:
256,268,88510,5,2,0:0:0:0:
256,268,88870,1,0,0:0:0:0:
256,268,89230,1,2,0:0:0:0:
256,268,89590,1,0,0:0:0:0:
256,268,89950,1,2,0:0:0:0:
80,236,90430,5,0,0:0:0:0:
80,236,90790,1,0,0:0:0:0:
80,236,91150,1,0,0:0:0:0:
80,236,91510,1,0,0:0:0:0:
80,236,91870,1,0,0:0:0:0:
256,268,92350,5,4,0:0:0:0:
376,242,92590,1,2,0:0:0:0:
376,182,92710,1,0,0:0:0:0:
377,122,92830,1,0,0:0:0:0:
258,84,93070,1,0,0:0:0:0:
42,78,93310,2,0,L|41:198,1,120,0|0,0:0|0:0,0:0:0:0:
161,294,93790,1,2,0:0:0:0:
101,293,93910,1,0,0:0:0:0:
41,293,94030,1,2,0:0:0:0:
257,93,94270,6,0,L|137:91,1,120,0|0,0:0|0:0,0:0:0:0:
125,152,94630,1,0,0:0:0:0:
137,212,94750,2,0,L|257:210,1,120,8|2,0:0|0:0,0:0:0:0:
473,61,95230,6,0,L|475:243,1,180,0|0,0:0|0:0,0:0:0:0:
403,191,95710,2,0,L|402:311,1,120,8|0,0:0|0:0,0:0:0:0:
186,344,96190,5,0,0:0:0:0:
306,318,96430,1,2,0:0:0:0:
306,258,96550,1,0,0:0:0:0:
307,198,96670,1,8,0:0:0:0:
427,173,96910,1,0,0:0:0:0:
211,184,97150,2,0,L|210:64,1,120,0|2,0:0|0:0,0:0:0:0:
330,34,97630,1,0,0:0:0:0:
390,35,97750,1,2,0:0:0:0:
330,34,97870,1,2,0:0:0:0:
114,34,98110,6,0,L|112:153,1,120,0|0,0:0|0:0,0:0:0:0:
172,157,98470,1,0,0:0:0:0:
232,159,98590,2,0,L|234:278,1,120,8|2,0:0|0:0,0:0:0:0:
18,332,99070,1,2,0:0:0:0:
138,306,99310,1,0,0:0:0:0:
138,246,99430,1,2,0:0:0:0:
139,186,99550,1,8,0:0:0:0:
20,148,99790,1,2,0:0:0:0:
236,65,100030,6,0,L|356:63,1,120,0|2,0:0|0:0,0:0:0:0:
368,124,100390,1,0,0:0:0:0:
356,184,100510,2,0,L|236:182,1,120,8|0,0:0|0:0,0:0:0:0:
452,344,100990,2,0,L|454:161,1,180,0|0,0:0|0:0,0:0:0:0:
382,213,101470,2,0,L|381:92,1,120,8|0,0:0|0:0,0:0:0:0:
165,50,101950,6,0,L|285:48,1,120,0|0,0:0|0:0,0:0:0:0:
285,108,102310,1,0,0:0:0:0:
286,168,102430,2,0,L|406:166,1,120,8|2,0:0|0:0,0:0:0:0:
190,273,102910,1,0,0:0:0:0:
310,263,103150,2,0,L|312:24,1,240,0|0,0:0|0:0,0:0:0:0:
96,33,103870,5,2,0:0:0:0:
216,59,104110,1,0,0:0:0:0:
216,119,104230,1,0,0:0:0:0:
217,179,104350,1,8,0:0:0:0:
97,203,104590,1,0,0:0:0:0:
313,344,104830,1,0,0:0:0:0:
193,334,105070,2,0,L|191:95,1,240,0|0,0:0|0:0,0:0:0:0:
407,36,105790,6,0,L|408:155,1,120,0|0,0:0|0:0,0:0:0:0:
347,158,106150,1,2,0:0:0:0:
287,161,106270,2,0,L|284:280,1,120,8|2,0:0|0:0,0:0:0:0:
68,62,106750,5,2,0:0:0:0:
188,72,106990,2,0,L|190:313,1,240,0|0,0:0|3:0,0:0:0:0:
407,59,107710,6,0,L|409:241,1,180,2|2,0:0|0:0,0:0:0:0:
349,241,108190,1,8,0:0:0:0:
229,250,108430,2,0,L|228:70,1,180,2|2,0:0|0:0,0:0:0:0:
47,55,109150,1,8,0:0:0:0:
238,328,109630,6,0,L|240:146,1,180,2|2,0:0|0:0,0:0:0:0:
312,215,110110,2,0,L|313:91,1,120,8|2,0:0|0:0,0:0:0:0:
133,57,110710,2,0,L|132:236,1,180,2|8,0:0|0:0,0:0:0:0:
325,332,111550,6,0,L|326:149,1,180,2|2,0:0|0:0,0:0:0:0:
267,149,112030,1,8,0:0:0:0:
147,56,112270,2,0,L|327:54,2,180,2|2|8,0:0|0:0|0:0,0:0:0:0:
338,303,113470,6,0,L|340:121,1,180,2|2,0:0|0:0,0:0:0:0:
412,191,113950,2,0,L|414:69,1,120,8|0,0:0|0:0,0:0:0:0:
234,64,114550,1,2,0:0:0:0:
54,58,114910,2,0,L|52:177,1,120,8|0,0:0|3:0,0:0:0:0:
268,358,115390,6,0,L|269:175,1,180,0|0,0:0|0:0,0:0:0:0:
210,176,115870,1,8,0:0:0:0:
90,172,116110,1,2,0:0:0:0:
210,32,116350,2,0,L|212:151,1,120,0|2,3:0|0:0,0:0:0:0:
332,206,116830,1,8,0:0:0:0:
117,354,117310,6,0,L|116:171,1,180,2|2,0:0|0:0,0:0:0:0:
176,168,117790,1,8,0:0:0:0:
296,164,118030,1,2,0:0:0:0:
416,262,118270,2,0,L|297:260,1,120,0|0,0:0|0:0,0:0:0:0:
176,254,118750,1,8,0:0:0:0:
393,353,119230,6,0,L|394:170,1,180,2|2,0:0|0:0,0:0:0:0:
334,167,119710,1,8,0:0:0:0:
214,163,119950,1,2,0:0:0:0:
334,57,120190,2,0,L|215:59,2,120,0|0|0,0:0|0:0|0:0,0:0:0:0:
256,192,121150,12,0,122590,0:0:0:0:
122,199,123070,6,0,P|84:191|122:97,1,180,4|0,0:0|0:0,0:0:0:0:
182,96,123550,2,0,L|63:94,1,120,8|0,0:0|0:0,0:0:0:0:
278,41,124030,2,0,L|280:162,1,120,0|2,0:0|0:0,0:0:0:0:
160,193,124510,1,8,0:0:0:0:
100,191,124630,1,0,0:0:0:0:
160,193,124750,1,0,0:0:0:0:
376,204,124990,5,0,0:0:0:0:
256,192,125230,2,0,L|255:72,1,120,0|8,0:0|0:0,0:0:0:0:
135,61,125710,1,2,0:0:0:0:
351,55,125950,1,2,0:0:0:0:
504,65,126310,1,2,0:0:0:0:
453,61,126430,1,8,0:0:0:0:
351,55,126670,1,2,0:0:0:0:
135,55,126910,6,0,L|14:58,1,120,0|2,0:0|0:0,0:0:0:0:
135,152,127390,2,0,L|140:272,1,120,8|0,0:0|0:0,0:0:0:0:
356,348,127870,2,0,L|361:228,1,120,0|2,0:0|0:0,0:0:0:0:
241,158,128350,1,8,0:0:0:0:
301,153,128470,2,0,L|312:92,1,60,2|2,0:0|0:0,0:0:0:0:
96,70,128830,6,0,L|95:190,1,120,0|0,0:0|0:0,0:0:0:0:
215,214,129310,2,0,L|216:94,1,120,8|2,0:0|0:0,0:0:0:0:
433,30,129790,1,2,0:0:0:0:
280,40,130150,1,2,0:0:0:0:
331,37,130270,1,8,0:0:0:0:
433,30,130510,1,2,0:0:0:0:
126,199,130750,6,0,P|88:191|126:97,1,180,4|0,0:0|0:0,0:0:0:0:
186,96,131230,2,0,L|67:94,1,120,8|0,0:0|0:0,0:0:0:0:
282,41,131710,2,0,L|284:162,1,120,0|2,0:0|0:0,0:0:0:0:
164,193,132190,1,8,0:0:0:0:
104,191,132310,1,2,0:0:0:0:
164,193,132430,1,2,0:0:0:0:
380,204,132670,5,0,0:0:0:0:
260,192,132910,2,0,L|259:72,1,120,0|8,0:0|0:0,0:0:0:0:
139,61,133390,1,2,0:0:0:0:
355,55,133630,1,2,0:0:0:0:
508,65,133990,1,2,0:0:0:0:
457,62,134110,1,8,0:0:0:0:
355,55,134350,1,2,0:0:0:0:
139,75,134590,6,0,L|138:195,1,120,0|2,0:0|0:0,0:0:0:0:
259,200,135070,1,8,0:0:0:0:
139,194,135310,1,0,0:0:0:0:
355,306,135550,2,0,L|235:305,1,120,0|2,0:0|0:0,0:0:0:0:
115,203,136030,1,8,0:0:0:0:
175,202,136150,1,2,0:0:0:0:
235,202,136270,1,2,0:0:0:0:
451,192,136510,6,0,L|452:72,1,120,0|0,0:0|0:0,0:0:0:0:
331,67,136990,1,8,0:0:0:0:
451,73,137230,1,2,0:0:0:0:
235,67,137470,1,2,0:0:0:0:
82,77,137830,1,0,0:0:0:0:
133,74,137950,1,0,0:0:0:0:
235,67,138190,1,2,0:0:0:0:
335,186,138430,6,0,L|118:183,1,215.999993408203,4|2,0:0|0:0,0:0:0:0:
119,272,138790,6,0,L|336:269,1,215.999993408203,4|0,3:0|0:0,0:0:0:0:
335,186,139150,6,0,L|118:183,1,215.999993408203,4|0,0:0|0:0,0:0:0:0:
119,272,139510,6,0,L|336:269,1,215.999993408203,4|0,3:0|0:0,0:0:0:0:
335,186,139870,6,0,L|211:183,1,120,4|0,0:0|0:0,0:0:0:0:
431,25,140350,6,0,L|432:145,1,120,0|0,0:0|0:0,0:0:0:0:
372,151,140710,1,0,0:0:0:0:
312,157,140830,2,0,L|311:277,1,120,8|2,0:0|0:0,0:0:0:0:
95,339,141310,1,2,0:0:0:0:
248,349,141670,1,2,0:0:0:0:
197,347,141790,1,8,0:0:0:0:
95,339,142030,1,2,0:0:0:0:
311,248,142270,6,0,L|432:245,1,120,0|2,0:0|0:0,0:0:0:0:
311,150,142750,1,8,0:0:0:0:
430,147,142990,1,0,0:0:0:0:
214,56,143230,2,0,L|93:53,1,120,0|2,0:0|0:0,0:0:0:0:
214,150,143710,1,8,0:0:0:0:
154,153,143830,2,0,L|152:212,1,60,2|2,0:0|0:0,0:0:0:0:
368,273,144190,5,0,0:0:0:0:
248,261,144430,2,0,L|247:141,1,120,0|8,0:0|0:0,0:0:0:0:
127,130,144910,1,2,0:0:0:0:
343,61,145150,1,2,0:0:0:0:
189,50,145510,1,2,0:0:0:0:
240,53,145630,1,8,0:0:0:0:
343,61,145870,1,2,0:0:0:0:
463,159,146110,6,0,L|246:155,1,215.999993408203,4|2,0:0|0:0,0:0:0:0:
247,244,146470,6,0,L|464:241,1,215.999993408203,4|0,3:0|0:0,0:0:0:0:
463,159,146830,6,0,L|246:155,1,215.999993408203,4|0,0:0|0:0,0:0:0:0:
247,244,147190,6,0,L|464:241,1,215.999993408203,4|0,3:0|0:0,0:0:0:0:
460,165,147550,6,0,L|336:162,1,120,4|2,0:0|0:0,0:0:0:0:
135,48,148030,6,0,L|256:45,1,120,0|0,0:0|0:0,0:0:0:0:
375,139,148510,2,0,L|254:136,1,120,8|2,0:0|0:0,0:0:0:0:
39,251,148990,1,2,0:0:0:0:
193,240,149350,1,2,0:0:0:0:
142,244,149470,1,8,0:0:0:0:
39,251,149710,1,2,0:0:0:0:
255,369,149950,6,0,L|256:249,1,120,0|2,0:0|0:0,0:0:0:0:
135,175,150430,1,8,0:0:0:0:
255,169,150670,1,0,0:0:0:0:
471,153,150910,2,0,L|472:33,1,120,0|2,0:0|0:0,0:0:0:0:
352,24,151390,1,8,0:0:0:0:
411,22,151510,1,2,0:0:0:0:
471,21,151630,1,2,0:0:0:0:
255,107,151870,5,0,0:0:0:0:
375,130,152110,2,0,L|376:250,1,120,0|8,0:0|0:0,0:0:0:0:
256,272,152590,1,2,0:0:0:0:
472,351,152830,1,2,0:0:0:0:
318,340,153190,1,2,0:0:0:0:
369,345,153310,1,8,0:0:0:0:
472,351,153550,1,2,0:0:0:0:
256,268,153790,5,2,0:0:0:0:
256,268,154150,1,0,0:0:0:0:
256,268,154510,1,2,0:0:0:0:
256,268,154870,1,2,0:0:0:0:
256,268,155230,1,8,3:0:0:0:
80,236,155710,5,2,0:0:0:0:
80,236,156070,1,0,0:0:0:0:
80,236,156430,1,2,0:0:0:0:
80,236,156790,1,2,0:0:0:0:
80,236,157150,1,8,0:0:0:0:
256,268,157630,5,2,0:0:0:0:
256,268,157990,1,0,0:0:0:0:
256,268,158350,1,2,0:0:0:0:
256,268,158710,1,2,0:0:0:0:
256,268,159070,1,8,0:0:0:0:
432,236,159550,5,2,0:0:0:0:
432,236,159910,1,0,0:0:0:0:
432,236,160270,1,2,0:0:0:0:
432,236,160630,1,2,0:0:0:0:
432,236,160990,1,8,0:0:0:0:
256,268,161470,5,2,0:0:0:0:
256,268,161830,1,0,0:0:0:0:
256,268,162190,1,2,0:0:0:0:
256,268,162550,1,0,0:0:0:0:
256,268,162910,1,8,0:0:0:0:
80,236,163390,5,2,0:0:0:0:
80,236,163750,1,0,0:0:0:0:
80,236,164110,1,2,0:0:0:0:
80,236,164470,1,0,0:0:0:0:
80,236,164830,1,8,0:0:0:0:
256,268,165310,5,2,0:0:0:0:
256,268,165670,1,0,0:0:0:0:
256,268,166030,1,2,0:0:0:0:
256,268,166390,1,0,0:0:0:0:
256,268,166750,1,8,0:0:0:0:
432,236,167230,5,2,0:0:0:0:
432,236,167590,1,0,0:0:0:0:
432,236,167950,1,2,0:0:0:0:
432,236,168310,1,0,0:0:0:0:
432,236,168670,1,8,0:0:0:0:
