osu file format v14

[General]
AudioFilename: audio.mp3
AudioLeadIn: 0
PreviewTime: 59052
Countdown: 0
SampleSet: Soft
StackLeniency: 0.5
Mode: 0
LetterboxInBreaks: 0
WidescreenStoryboard: 1

[Editor]
Bookmarks: 59990,69990
DistanceSpacing: 1.7
BeatDivisor: 4
GridSize: 32
TimelineZoom: 1.3

[Metadata]
Title:360
TitleUnicode:360º
Artist:Eldzhey
ArtistUnicode:Элджей
Creator:vanucik
Version:Normal
Source:
Tags:Medet Shayakhmetov русский russian hip-hop rap degrees Allj
BeatmapID:1835769
BeatmapSetID:865366

[Difficulty]
HPDrainRate:3
CircleSize:3.2
OverallDifficulty:4
ApproachRate:4
SliderMultiplier:1.3
SliderTickRate:1

[Events]
//Background and Video events
0,0,"maxresdefault.jpg",0,0
//Break Periods
//Storyboard Layer 0 (Background)
//Storyboard Layer 1 (Fail)
//Storyboard Layer 2 (Pass)
//Storyboard Layer 3 (Foreground)
//Storyboard Sound Samples

[TimingPoints]
63,625,4,2,1,60,1,0
8813,-100,4,2,1,60,0,0
60063,-100,4,2,1,70,0,1
70063,-100,4,2,1,70,0,0

[Colours]
Combo1 : 228,12,61
Combo2 : 255,111,111
Combo3 : 255,132,72

[HitObjects]
128,309,10063,6,0,P|148:276|145:202,2,97.5,0|10|10,0:0|0:0|0:0,0:0:0:0:
343,262,11625,2,0,L|338:144,1,97.5,10|2,0:0|0:0,0:0:0:0:
203,68,12563,2,0,L|197:183,2,97.5,2|10|2,0:0|0:0|0:0,0:0:0:0:
355,132,13969,1,2,0:0:0:0:
241,252,14438,1,2,0:0:0:0:
241,252,15531,6,0,P|295:239|347:238,1,97.5,10|10,0:0|0:0,0:0:0:0:
473,63,16625,2,0,L|348:57,1,97.5,2|2,0:0|0:0,0:0:0:0:
209,65,17563,2,0,L|214:183,2,97.5,2|10|10,0:0|0:0|0:0,0:0:0:0:
337,170,18969,2,0,L|330:285,1,97.5,2|2,0:0|0:0,0:0:0:0:
114,314,20063,5,4,0:0:0:0:
68,154,20531,2,0,P|118:140|165:145,1,97.5,10|10,0:0|0:0,0:0:0:0:
262,194,21313,2,0,L|260:115,1,65,4|2,0:0|0:0,0:0:0:0:
357,75,21938,2,0,L|354:163,1,65,4|8,0:0|0:0,0:0:0:0:
351,250,22563,1,6,0:0:0:0:
187,224,23031,6,0,P|170:151|185:108,1,97.5,10|10,0:0|0:0,0:0:0:0:
267,69,23813,2,0,L|272:145,1,65,4|0,0:0|0:0,0:0:0:0:
381,124,24438,2,0,L|374:208,1,65,2|12,0:0|0:0,0:0:0:0:
324,287,25063,2,0,P|284:272|205:273,1,97.5,4|0,0:0|0:0,0:0:0:0:
81,343,26000,5,10,0:0:0:0:
22,249,26313,2,0,L|26:168,1,65,4|2,0:0|0:0,0:0:0:0:
33,73,26938,1,4,0:0:0:0:
252,102,27563,2,0,P|282:152|285:201,2,97.5,6|10|10,0:0|0:0|0:0,0:0:0:0:
175,182,28813,2,0,L|178:266,1,65,4|0,0:0|0:0,0:0:0:0:
395,281,29750,5,12,0:0:0:0:
473,202,30063,2,0,P|410:172|362:176,1,97.5,4|0,0:0|0:0,0:0:0:0:
229,233,31000,1,10,0:0:0:0:
138,297,31313,2,0,L|145:380,1,65,4|2,0:0|0:0,0:0:0:0:
43,314,31938,2,0,L|51:234,1,65,4|8,0:0|0:0,0:0:0:0:
61,139,32563,6,0,P|99:113|170:109,1,97.5,6|10,0:0|0:0,0:0:0:0:
309,147,33500,1,10,0:0:0:0:
350,249,33813,2,0,L|347:333,1,65,4|0,0:0|0:0,0:0:0:0:
243,277,34438,2,0,L|249:363,1,65,2|12,0:0|0:0,0:0:0:0:
142,307,35063,5,4,0:0:0:0:
24,190,35531,2,0,P|20:139|48:78,1,97.5,10|10,0:0|0:0,0:0:0:0:
130,38,36313,2,0,L|202:34,1,65,0|2,0:0|0:0,0:0:0:0:
261,122,36938,2,0,L|349:124,1,65,0|8,0:0|0:0,0:0:0:0:
351,231,37563,6,0,P|292:226|240:255,2,97.5,6|10|10,0:0|0:0|0:0,0:0:0:0:
314,335,38813,2,0,P|250:340|224:334,1,65,4|0,0:0|0:0,0:0:0:0:
148,294,39438,2,0,P|124:242|121:213,1,65,2|12,0:0|0:0,0:0:0:0:
151,127,40063,6,0,P|199:110|266:126,2,97.5,4|10|10,0:0|0:0|0:0,0:0:0:0:
211,219,41313,2,0,L|309:216,2,97.5,4|8|8,0:0|0:0|0:0,0:0:0:0:
165,319,42563,2,0,L|60:311,2,97.5,6|10|10,0:0|0:0|0:0,0:0:0:0:
270,351,43813,2,0,L|385:343,2,97.5,4|8|12,0:0|0:0|0:0,0:0:0:0:
230,247,45063,6,0,P|221:195|243:137,2,97.5,4|10|10,0:0|0:0|0:0,0:0:0:0:
330,201,46313,2,0,P|343:146|330:93,2,97.5,4|8|8,0:0|0:0|0:0,0:0:0:0:
230,247,47563,2,0,P|171:237|132:212,1,97.5,4|8,0:0|0:0,0:0:0:0:
78,63,48500,1,8,0:0:0:0:
78,63,50063,6,0,L|196:57,1,97.5,4|2,0:0|0:0,0:0:0:0:
340,48,51000,2,0,P|313:108|332:197,1,130,2|2,0:0|0:0,0:0:0:0:
414,306,52094,1,2,0:0:0:0:
257,359,52563,2,0,P|146:352|145:352,2,97.5,2|2|2,0:0|0:0|0:0,0:0:0:0:
309,261,53813,2,0,L|306:117,1,130,0|2,0:0|0:0,0:0:0:0:
504,33,55063,6,0,L|499:139,1,97.5,2|2,0:0|0:0,0:0:0:0:
434,281,56000,2,0,P|381:260|281:269,1,130,2|2,0:0|0:0,0:0:0:0:
154,321,57094,1,2,0:0:0:0:
109,161,57563,2,0,L|106:45,2,97.5,2|2|0,0:0|0:0|0:0,0:0:0:0:
221,174,58813,2,0,L|225:19,1,130,0|2,0:0|0:0,0:0:0:0:
282,264,60063,6,0,P|220:283|168:271,1,97.5,4|10,0:0|0:0,0:0:0:0:
77,155,61000,1,10,0:0:0:0:
169,96,61313,2,0,L|239:90,1,65,4|2,0:0|0:0,0:0:0:0:
331,145,61938,2,0,L|400:144,1,65,4|8,0:0|0:0,0:0:0:0:
369,251,62563,6,0,P|316:237|257:243,1,97.5,6|10,0:0|0:0,0:0:0:0:
131,324,63500,1,10,0:0:0:0:
53,244,63813,2,0,L|57:161,1,65,4|0,0:0|0:0,0:0:0:0:
158,135,64438,2,0,L|154:61,1,65,2|12,0:0|0:0,0:0:0:0:
262,94,65063,6,0,P|320:83|377:94,1,97.5,4|10,0:0|0:0,0:0:0:0:
401,247,66000,1,10,0:0:0:0:
322,324,66313,2,0,P|279:313|237:313,1,65,4|2,0:0|0:0,0:0:0:0:
165,252,66938,2,0,P|121:249|83:255,1,65,4|8,0:0|0:0,0:0:0:0:
67,145,67563,6,0,P|115:159|172:147,1,97.5,6|10,0:0|0:0,0:0:0:0:
297,56,68500,1,10,0:0:0:0:
389,116,68813,2,0,L|383:238,2,97.5,4|8|8,0:0|0:0|0:0,0:0:0:0:
397,5,70063,5,4,0:1:0:0:
