osu file format v14

[General]
AudioFilename: audio.mp3
AudioLeadIn: 0
PreviewTime: 59052
Countdown: 0
SampleSet: Soft
StackLeniency: 0.5
Mode: 0
LetterboxInBreaks: 0
WidescreenStoryboard: 1

[Editor]
Bookmarks: 59990,69990
DistanceSpacing: 1.7
BeatDivisor: 8
GridSize: 32
TimelineZoom: 1.3

[Metadata]
Title:360
TitleUnicode:360º
Artist:Eldzhey
ArtistUnicode:Элджей
Creator:vanucik
Version:Hard
Source:
Tags:Medet Shayakhmetov русский russian hip-hop rap degrees Allj
BeatmapID:1835768
BeatmapSetID:865366

[Difficulty]
HPDrainRate:5
CircleSize:4
OverallDifficulty:6.5
ApproachRate:8
SliderMultiplier:1.7
SliderTickRate:1

[Events]
//Background and Video events
0,0,"maxresdefault.jpg",0,0
//Break Periods
//Storyboard Layer 0 (Background)
//Storyboard Layer 1 (Fail)
//Storyboard Layer 2 (Pass)
//Storyboard Layer 3 (Foreground)
//Storyboard Sound Samples

[TimingPoints]
63,625,4,2,1,60,1,0
8813,-125,4,2,1,60,0,0
20063,-76.9230769230769,4,2,1,60,0,0
30063,-66.6666666666667,4,2,1,60,0,0
40063,-76.9230769230769,4,2,1,60,0,0
49125,-90.9090909090909,4,2,1,60,0,0
50063,-71.4285714285714,4,2,1,60,0,0
60063,-62.5,4,2,1,70,0,1
70063,-66.6666666666667,4,2,1,70,0,0

[Colours]
Combo1 : 228,12,61
Combo2 : 255,111,111
Combo3 : 255,132,72

[HitObjects]
256,192,8813,12,0,10063,0:0:0:0:
111,226,10844,6,0,L|109:179,2,34,0|10|0,0:0|0:0|0:0,0:0:0:0:
173,275,11313,2,0,L|171:317,1,34,0|0,0:0|0:0,0:0:0:0:
232,222,11625,2,0,L|230:177,1,34,10|8,0:0|0:0,0:0:0:0:
290,278,11938,2,0,P|294:318|290:357,1,68,0|8,0:0|0:0,0:0:0:0:
372,337,12406,1,0,0:0:0:0:
372,337,12563,2,0,L|374:289,1,34,2|0,0:0|0:0,0:0:0:0:
355,233,12875,2,0,L|358:191,1,34,0|10,0:0|0:0,0:0:0:0:
318,138,13188,2,0,L|321:92,1,34,0|0,0:0|0:0,0:0:0:0:
168,105,14438,6,0,L|170:150,1,34,2|0,0:0|0:0,0:0:0:0:
235,164,14750,2,0,L|229:208,1,34,8|0,0:0|0:0,0:0:0:0:
168,234,15063,2,0,L|171:278,1,34,0|0,0:0|0:0,0:0:0:0:
217,321,15375,1,0,0:0:0:0:
359,307,15688,2,0,P|375:261|374:230,1,68,0|10,0:0|0:0,0:0:0:0:
361,172,16156,1,0,0:0:0:0:
156,108,16625,6,0,L|113:107,2,34,2|8|0,0:0|0:0|0:0,0:0:0:0:
289,57,17250,2,0,L|323:55,1,34,8|0,0:0|0:0,0:0:0:0:
396,54,17563,2,0,P|386:86|387:132,1,68,2|0,0:0|0:0,0:0:0:0:
403,189,18031,1,10,0:0:0:0:
440,250,18188,2,0,L|447:298,1,34,0|0,0:0|0:0,0:0:0:0:
373,278,18500,2,0,L|362:318,1,34,10|0,0:0|0:0,0:0:0:0:
299,279,18813,2,0,L|266:299,1,34,0|2,0:0|0:0,0:0:0:0:
216,249,19125,2,0,P|178:244|149:228,1,68,0|2,0:0|0:0,0:0:0:0:
256,132,19750,2,0,L|257:168,1,34,8|0,0:0|0:0,0:0:0:0:
327,206,20063,6,0,L|334:38,1,165.749992412568,4|10,0:0|0:0,0:0:0:0:
168,66,20844,1,0,0:0:0:0:
168,66,21000,2,0,L|170:143,1,55.2499974708558,10|0,0:0|0:0,0:0:0:0:
238,176,21313,2,0,L|233:249,1,55.2499974708558,4|0,0:0|0:0,0:0:0:0:
156,271,21625,2,0,L|161:342,1,55.2499974708558,2|8,0:0|0:0,0:0:0:0:
245,352,21938,1,4,0:0:0:0:
398,264,22250,2,0,P|440:259|472:262,1,55.2499974708558,8|0,0:0|0:0,0:0:0:0:
342,211,22563,1,6,0:0:0:0:
110,339,23031,5,10,0:0:0:0:
110,339,23188,2,0,P|84:293|95:222,1,110.499994941712,0|10,0:0|0:0,0:0:0:0:
129,159,23656,1,0,0:0:0:0:
217,150,23813,2,0,L|212:269,1,110.499994941712,4|0,0:0|0:0,0:0:0:0:
297,235,24281,1,8,0:0:0:0:
297,235,24438,2,0,L|295:170,1,55.2499974708558,2|0,0:0|0:0,0:0:0:0:
375,216,24750,2,0,L|372:285,1,55.2499974708558,12|0,0:0|0:0,0:0:0:0:
368,359,25063,1,4,0:0:0:0:
380,118,26000,6,0,P|330:110|308:110,1,55.2499974708558,10|0,0:0|0:0,0:0:0:0:
276,189,26313,2,0,L|347:188,1,55.2499974708558,4|0,0:0|0:0,0:0:0:0:
406,265,26625,2,0,L|333:262,1,55.2499974708558,2|8,0:0|0:0,0:0:0:0:
266,339,26938,2,0,P|312:332|332:333,1,55.2499974708558,4|2,0:0|0:0,0:0:0:0:
127,150,27563,6,0,L|118:218,1,55.2499974708558,6|0,0:0|0:0,0:0:0:0:
185,263,27875,1,0,0:0:0:0:
185,263,28031,1,10,0:0:0:0:
252,205,28188,2,0,L|250:139,1,55.2499974708558,0|0,0:0|0:0,0:0:0:0:
335,126,28500,2,0,L|330:203,1,55.2499974708558,10|0,0:0|0:0,0:0:0:0:
378,256,28813,2,0,P|408:225|412:146,1,110.499994941712,4|0,0:0|0:0,0:0:0:0:
392,75,29281,1,8,0:0:0:0:
126,80,29750,2,0,P|116:123|117:159,1,55.2499974708558,12|0,0:0|0:0,0:0:0:0:
207,191,30063,6,0,L|206:105,1,63.7500024318696,4|0,0:0|0:0,0:0:0:0:
204,19,30375,1,0,0:0:0:0:
91,294,30844,6,0,L|89:373,2,63.7500024318696,0|10|0,0:0|0:0|0:0,0:0:0:0:
168,217,31313,2,0,P|209:207|241:205,1,63.7500024318696,4|0,0:0|0:0,0:0:0:0:
338,237,31625,1,2,0:0:0:0:
338,237,31781,1,8,0:0:0:0:
261,314,31938,2,0,L|181:309,1,63.7500024318696,4|2,0:0|0:0,0:0:0:0:
335,352,32250,2,0,L|410:349,1,63.7500024318696,8|0,0:0|0:0,0:0:0:0:
472,269,32563,5,6,0:0:0:0:
472,269,32719,1,0,0:0:0:0:
406,183,32875,2,0,P|355:172|323:176,1,63.7500024318696,0|10,0:0|0:0,0:0:0:0:
257,238,33188,2,0,P|304:276|377:281,1,127.500004863739,0|10,0:0|0:0,0:0:0:0:
238,109,33813,2,0,P|195:101|162:107,1,63.7500024318696,4|2,0:0|0:0,0:0:0:0:
117,194,34125,1,0,0:0:0:0:
117,194,34281,1,8,0:0:0:0:
158,294,34438,2,0,P|213:250|223:179,1,127.500004863739,2|12,0:0|0:0,0:0:0:0:
72,43,35063,1,4,0:0:0:0:
285,76,35375,6,0,L|360:70,2,63.7500024318696,0|10|0,0:0|0:0|0:0,0:0:0:0:
293,292,36000,6,0,L|295:371,1,63.7500024318696,10|0,0:0|0:0,0:0:0:0:
212,172,36625,6,0,P|165:162|136:163,1,63.7500024318696,2|8,0:0|0:0,0:0:0:0:
361,166,37250,6,0,P|401:155|430:153,1,63.7500024318696,8|0,0:0|0:0,0:0:0:0:
210,108,37719,6,0,L|211:178,1,63.7500024318696,0|0,0:0|0:0,0:0:0:0:
212,279,38031,1,10,0:0:0:0:
302,345,38188,2,0,P|318:293|283:200,1,127.500004863739,0|10,0:0|0:0,0:0:0:0:
210,171,38656,1,0,0:0:0:0:
117,228,38813,1,4,0:0:0:0:
135,334,38969,2,0,P|171:355|214:361,1,63.7500024318696,2|0,0:0|0:0,0:0:0:0:
302,345,39281,1,8,0:0:0:0:
345,244,39438,2,0,L|340:92,1,127.500004863739,2|12,0:0|0:0,0:0:0:0:
153,100,40063,6,0,P|111:96|94:96,1,55.2499974708558,4|0,0:0|0:0,0:0:0:0:
32,163,40375,1,0,0:0:0:0:
32,163,40531,1,10,0:0:0:0:
105,221,40688,2,0,L|177:217,1,55.2499974708558,0|0,0:0|0:0,0:0:0:0:
61,291,41000,2,0,L|-8:284,1,55.2499974708558,10|0,0:0|0:0,0:0:0:0:
110,357,41313,2,0,L|165:355,1,55.2499974708558,4|0,0:0|0:0,0:0:0:0:
394,322,42250,5,8,0:0:0:0:
394,322,42406,1,0,0:0:0:0:
471,267,42563,2,0,P|476:234|469:199,1,55.2499974708558,6|0,0:0|0:0,0:0:0:0:
386,177,42875,2,0,P|379:211|386:249,1,55.2499974708558,0|10,0:0|0:0,0:0:0:0:
462,129,43188,1,0,0:0:0:0:
462,129,43344,1,0,0:0:0:0:
378,86,43500,2,0,P|346:81|317:81,1,55.2499974708558,10|0,0:0|0:0,0:0:0:0:
252,156,43813,2,0,P|286:157|317:152,1,55.2499974708558,4|2,0:0|0:0,0:0:0:0:
144,43,44750,6,0,L|140:109,1,55.2499974708558,12|0,0:0|0:0,0:0:0:0:
135,192,45063,1,4,0:0:0:0:
248,44,45375,2,0,L|245:110,1,55.2499974708558,0|10,0:0|0:0,0:0:0:0:
240,193,45688,1,0,0:0:0:0:
352,46,46000,2,0,L|350:121,1,55.2499974708558,10|0,0:0|0:0,0:0:0:0:
350,195,46313,1,4,0:0:0:0:
233,335,46625,5,2,0:0:0:0:
233,335,46781,1,8,0:0:0:0:
233,335,46938,2,0,L|359:327,1,110.499994941712,4|8,0:0|0:0,0:0:0:0:
436,316,47406,1,0,0:0:0:0:
377,241,47563,2,0,P|340:227|257:230,1,110.499994941712,4|0,0:0|0:0,0:0:0:0:
182,259,48031,1,8,0:0:0:0:
182,259,48188,2,0,P|191:212|191:190,1,55.2499974708558,0|0,0:0|0:0,0:0:0:0:
256,137,48500,2,0,P|249:95|232:62,1,55.2499974708558,8|0,0:0|0:0,0:0:0:0:
364,289,49125,6,0,P|378:250|381:234,1,46.7500014266968,0|0,0:0|0:0,0:0:0:0:
429,172,49438,2,0,P|428:134|422:109,1,46.7500014266968,0|0,0:0|0:0,0:0:0:0:
368,70,49750,1,0,0:0:0:0:
289,57,49906,1,0,0:0:0:0:
205,115,50063,6,0,L|207:261,1,118.999996368408,4|0,0:0|0:0,0:0:0:0:
210,334,50531,1,2,0:0:0:0:
210,334,50688,1,0,0:0:0:0:
219,327,52094,6,0,P|228:275|226:244,1,59.4999981842042,2|0,0:0|0:0,0:0:0:0:
199,171,52406,1,0,0:0:0:0:
294,206,52563,2,0,L|419:203,1,118.999996368408,2|0,0:0|0:0,0:0:0:0:
473,122,53031,2,0,L|349:115,1,118.999996368408,2|0,0:0|0:0,0:0:0:0:
282,43,53500,2,0,L|359:40,1,59.4999981842042,2|0,0:0|0:0,0:0:0:0:
442,35,53813,1,0,0:0:0:0:
262,127,54125,6,0,P|254:171|251:193,1,59.4999981842042
180,258,54438,2,0,P|182:310|188:344,1,59.4999981842042,2|0,0:0|0:0,0:0:0:0:
281,357,54750,1,0,0:0:0:0:
281,357,54906,1,0,0:0:0:0:
343,279,55063,2,0,L|339:138,1,118.999996368408,2|0,0:0|0:0,0:0:0:0:
428,218,55531,1,2,0:0:0:0:
428,218,55688,1,0,0:0:0:0:
423,215,57094,6,0,P|388:200|350:192,1,59.4999981842042,2|0,0:0|0:0,0:0:0:0:
266,189,57406,1,0,0:0:0:0:
173,230,57563,2,0,L|176:366,1,118.999996368408,2|0,0:0|0:0,0:0:0:0:
262,307,58031,2,0,L|266:172,1,118.999996368408,2|0,0:0|0:0,0:0:0:0:
171,170,58500,2,0,L|172:240,1,59.4999981842042,0|0,0:0|0:0,0:0:0:0:
230,98,58813,1,0,0:0:0:0:
77,229,59125,6,0,P|82:284|89:304,1,59.4999981842042,0|0,0:0|0:0,0:0:0:0:
174,331,59438,2,0,P|213:323|254:305,1,59.4999981842042,2|0,0:0|0:0,0:0:0:0:
310,253,59750,1,0,0:0:0:0:
310,253,59906,1,0,0:0:0:0:
250,153,60063,6,0,P|194:119|109:125,1,136,4|0,0:0|0:0,0:0:0:0:
164,227,60531,1,10,0:0:0:0:
164,227,60688,2,0,L|241:224,1,68,0|0,0:0|0:0,0:0:0:0:
333,170,61000,2,0,L|334:126,3,34,10|0|0|0,0:0|0:0|0:0|0:0,0:0:0:0:
351,191,61313,6,0,L|354:264,1,68,4|0,0:0|0:0,0:0:0:0:
455,182,61625,2,0,L|450:251,1,68,2|8,0:0|0:0,0:0:0:0:
382,340,61938,1,4,0:0:0:0:
382,340,62094,1,2,0:0:0:0:
264,304,62250,2,0,P|243:263|235:222,1,68,8|0,0:0|0:0,0:0:0:0:
274,147,62563,6,0,P|330:205|324:280,1,136,6|0,0:0|0:0,0:0:0:0:
187,174,63031,2,0,P|186:123|246:59,1,136,10|0,0:0|0:0,0:0:0:0:
337,35,63500,2,0,L|424:32,1,68,10|0,0:0|0:0,0:0:0:0:
466,130,63813,2,0,B|391:127|392:127,1,68,4|2,0:0|0:0,0:0:0:0:
313,201,64125,1,0,0:0:0:0:
313,201,64281,1,8,0:0:0:0:
397,281,64438,2,0,L|477:277,1,68,2|0,0:0|0:0,0:0:0:0:
302,342,64750,1,12,0:0:0:0:
302,342,64906,1,0,0:0:0:0:
220,259,65063,6,0,L|217:121,1,136,4|0,0:0|0:0,0:0:0:0:
309,53,65531,1,10,0:0:0:0:
309,53,65688,2,0,L|305:143,1,68,0|0,0:0|0:0,0:0:0:0:
166,53,66000,2,0,L|165:5,3,34,10|0|0|0,0:0|0:0|0:0|0:0,0:0:0:0:
149,75,66313,6,0,P|141:118|146:161,1,68,4|0,0:0|0:0,0:0:0:0:
244,195,66625,2,0,P|248:142|241:112,1,68,2|8,0:0|0:0,0:0:0:0:
157,244,66938,1,4,0:0:0:0:
157,244,67094,1,2,0:0:0:0:
262,293,67250,2,0,L|343:287,1,68,8|0,0:0|0:0,0:0:0:0:
168,354,67563,6,0,P|117:331|19:343,1,136,6|0,0:0|0:0,0:0:0:0:
157,244,68031,2,0,L|156:99,1,136,10|0,0:0|0:0,0:0:0:0:
73,55,68500,2,0,L|69:145,1,68,10|0,0:0|0:0,0:0:0:0:
239,168,68813,5,4,0:0:0:0:
327,134,68969,2,0,P|299:94|206:72,1,136,2|8,0:0|0:0,0:0:0:0:
138,138,69438,2,0,L|141:237,1,68,2|0,0:0|0:0,0:0:0:0:
239,168,69750,2,0,L|232:245,1,68,8|0,0:0|0:0,0:0:0:0:
180,337,70063,5,4,0:1:0:0:
