osu file format v14

[General]
AudioFilename: audio.mp3
AudioLeadIn: 0
PreviewTime: 111262
Countdown: 1
SampleSet: Normal
StackLeniency: 0.7
Mode: 0
LetterboxInBreaks: 0
WidescreenStoryboard: 0

[Editor]
Bookmarks: 13914
DistanceSpacing: 1.7
BeatDivisor: 4
GridSize: 4
TimelineZoom: 1.7

[Metadata]
Title:Put Your Love (feat. Leila Lanova) (Azide Remix)
TitleUnicode:Put Your Love (feat. Leila Lanova) (Azide Remix)
Artist:El Speaker
ArtistUnicode:El Speaker
Creator:Echanz
Version:Extra
Source:
Tags:
BeatmapID:1938238
BeatmapSetID:927972

[Difficulty]
HPDrainRate:5.5
CircleSize:4.3
OverallDifficulty:8
ApproachRate:9.4
SliderMultiplier:1.4
SliderTickRate:1

[Events]
//Background and Video events
0,0,"goodmovie.jpeg",0,0
//Break Periods
//Storyboard Layer 0 (Background)
//Storyboard Layer 1 (Fail)
//Storyboard Layer 2 (Pass)
//Storyboard Layer 3 (Foreground)
//Storyboard Sound Samples

[TimingPoints]
200,428.571428571429,4,1,0,36,1,0
20771,-76.9230769230769,4,1,0,36,0,0
40914,-133.333333333333,4,1,0,36,0,0
42200,-66.6666666666667,4,1,0,36,0,0
68771,428.571428571429,4,1,0,36,1,0
68771,-100,4,1,0,36,0,0
82485,-66.6666666666667,4,1,0,36,0,0
104878,500,4,1,0,36,1,0
106878,545.454545454546,4,1,0,36,1,0
110376,-33.3333333333333,4,1,0,36,0,0
111262,285.714285714286,4,1,0,36,1,0
111262,-76.9230769230769,4,1,0,36,0,1
127262,-133.333333333333,4,1,0,36,0,0
129547,-71.4285714285714,4,1,0,36,0,1
145547,-83.3333333333333,4,1,0,36,0,0
147879,571.428571428571,4,1,0,36,1,0

[Colours]
Combo1 : 201,147,255
Combo2 : 255,128,255
Combo3 : 255,181,145
Combo4 : 128,128,128

[HitObjects]
96,117,13271,6,0,L|96:79,7,23.3333333333333
96,172,13914,2,0,L|150:123,1,70
184,221,14342,2,0,L|283:210,1,70
390,280,14771,2,0,P|361:307|308:316,1,70
184,271,15200,1,0,0:0:0:0:
250,118,15628,6,0,P|287:90|331:82,1,70
429,97,16057,2,0,P|475:121|493:156,1,70
347,211,16485,1,0,0:0:0:0:
213,190,16700,2,0,P|140:183|71:194,1,140
75,290,17342,2,0,P|152:297|224:285,1,140
372,293,17985,5,0,0:0:0:0:
400,159,18200,2,0,P|429:115|420:81,1,70
309,44,18628,2,0,P|276:81|287:119,1,70
329,201,19057,5,0,0:0:0:0:
278,311,19271,1,0,0:0:0:0:
352,163,19485,1,0,0:0:0:0:
256,349,19700,1,0,0:0:0:0:
355,77,19914,6,0,P|311:45|276:50,1,70
243,148,20342,2,0,P|200:170|167:168,1,70
36,141,20771,6,0,P|79:69|100:113,1,136.499993751526
90,232,21200,2,0,L|86:258,2,22.7499989585877
191,125,21414,1,0,0:0:0:0:
302,188,21628,2,0,L|381:198,1,45.4999979171754
321,124,21842,2,0,L|380:116,1,45.4999979171754
329,53,22057,2,0,P|383:34|438:47,1,90.9999958343508
358,276,22485,6,0,P|310:305|299:229,1,136.499993751526
356,116,22914,2,0,L|379:78,2,22.7499989585877
215,217,23128,1,0,0:0:0:0:
94,112,23342,2,0,P|19:100|-9:135,1,90.9999958343508
66,236,23771,1,0,0:0:0:0:
225,223,23985,2,0,L|195:240,2,22.7499989585877
304,335,24200,6,0,P|384:298|320:276,1,181.999991668702
307,169,24842,1,0,0:0:0:0:
242,117,24950,1,0,0:0:0:0:
168,149,25057,2,0,P|71:170|69:172,1,90.9999958343508
132,297,25485,2,0,P|233:301|262:285,1,136.499993751526
353,220,25914,5,0,0:0:0:0:
259,109,26128,1,0,0:0:0:0:
431,241,26342,1,0,0:0:0:0:
177,111,26557,2,0,L|146:99,2,22.7499989585877
191,247,26771,2,0,P|252:303|266:302,1,90.9999958343508
369,211,27200,2,0,P|308:170|281:168,1,90.9999958343508
153,185,27628,6,0,L|177:134,1,45.4999979171754
268,33,27842,2,0,L|242:87,1,45.4999979171754
277,147,28057,2,0,L|362:189,1,90.9999958343508
460,241,28485,1,0,0:0:0:0:
276,295,28700,1,0,0:0:0:0:
385,321,28914,1,0,0:0:0:0:
238,192,29128,1,0,0:0:0:0:
112,260,29342,6,0,L|71:270,4,22.7499989585877
298,261,29771,2,0,P|382:209|383:199,1,90.9999958343508
386,112,30200,1,0,0:0:0:0:
222,94,30414,2,0,L|191:155,1,45.4999979171754
255,248,30628,2,0,L|313:248,1,45.4999979171754
424,293,30842,2,0,L|422:350,1,45.4999979171754
284,139,31057,5,0,0:0:0:0:
321,173,31164,1,0,0:0:0:0:
305,217,31271,1,0,0:0:0:0:
109,236,31485,2,0,P|88:161|89:144,1,90.9999958343508
300,52,31914,1,0,0:0:0:0:
294,275,32128,1,0,0:0:0:0:
168,102,32342,1,0,0:0:0:0:
394,100,32557,1,0,0:0:0:0:
462,256,32771,6,0,P|421:286|374:300,1,90.9999958343508
267,158,33200,2,0,L|208:219,1,45.4999979171754
74,170,33414,2,0,L|141:227,1,45.4999979171754
162,355,33628,2,0,L|167:284,1,45.4999979171754
176,79,33842,5,0,0:0:0:0:
211,56,33950,1,0,0:0:0:0:
253,49,34057,1,0,0:0:0:0:
293,61,34164,1,0,0:0:0:0:
326,90,34271,1,0,0:0:0:0:
339,135,34378,1,0,0:0:0:0:
336,171,34485,2,0,P|318:243|259:273,1,136.499993751526
70,121,35128,5,0,0:0:0:0:
414,71,35342,1,0,0:0:0:0:
403,166,35485,2,0,L|392:252,1,60.6666638895672
224,313,35771,2,0,L|312:269,1,90.9999958343508
418,62,36200,5,0,0:0:0:0:
200,100,36485,1,0,0:0:0:0:
188,99,36628,2,0,L|147:96,2,22.7499989585877
256,173,36842,1,0,0:0:0:0:
440,205,37057,1,0,0:0:0:0:
379,288,37200,1,0,0:0:0:0:
275,321,37342,2,0,P|204:331|187:327,2,60.6666638895672
344,67,37914,6,0,L|330:123,1,45.4999979171754
349,207,38128,2,0,L|364:156,1,45.4999979171754
325,40,38342,2,0,L|305:91,1,45.4999979171754
366,256,38557,2,0,L|387:205,1,45.4999979171754
395,107,38771,5,0,0:0:0:0:
353,83,38878,1,0,0:0:0:0:
305,92,38985,1,0,0:0:0:0:
276,143,39092,1,0,0:0:0:0:
272,207,39200,1,0,0:0:0:0:
213,261,39307,1,0,0:0:0:0:
129,246,39414,1,0,0:0:0:0:
54,308,39521,6,0,L|16:348,1,45.4999979171754
351,66,39950,2,0,L|390:22,1,45.4999979171754
258,94,40485,5,0,0:0:0:0:
218,159,40628,1,0,0:0:0:0:
258,217,40771,1,0,0:0:0:0:
292,290,40914,2,0,P|306:327|298:376,1,78.7500030040742
194,255,41342,6,0,P|133:222|194:201,1,157.500006008148
83,54,42200,5,0,0:0:0:0:
108,165,42342,1,0,0:0:0:0:
197,246,42485,1,0,0:0:0:0:
298,261,42628,2,0,P|369:305|434:289,1,105.000004005432
381,119,43057,6,0,L|402:88,3,35.0000013351441
331,240,43342,2,0,L|326:280,3,35.0000013351441
264,118,43628,6,0,P|206:106|172:110,1,70.0000026702882
162,268,43914,2,0,P|233:276|309:240,1,140.000005340576
458,102,44342,2,0,P|407:179|420:193,1,105.000004005432
342,338,44771,5,0,0:0:0:0:
215,194,44985,2,0,L|190:177,2,26.2500010013581
334,60,45200,1,0,0:0:0:0:
470,183,45414,2,0,L|507:153,2,26.2500010013581
222,327,45628,2,0,P|124:313|102:299,1,105.000004005432
298,63,46057,5,0,0:0:0:0:
222,86,46200,1,0,0:0:0:0:
183,151,46342,1,0,0:0:0:0:
251,196,46485,5,0,0:0:0:0:
331,234,46628,1,0,0:0:0:0:
353,316,46771,1,0,0:0:0:0:
277,332,46914,5,0,0:0:0:0:
188,353,47057,1,0,0:0:0:0:
120,293,47200,1,0,0:0:0:0:
11,176,47342,6,0,P|73:245|78:247,1,70.0000026702882
289,305,47628,2,0,P|241:254|213:254,1,70.0000026702882
391,131,47914,1,0,0:0:0:0:
182,110,48200,6,0,P|131:165|129:188,1,70.0000026702882
278,266,48485,2,0,L|310:279,3,35.0000013351441
107,52,48842,1,0,0:0:0:0:
466,150,49057,2,0,P|436:200|391:157,1,105.000004005432
277,66,49485,6,0,L|224:141,1,70.0000026702882
111,256,49807,2,0,L|172:179,1,70.0000026702882
158,51,50057,2,0,P|196:85|200:118,1,70.0000026702882
286,301,50342,1,0,0:0:0:0:
124,238,50557,2,0,L|110:260,2,26.2500010013581
307,167,50771,1,0,0:0:0:0:
449,261,51057,6,0,P|343:318|334:312,1,140.000005340576
40,112,51628,2,0,P|115:116|160:105,1,105.000004005432
322,83,52057,1,0,0:0:0:0:
205,226,52271,6,0,L|183:251,2,26.2500010013581
322,274,52485,2,0,L|325:314,2,26.2500010013581
431,229,52700,2,0,L|455:251,2,26.2500010013581
409,121,52914,2,0,L|433:32,2,52.5000020027161
217,45,53342,1,0,0:0:0:0:
79,308,53557,1,0,0:0:0:0:
283,262,53771,6,0,L|307:294,2,26.2500010013581
339,113,53985,2,0,L|385:109,2,26.2500010013581
172,75,54200,2,0,L|149:30,2,26.2500010013581
121,219,54414,2,0,L|94:252,2,26.2500010013581
385,280,54628,1,0,0:0:0:0:
253,83,54842,1,0,0:0:0:0:
256,192,55057,12,0,55807,0:0:0:0:
116,200,55914,6,0,P|172:167|267:183,1,140.000005340576
364,288,56342,5,0,0:0:0:0:
331,188,56485,1,0,0:0:0:0:
358,96,56628,1,0,0:0:0:0:
440,166,56771,2,0,L|469:263,1,70.0000026702882
260,105,57057,2,0,L|222:192,1,70.0000026702882
80,86,57342,2,0,L|45:174,1,70.0000026702882
84,280,57628,1,0,0:0:0:0:
234,122,57771,6,0,L|231:81,2,35.0000013351441
301,314,58057,2,0,P|404:265|407:252,1,105.000004005432
393,134,58485,1,0,0:0:0:0:
218,130,58700,6,0,L|170:103,2,35.0000013351441
361,298,58914,1,0,0:0:0:0:
453,174,59128,2,0,L|491:135,2,35.0000013351441
215,201,59342,2,0,L|126:182,1,70.0000026702882
379,94,59771,5,0,0:0:0:0:
379,163,59914,1,0,0:0:0:0:
378,238,60057,1,0,0:0:0:0:
248,277,60200,5,0,0:0:0:0:
219,198,60342,1,0,0:0:0:0:
191,119,60485,1,0,0:0:0:0:
373,114,60628,5,0,0:0:0:0:
415,205,60771,1,0,0:0:0:0:
463,305,60914,1,0,0:0:0:0:
335,316,61057,6,0,P|257:289|251:279,1,70.0000026702882
109,79,61342,2,0,P|76:158|77:170,1,70.0000026702882
335,107,61628,1,0,0:0:0:0:
213,133,61914,5,0,0:0:0:0:
136,180,62057,1,0,0:0:0:0:
139,271,62200,1,0,0:0:0:0:
236,341,62342,5,0,0:0:0:0:
328,279,62485,1,0,0:0:0:0:
333,162,62628,1,0,0:0:0:0:
178,150,62771,6,0,L|140:136,4,35.0000013351441
307,165,63200,6,0,P|355:232|353:236,1,70.0000026702882
130,273,63485,2,0,P|142:199|146:181,1,70.0000026702882
276,329,63771,1,0,0:0:0:0:
293,66,64057,1,0,0:0:0:0:
259,161,64200,2,0,L|235:212,2,35.0000013351441
449,200,64485,2,0,L|395:121,1,70.0000026702882
318,253,64771,2,0,P|267:230|264:194,1,70.0000026702882
150,68,65057,6,0,L|120:128,1,52.5000020027161
84,254,65271,2,0,L|92:192,1,52.5000020027161
325,99,65557,1,0,0:0:0:0:
325,99,65664,1,0,0:0:0:0:
325,99,65771,2,0,P|378:168|369:199,1,105.000004005432
347,312,66200,2,0,P|275:239|270:223,1,105.000004005432
171,75,66628,1,0,0:0:0:0:
256,192,66842,12,0,68342,0:0:0:0:
213,143,68771,5,0,0:0:0:0:
397,125,69200,2,0,P|448:74|449:56,2,70
251,151,70057,2,0,P|194:187|182:209,1,70
184,316,70485,5,0,0:0:0:0:
350,314,70700,1,0,0:0:0:0:
444,216,70914,2,0,P|448:161|421:133,2,70
342,216,71557,2,0,L|308:250,1,35
202,287,71771,2,0,L|172:303,3,23.3333333333333
275,114,72200,5,0,0:0:0:0:
432,160,72414,2,0,P|467:141|479:108,2,70
299,256,73057,2,0,P|235:224|231:219,2,70
122,247,73914,5,0,0:0:0:0:
298,159,74342,2,0,P|342:118|343:95,1,70
444,144,74771,2,0,P|395:178|396:201,1,70
286,257,75200,2,0,L|261:287,3,23.3333333333333
218,98,75628,5,0,0:0:0:0:
387,159,76057,2,0,P|421:124|420:93,1,70
316,66,76485,1,0,0:0:0:0:
167,260,76914,1,0,0:0:0:0:
369,239,77342,6,0,P|420:200|427:192,1,70
367,72,77771,2,0,P|289:115|286:119,1,70
232,201,78200,1,0,0:0:0:0:
395,286,78414,2,0,L|434:308,3,23.3333333333333
95,110,78842,1,0,0:0:0:0:
329,132,79057,6,0,P|373:112|385:81,2,70
142,184,79700,1,0,0:0:0:0:
86,285,79914,1,0,0:0:0:0:
354,275,80128,1,0,0:0:0:0:
216,166,80343,1,0,0:0:0:0:
236,311,80557,1,0,0:0:0:0:
419,137,80771,6,0,L|381:112,1,35
320,48,80985,2,0,L|300:28,2,17.5
273,141,81200,2,0,L|250:143,2,17.5
332,241,81414,2,0,L|364:207,1,35
433,198,81628,2,0,P|442:268|438:279,1,70
336,345,82057,1,0,0:0:0:0:
81,267,82271,1,0,0:0:0:0:
80,90,82485,5,0,0:0:0:0:
168,54,82628,1,0,0:0:0:0:
249,96,82771,1,0,0:0:0:0:
313,147,82913,2,0,P|359:144|371:150,1,35.0000013351441
367,296,83128,2,0,P|320:303|311:304,1,35.0000013351441
435,133,83342,5,0,0:0:0:0:
371,67,83485,2,0,P|315:41|286:48,1,70.0000026702882
270,148,83771,2,0,P|274:203|269:230,1,70.0000026702882
142,223,84056,1,0,0:0:0:0:
221,309,84200,2,0,L|246:356,2,35.0000013351441
199,139,84485,5,0,0:0:0:0:
300,79,84628,2,0,P|328:79|361:101,1,52.5000020027161
443,177,84842,1,0,0:0:0:0:
157,82,85057,1,0,0:0:0:0:
88,199,85199,2,0,P|107:257|115:266,1,52.5000020027161
247,207,85485,2,0,L|275:181,2,26.2500010013581
47,83,85700,1,0,0:0:0:0:
393,130,85913,1,0,0:0:0:0:
384,262,86056,1,0,0:0:0:0:
261,296,86199,1,0,0:0:0:0:
175,173,86342,2,0,L|162:144,4,26.2500010013581
326,111,86664,5,0,0:0:0:0:
376,99,86771,2,0,P|433:123|438:138,1,52.5000020027161
456,223,86985,2,0,P|392:225|340:201,1,105.000004005432
237,131,87414,1,0,0:0:0:0:
112,268,87628,1,0,0:0:0:0:
446,316,87842,6,0,L|378:303,1,52.5000020027161
273,230,88057,2,0,L|309:277,1,52.5000020027161
457,269,88342,1,0,0:0:0:0:
387,176,88485,2,0,P|367:121|329:111,1,70.0000026702882
115,191,88771,1,0,0:0:0:0:
209,194,88913,1,0,0:0:0:0:
280,116,89128,2,0,P|321:92|386:108,1,105.000004005432
313,219,89450,5,0,0:0:0:0:
265,198,89557,1,0,0:0:0:0:
213,215,89664,1,0,0:0:0:0:
160,235,89771,2,0,P|97:221|82:200,1,52.5000020027161
59,114,89985,2,0,P|128:94|165:70,1,105.000004005432
383,124,90414,5,0,0:0:0:0:
246,263,90628,1,0,0:0:0:0:
123,154,90842,2,0,P|124:92|131:88,1,52.5000020027161
264,30,91057,6,0,P|321:103|348:103,1,105.000004005432
412,184,91378,5,0,0:0:0:0:
387,228,91485,1,0,0:0:0:0:
340,245,91592,2,0,P|269:238|238:248,1,105.000004005432
61,231,91914,5,0,0:0:0:0:
198,124,92128,2,0,L|204:91,2,26.2500010013581
217,312,92342,1,0,0:0:0:0:
85,124,92557,1,0,0:0:0:0:
336,164,92771,6,0,P|402:154|422:124,1,105.000004005432
171,113,93414,5,0,0:0:0:0:
152,148,93521,1,0,0:0:0:0:
178,173,93628,2,0,P|206:236|205:243,1,52.5000020027161
210,325,93842,2,0,P|285:308|313:288,1,105.000004005432
433,115,94271,1,0,0:0:0:0:
141,85,94485,1,0,0:0:0:0:
282,212,94699,6,0,L|292:270,2,35.0000013351441
262,56,94914,2,0,P|163:54|156:60,1,105.000004005432
110,181,95342,2,0,P|91:241|70:271,1,70.0000026702882
131,347,95628,1,0,0:0:0:0:
238,315,95771,2,0,P|281:273|290:273,1,52.5000020027161
401,251,95985,2,0,P|441:216|442:210,1,52.5000020027161
411,94,96200,6,0,P|354:84|302:100,1,105.000004005432
277,167,96521,1,0,0:0:0:0:
216,219,96628,2,0,P|169:197|147:203,1,52.5000020027161
110,230,96842,5,0,0:0:0:0:
91,305,96950,1,0,0:0:0:0:
160,334,97057,2,0,P|212:336|264:316,1,105.000004005432
302,248,97378,1,0,0:0:0:0:
312,169,97485,2,0,P|380:116|410:112,1,105.000004005432
448,167,97807,1,0,0:0:0:0:
438,245,97914,5,0,0:0:0:0:
373,301,98021,1,0,0:0:0:0:
293,262,98128,2,0,P|207:242|200:245,1,52.5000020027161
178,233,98342,2,0,P|124:201|111:183,1,52.5000020027161
144,132,98557,5,0,0:0:0:0:
192,63,98664,1,0,0:0:0:0:
269,83,98771,2,0,P|318:150|344:170,1,105.000004005432
402,209,99092,1,0,0:0:0:0:
433,277,99200,2,0,L|448:332,1,52.5000020027161
362,343,99414,2,0,P|312:319|304:309,1,52.5000020027161
282,256,99628,6,0,P|237:217|222:214,1,52.5000020027161
178,188,99842,1,0,0:0:0:0:
391,126,100057,1,0,0:0:0:0:
339,327,100271,5,0,0:0:0:0:
256,93,100485,2,0,P|191:70|164:79,1,52.5000020027161
153,116,100700,2,0,P|153:179|143:192,1,52.5000020027161
102,211,100914,1,0,0:0:0:0:
79,284,101021,1,0,0:0:0:0:
134,327,101128,2,0,P|209:345|213:344,1,52.5000020027161
236,295,101342,6,0,P|304:253|346:259,1,105.000004005432
375,205,101664,1,0,0:0:0:0:
369,128,101771,2,0,P|282:107|261:91,1,105.000004005432
207,63,102092,5,0,0:0:0:0:
143,94,102200,2,0,L|94:144,1,52.5000020027161
141,196,102414,2,0,P|198:251|222:256,1,105.000004005432
289,206,102735,2,0,P|351:216|360:226,1,52.5000020027161
397,261,102950,1,0,0:0:0:0:
471,217,103057,6,0,P|492:141|489:139,1,105.000004005432
424,91,103378,6,0,P|353:119|311:114,1,105.000004005432
280,68,103700,6,0,P|187:57|173:68,1,105.000004005432
127,111,104021,5,0,0:0:0:0:
149,181,104128,2,0,P|184:239|180:245,1,52.5000020027161
196,279,104342,2,0,P|247:315|293:325,1,105.000004005432
325,245,104664,2,0,P|382:230|388:230,1,52.5000020027161
415,158,104878,6,0,P|440:107|422:77,1,70
369,67,105253,6,0,P|331:97|293:103,1,70
241,67,105628,6,0,P|207:69|166:87,1,70
121,145,106003,5,0,0:0:0:0:
134,225,106128,2,0,P|154:257|174:271,1,35
244,250,106378,2,0,P|298:266|300:268,1,35
350,294,106628,1,0,0:0:0:0:
409,206,106815,6,0,P|428:181|431:164,1,35
367,70,107082,2,0,P|336:103|334:114,1,35
431,283,107355,6,0,P|467:259|467:256,1,35
279,65,107628,2,0,P|254:101|255:109,1,35
373,341,107900,6,0,P|420:333|427:331,1,35
191,132,108173,2,0,L|182:170,1,35
281,273,108446,5,0,0:0:0:0:
424,245,108582,1,0,0:0:0:0:
465,117,108719,1,0,0:0:0:0:
349,30,108855,1,0,0:0:0:0:
256,192,108991,12,0,110150,0:0:0:0:
183,81,110444,6,0,P|283:115|300:131,1,105.000004005432
436,281,110717,2,0,P|328:239|317:227,1,105.000004005432
187,270,110990,2,0,P|289:215|309:216,1,105.000004005432
385,119,111262,2,0,P|338:85|304:83,1,90.9999958343508
125,140,111547,1,0,0:0:0:0:
329,166,111690,1,0,0:0:0:0:
237,266,111833,6,0,P|183:256|138:226,1,90.9999958343508
64,90,112119,2,0,P|136:92|162:107,1,90.9999958343508
387,278,112404,5,0,0:0:0:0:
143,199,112547,1,0,0:0:0:0:
389,112,112690,6,0,P|310:115|288:118,1,90.9999958343508
136,301,112976,2,0,P|220:261|241:245,1,90.9999958343508
143,92,113262,2,0,P|209:156|222:174,1,90.9999958343508
376,266,113547,6,0,P|311:279|264:261,1,90.9999958343508
65,118,113833,1,0,0:0:0:0:
347,154,113976,1,0,0:0:0:0:
226,297,114119,6,0,P|180:219|186:201,1,90.9999958343508
216,76,114404,1,0,0:0:0:0:
64,234,114547,1,0,0:0:0:0:
304,252,114690,1,0,0:0:0:0:
413,69,114833,5,0,0:0:0:0:
442,85,114904,1,0,0:0:0:0:
457,112,114976,2,0,P|462:163|443:204,1,90.9999958343508
216,156,115262,5,0,0:0:0:0:
440,268,115404,1,0,0:0:0:0:
273,68,115547,1,0,0:0:0:0:
138,272,115690,1,0,0:0:0:0:
312,290,115833,6,0,P|349:226|349:201,1,90.9999958343508
182,54,116119,1,0,0:0:0:0:
79,199,116262,1,0,0:0:0:0:
219,310,116404,6,0,P|257:256|265:230,1,90.9999958343508
133,95,116690,2,0,P|204:96|230:112,1,90.9999958343508
348,113,116976,5,0,0:0:0:0:
203,225,117119,1,0,0:0:0:0:
367,281,117262,2,0,P|424:230|437:199,1,90.9999958343508
264,61,117547,2,0,P|164:72|162:72,1,90.9999958343508
83,136,117833,2,0,P|149:167|183:164,1,90.9999958343508
322,247,118119,5,0,0:0:0:0:
443,138,118262,1,0,0:0:0:0:
283,87,118404,2,0,P|210:95|184:88,1,90.9999958343508
42,176,118690,2,0,P|126:195|168:188,1,90.9999958343508
381,195,118976,1,0,0:0:0:0:
196,297,119119,1,0,0:0:0:0:
204,96,119262,6,0,P|143:107|86:136,1,90.9999958343508
100,240,119547,1,0,0:0:0:0:
300,243,119690,1,0,0:0:0:0:
425,118,119833,1,0,0:0:0:0:
198,128,119976,5,0,0:0:0:0:
194,314,120119,1,0,0:0:0:0:
399,323,120262,1,0,0:0:0:0:
406,176,120404,6,0,P|311:107|309:107,1,90.9999958343508
209,83,120690,2,0,P|252:168|278:179,1,90.9999958343508
108,136,120976,5,0,0:0:0:0:
76,196,121047,1,0,0:0:0:0:
87,258,121119,2,0,P|124:303|171:316,1,90.9999958343508
333,205,121404,1,0,0:0:0:0:
187,143,121547,5,0,0:0:0:0:
190,284,121690,2,0,P|249:238|255:225,1,90.9999958343508
300,112,121976,2,0,P|371:94|407:116,1,90.9999958343508
482,258,122262,2,0,P|368:270|368:270,1,90.9999958343508
254,216,122547,1,0,0:0:0:0:
146,77,122690,5,0,0:0:0:0:
198,55,122762,1,0,0:0:0:0:
253,58,122833,1,0,0:0:0:0:
400,185,122976,1,0,0:0:0:0:
181,261,123119,1,0,0:0:0:0:
71,114,123262,5,0,0:0:0:0:
40,175,123333,1,0,0:0:0:0:
65,241,123404,2,0,P|98:307|131:329,1,90.9999958343508
331,288,123690,1,0,0:0:0:0:
213,152,123833,1,0,0:0:0:0:
387,67,123976,5,0,0:0:0:0:
422,109,124047,1,0,0:0:0:0:
427,161,124119,2,0,P|397:207|346:226,1,90.9999958343508
234,89,124404,5,0,0:0:0:0:
147,254,124547,1,0,0:0:0:0:
363,285,124690,2,0,P|404:212|402:185,1,90.9999958343508
382,88,124976,5,0,0:0:0:0:
188,155,125119,1,0,0:0:0:0:
288,294,125262,2,0,P|344:247|354:224,1,90.9999958343508
301,74,125547,1,0,0:0:0:0:
240,205,125690,1,0,0:0:0:0:
78,145,125833,2,0,P|97:204|118:238,1,90.9999958343508
393,260,126119,5,0,0:0:0:0:
251,143,126262,1,0,0:0:0:0:
451,78,126404,2,0,P|396:55|344:58,1,90.9999958343508
215,215,126690,2,0,P|283:188|314:171,1,90.9999958343508
472,279,126976,2,0,P|436:217|430:179,1,90.9999958343508
236,103,127262,6,0,P|207:92|174:95,1,52.5000020027161
87,164,127547,1,0,0:0:0:0:
87,164,127619,1,0,0:0:0:0:
87,164,127690,1,0,0:0:0:0:
160,275,127833,6,0,P|224:274|227:273,1,52.5000020027161
402,215,128119,2,0,P|344:210|329:218,1,52.5000020027161
189,74,128404,6,0,P|215:145|248:196,1,131.25000500679
401,289,128833,1,0,0:0:0:0:
410,248,128904,1,0,0:0:0:0:
411,216,128976,2,0,P|387:161|344:132,1,105.000004005432
240,145,129404,1,0,0:0:0:0:
342,294,129547,5,0,0:0:0:0:
148,196,129690,1,0,0:0:0:0:
413,229,129833,1,0,0:0:0:0:
260,342,129976,1,0,0:0:0:0:
86,109,130119,2,0,P|152:83|192:87,1,97.9999970092774
353,121,130404,5,0,0:0:0:0:
353,121,130476,1,0,0:0:0:0:
353,121,130547,1,0,0:0:0:0:
196,197,130690,1,0,0:0:0:0:
397,296,130833,1,0,0:0:0:0:
459,133,130976,2,0,P|424:81|379:65,1,97.9999970092774
204,63,131262,5,0,0:0:0:0:
289,252,131404,1,0,0:0:0:0:
84,184,131547,1,0,0:0:0:0:
331,136,131690,1,0,0:0:0:0:
148,256,131833,5,0,0:0:0:0:
187,294,131904,1,0,0:0:0:0:
236,314,131976,2,0,P|310:312|337:306,1,97.9999970092774
422,214,132262,1,0,0:0:0:0:
216,88,132404,5,0,0:0:0:0:
234,153,132476,1,0,0:0:0:0:
263,211,132547,2,0,P|306:261|357:298,1,97.9999970092774
469,133,132833,5,0,0:0:0:0:
267,99,132976,1,0,0:0:0:0:
142,225,133119,1,0,0:0:0:0:
284,337,133262,1,0,0:0:0:0:
153,83,133404,6,0,P|198:37|257:45,1,97.9999970092774
358,170,133690,1,0,0:0:0:0:
179,203,133833,1,0,0:0:0:0:
311,332,133976,1,0,0:0:0:0:
272,112,134119,6,0,P|325:66|389:63,1,97.9999970092774
477,184,134404,1,0,0:0:0:0:
335,255,134547,1,0,0:0:0:0:
177,132,134690,1,0,0:0:0:0:
121,131,134762,1,0,0:0:0:0:
77,172,134833,2,0,P|71:235|92:273,1,97.9999970092774
268,295,135119,6,0,P|273:223|256:185,1,97.9999970092774
288,68,135404,1,0,0:0:0:0:
378,217,135547,2,0,P|390:289|358:329,1,97.9999970092774
131,232,135833,2,0,P|235:254|247:243,1,97.9999970092774
433,110,136119,2,0,P|375:119|324:98,1,97.9999970092774
197,54,136404,5,0,0:0:0:0:
145,63,136476,1,0,0:0:0:0:
100,90,136547,2,0,P|87:152|84:198,1,97.9999970092774
162,339,136833,1,0,0:0:0:0:
338,319,136976,5,0,0:0:0:0:
389,262,137047,1,0,0:0:0:0:
405,193,137119,2,0,P|390:135|348:99,2,97.9999970092774
207,274,137547,5,0,0:0:0:0:
56,112,137690,1,0,0:0:0:0:
42,299,137833,1,0,0:0:0:0:
282,349,137976,2,0,P|376:318|397:301,1,97.9999970092774
421,160,138262,1,0,0:0:0:0:
258,108,138404,1,0,0:0:0:0:
133,206,138547,1,0,0:0:0:0:
347,299,138690,6,0,P|343:242|353:190,1,97.9999970092774
179,47,138976,2,0,P|183:110|168:162,1,97.9999970092774
209,301,139262,5,0,0:0:0:0:
251,272,139333,1,0,0:0:0:0:
280,230,139404,2,0,P|325:172|364:161,1,97.9999970092774
487,237,139690,1,0,0:0:0:0:
322,96,139833,5,0,0:0:0:0:
137,178,139976,2,0,P|138:251|160:274,1,97.9999970092774
351,302,140262,1,0,0:0:0:0:
169,65,140404,5,0,0:0:0:0:
140,63,140476,1,0,0:0:0:0:
110,74,140547,2,0,P|53:145|49:161,1,97.9999970092774
193,283,140833,1,0,0:0:0:0:
260,141,140976,5,0,0:0:0:0:
322,116,141047,1,0,0:0:0:0:
389,128,141119,1,0,0:0:0:0:
433,318,141262,1,0,0:0:0:0:
263,320,141404,1,0,0:0:0:0:
135,198,141547,5,0,0:0:0:0:
95,125,141619,1,0,0:0:0:0:
138,54,141690,2,0,P|193:44|264:50,1,97.9999970092774
365,140,141976,1,0,0:0:0:0:
365,140,142047,1,0,0:0:0:0:
364,140,142119,2,0,P|411:235|407:258,1,97.9999970092774
213,285,142404,5,0,0:0:0:0:
113,96,142547,1,0,0:0:0:0:
265,143,142690,1,0,0:0:0:0:
67,243,142833,1,0,0:0:0:0:
281,332,142976,2,0,P|334:296|367:261,1,97.9999970092774
456,105,143262,5,0,0:0:0:0:
403,71,143333,1,0,0:0:0:0:
347,101,143404,2,0,P|299:114|246:113,1,97.9999970092774
108,100,143690,1,0,0:0:0:0:
134,259,143833,1,0,0:0:0:0:
319,294,143976,2,0,P|373:205|368:187,1,97.9999970092774
244,93,144262,5,0,0:0:0:0:
69,174,144404,1,0,0:0:0:0:
227,268,144547,1,0,0:0:0:0:
385,171,144690,5,0,0:0:0:0:
421,202,144762,1,0,0:0:0:0:
432,250,144833,2,0,P|407:297|369:310,1,48.9999985046387
273,331,144976,2,0,P|277:254|269:222,1,97.9999970092774
173,96,145262,2,0,P|182:172|198:205,1,97.9999970092774
350,192,145547,6,0,P|401:147|410:124,1,83.9999974365235
303,81,145833,1,0,0:0:0:0:
189,199,146119,5,0,0:0:0:0:
280,319,146404,2,0,P|339:258|342:243,1,83.9999974365235
211,63,146690,6,0,P|162:114|156:148,1,83.9999974365235
256,238,146976,5,0,0:0:0:0:
296,190,147047,1,0,0:0:0:0:
347,162,147119,2,0,P|431:169|403:311,1,251.999992309571
160,205,147833,5,0,0:0:0:0:
