osu file format v14

[General]
AudioFilename: audio.ogg
AudioLeadIn: 0
PreviewTime: 161860
Countdown: 0
SampleSet: Normal
StackLeniency: 0.7
Mode: 1
LetterboxInBreaks: 0
WidescreenStoryboard: 1

[Editor]
Bookmarks: 10281,20386,30491,45649,55754,65860,75965,91123,111333,131544,136597,146702,161860,171965,182070,201649,212386,229754
DistanceSpacing: 2.2
BeatDivisor: 4
GridSize: 16
TimelineZoom: 1.5

[Metadata]
Title:Lo malo de ser bueno
TitleUnicode:Lo malo de ser bueno
Artist:El Cuarteto de Nos
ArtistUnicode:El Cuarteto de Nos
Creator:Gamelan4
Version:Facil
Source:
Tags:Porfiado rock alternativo alternative spanish espaƱol uruguay kqrth skull kid skull_kid coryn
BeatmapID:2761399
BeatmapSetID:1188797

[Difficulty]
HPDrainRate:8
CircleSize:2
OverallDifficulty:3
ApproachRate:10
SliderMultiplier:1.4
SliderTickRate:1

[Events]
//Background and Video events
0,0,"Cuarteto Logo.png",0,55
//Break Periods
2,161850,171505
//Storyboard Layer 0 (Background)
//Storyboard Layer 1 (Fail)
//Storyboard Layer 2 (Pass)
//Storyboard Layer 3 (Foreground)
//Storyboard Layer 4 (Overlay)
//Storyboard Sound Samples

[TimingPoints]
166,631.578947368421,4,1,0,60,1,0
166,-83.3333333333333,4,1,0,60,0,0
45639,-83.3333333333333,4,1,0,70,0,1
65850,-83.3333333333333,4,1,0,60,0,0
91113,-83.3333333333333,4,1,0,70,0,1
111323,-83.3333333333333,4,1,0,60,0,0
182060,-83.3333333333333,4,1,0,70,0,1
212376,-83.3333333333333,4,1,0,60,0,0

[HitObjects]
256,192,166,5,0,0:0:0:0:
256,192,797,1,8,0:0:0:0:
272,176,1429,1,0,0:0:0:0:
272,176,2060,1,8,0:0:0:0:
288,176,2692,1,0,0:0:0:0:
256,176,3323,1,8,0:0:0:0:
174,82,3955,1,0,0:0:0:0:
200,144,5218,1,0,0:0:0:0:
288,176,5850,1,8,0:0:0:0:
288,192,6481,1,0,0:0:0:0:
464,176,7113,1,8,0:0:0:0:
288,176,7429,1,0,0:0:0:0:
368,160,7744,1,0,0:0:0:0:
288,176,9008,1,0,0:0:0:0:
124,156,9323,1,8,0:0:0:0:
288,92,9955,1,0,0:0:0:0:
288,176,10271,1,0,0:0:0:0:
256,192,10902,1,8,0:0:0:0:
272,176,11534,1,0,0:0:0:0:
272,176,12166,1,8,0:0:0:0:
263,113,12797,1,0,0:0:0:0:
146,163,13429,1,8,0:0:0:0:
288,176,14060,1,0,0:0:0:0:
69,112,14376,1,0,0:0:0:0:
113,153,14692,1,8,0:0:0:0:
295,218,15008,1,8,0:0:0:0:
186,136,15323,1,0,0:0:0:0:
256,192,15955,1,8,0:0:0:0:
272,176,16587,1,0,0:0:0:0:
272,176,17218,1,8,0:0:0:0:
319,202,17534,1,0,0:0:0:0:
288,176,17850,1,0,0:0:0:0:
368,160,19113,1,0,0:0:0:0:
285,153,19429,1,8,0:0:0:0:
101,92,20060,1,0,0:0:0:0:
191,114,20376,1,0,0:0:0:0:
256,192,21008,1,8,0:0:0:0:
188,248,21797,1,0,0:0:0:0:
284,210,22271,1,8,0:0:0:0:
288,176,22902,1,0,0:0:0:0:
256,176,23534,1,8,0:0:0:0:
369,117,24323,5,0,0:0:0:0:
355,205,24797,1,8,0:0:0:0:
271,239,25113,1,0,0:0:0:0:
266,118,25429,1,0,0:0:0:0:
256,192,26060,1,8,0:0:0:0:
272,176,26850,1,0,0:0:0:0:
272,176,27323,1,8,0:0:0:0:
288,176,27955,1,0,0:0:0:0:
279,242,29218,1,0,0:0:0:0:
286,97,29534,1,8,0:0:0:0:
311,90,30165,1,8,0:0:0:0:
311,90,30481,1,4,0:0:0:0:
256,192,31113,1,8,0:0:0:0:
329,251,31744,1,8,0:0:0:0:
256,176,32060,1,8,0:0:0:0:
272,176,32376,1,0,0:0:0:0:
275,122,33008,1,0,0:0:0:0:
335,252,33639,1,8,0:0:0:0:
368,160,34271,1,0,0:0:0:0:
320,82,34587,1,0,0:0:0:0:
138,118,34902,1,8,0:0:0:0:
320,82,35218,1,8,0:0:0:0:
297,106,35534,1,0,0:0:0:0:
256,192,36166,1,8,0:0:0:0:
272,176,36797,1,0,0:0:0:0:
256,176,37429,1,0,0:0:0:0:
319,202,37744,1,8,0:0:0:0:
288,176,38060,1,0,0:0:0:0:
368,160,39323,1,0,0:0:0:0:
346,99,39639,1,8,0:0:0:0:
281,106,40271,1,0,0:0:0:0:
281,106,40587,1,0,0:0:0:0:
256,192,41218,1,8,0:0:0:0:
272,176,41850,1,0,0:0:0:0:
256,176,42166,1,0,0:0:0:0:
272,176,42481,1,8,0:0:0:0:
288,176,43113,1,4,0:0:0:0:
252,186,43744,1,0,0:0:0:0:
354,172,44376,1,0,0:0:0:0:
250,90,44692,1,0,0:0:0:0:
250,90,45008,1,8,0:0:0:0:
241,93,45323,1,8,0:0:0:0:
241,93,45639,1,4,0:0:0:0:
274,113,46271,1,8,0:0:0:0:
274,113,46902,1,0,0:0:0:0:
274,113,47218,1,0,0:0:0:0:
274,113,47534,1,8,0:0:0:0:
229,70,47850,1,8,0:0:0:0:
274,113,48166,1,0,0:0:0:0:
102,144,48797,1,8,0:0:0:0:
272,235,49429,1,0,0:0:0:0:
288,95,49902,1,8,0:0:0:0:
317,226,50218,1,8,0:0:0:0:
238,243,50692,1,0,0:0:0:0:
275,82,51323,1,8,0:0:0:0:
275,82,51955,1,0,0:0:0:0:
275,82,52271,1,0,0:0:0:0:
275,82,52587,1,8,0:0:0:0:
346,221,53218,5,4,0:0:0:0:
379,232,54481,1,0,0:0:0:0:
334,220,54797,1,8,0:0:0:0:
334,220,55429,1,8,0:0:0:0:
334,220,55744,1,4,0:0:0:0:
274,112,56376,1,8,0:0:0:0:
274,112,57008,1,0,0:0:0:0:
274,112,57323,1,0,0:0:0:0:
274,112,57639,1,8,0:0:0:0:
274,112,58271,1,0,0:0:0:0:
94,219,58587,1,8,0:0:0:0:
274,112,58902,1,8,0:0:0:0:
288,94,59534,1,0,0:0:0:0:
288,94,59850,1,0,0:0:0:0:
288,94,60166,1,8,0:0:0:0:
346,226,60481,1,8,0:0:0:0:
288,94,60797,1,0,0:0:0:0:
275,81,61429,1,8,0:0:0:0:
275,81,62060,1,0,0:0:0:0:
275,81,62376,1,0,0:0:0:0:
275,81,62692,1,8,0:0:0:0:
346,220,63323,5,0,0:0:0:0:
372,280,64587,1,0,0:0:0:0:
372,280,64902,1,0,0:0:0:0:
372,84,65218,5,12,0:0:0:0:
191,114,65850,1,0,0:0:0:0:
163,173,66481,1,8,0:0:0:0:
272,175,67113,1,0,0:0:0:0:
130,168,67429,1,0,0:0:0:0:
308,216,67744,1,8,0:0:0:0:
288,175,68376,1,0,0:0:0:0:
256,175,69008,1,8,0:0:0:0:
368,159,69639,1,0,0:0:0:0:
320,109,69955,1,0,0:0:0:0:
346,87,70271,1,8,0:0:0:0:
343,89,70587,1,0,0:0:0:0:
266,117,70902,1,0,0:0:0:0:
256,191,71534,1,8,0:0:0:0:
171,208,72165,1,0,0:0:0:0:
266,225,72481,1,0,0:0:0:0:
272,175,72797,1,8,0:0:0:0:
288,175,73429,1,0,0:0:0:0:
160,242,74692,1,0,0:0:0:0:
160,242,75008,1,8,0:0:0:0:
160,242,75639,1,8,0:0:0:0:
160,242,75955,1,4,0:0:0:0:
256,192,76587,5,8,0:0:0:0:
272,176,77218,1,0,0:0:0:0:
354,91,77534,1,8,0:0:0:0:
272,176,77850,1,8,0:0:0:0:
275,122,78481,1,0,0:0:0:0:
256,176,79113,1,8,0:0:0:0:
368,160,79744,1,0,0:0:0:0:
320,82,80060,1,0,0:0:0:0:
320,82,80692,1,8,0:0:0:0:
297,106,81008,1,0,0:0:0:0:
303,230,81639,1,8,0:0:0:0:
256,176,82271,1,0,0:0:0:0:
272,176,82902,1,8,0:0:0:0:
245,272,83218,1,8,0:0:0:0:
288,176,83534,1,0,0:0:0:0:
368,160,84797,1,0,0:0:0:0:
346,99,85113,1,8,0:0:0:0:
107,119,85429,1,0,0:0:0:0:
129,161,85744,1,8,0:0:0:0:
281,106,86060,1,0,0:0:0:0:
256,192,86692,1,8,0:0:0:0:
271,175,87323,1,0,0:0:0:0:
387,156,87639,1,0,0:0:0:0:
356,89,87955,5,12,0:0:0:0:
349,280,88587,5,0,0:0:0:0:
158,208,89218,1,0,0:0:0:0:
354,172,89850,1,0,0:0:0:0:
250,90,90166,1,0,0:0:0:0:
250,90,90481,1,8,0:0:0:0:
241,93,90797,1,8,0:0:0:0:
241,93,91113,1,4,0:0:0:0:
274,113,91745,1,8,0:0:0:0:
274,113,92376,1,0,0:0:0:0:
274,113,92692,1,0,0:0:0:0:
274,113,93008,1,8,0:0:0:0:
229,70,93324,1,8,0:0:0:0:
274,113,93640,1,0,0:0:0:0:
102,144,94271,1,8,0:0:0:0:
272,235,94903,1,0,0:0:0:0:
288,95,95376,1,8,0:0:0:0:
317,226,95692,1,8,0:0:0:0:
238,243,96166,1,0,0:0:0:0:
275,82,96797,1,8,0:0:0:0:
275,82,97429,1,0,0:0:0:0:
275,82,97745,1,0,0:0:0:0:
275,82,98061,1,8,0:0:0:0:
346,221,98692,5,4,0:0:0:0:
379,232,99955,1,0,0:0:0:0:
334,220,100271,1,8,0:0:0:0:
334,220,100903,1,8,0:0:0:0:
334,220,101218,1,4,0:0:0:0:
274,112,101850,1,8,0:0:0:0:
274,112,102482,1,0,0:0:0:0:
274,112,102797,1,0,0:0:0:0:
274,112,103113,1,8,0:0:0:0:
274,112,103745,1,0,0:0:0:0:
100,210,104060,1,8,0:0:0:0:
274,112,104376,1,8,0:0:0:0:
288,94,105008,1,0,0:0:0:0:
288,94,105324,1,0,0:0:0:0:
288,94,105640,1,8,0:0:0:0:
346,226,105955,1,8,0:0:0:0:
288,94,106271,1,0,0:0:0:0:
275,81,106903,1,8,0:0:0:0:
275,81,107534,1,0,0:0:0:0:
275,81,107850,1,0,0:0:0:0:
275,81,108166,1,8,0:0:0:0:
346,220,108797,5,0,0:0:0:0:
202,165,109429,1,0,0:0:0:0:
372,280,110061,1,0,0:0:0:0:
372,280,110376,1,0,0:0:0:0:
372,84,110692,5,8,0:0:0:0:
132,176,111008,1,8,0:0:0:0:
191,114,111324,1,4,0:0:0:0:
396,225,112587,5,0,0:0:0:0:
396,225,113218,1,8,0:0:0:0:
396,225,113534,1,0,0:0:0:0:
396,225,113850,1,0,0:0:0:0:
349,229,115113,1,0,0:0:0:0:
295,237,115744,1,8,0:0:0:0:
295,237,116060,1,8,0:0:0:0:
295,237,116376,1,0,0:0:0:0:
295,237,117639,1,0,0:0:0:0:
295,237,118271,1,8,0:0:0:0:
288,245,118587,1,0,0:0:0:0:
293,250,118902,1,12,0:0:0:0:
295,237,120165,1,0,0:0:0:0:
342,262,120481,1,8,0:0:0:0:
423,253,121113,1,8,0:0:0:0:
295,237,121429,1,4,0:0:0:0:
247,274,122692,1,0,0:0:0:0:
341,259,123323,1,8,0:0:0:0:
341,259,123639,1,0,0:0:0:0:
341,259,123955,1,0,0:0:0:0:
341,259,125218,1,0,0:0:0:0:
341,259,125850,1,8,0:0:0:0:
341,259,126165,1,8,0:0:0:0:
341,259,126481,1,0,0:0:0:0:
352,222,127744,1,0,0:0:0:0:
345,272,128060,1,0,0:0:0:0:
411,280,128376,1,8,0:0:0:0:
411,280,128692,1,0,0:0:0:0:
402,236,129008,1,12,0:0:0:0:
384,276,131534,1,0,0:0:0:0:
453,263,132166,1,8,0:0:0:0:
375,256,132797,1,0,0:0:0:0:
375,256,133113,1,0,0:0:0:0:
438,251,133429,1,8,0:0:0:0:
394,253,134060,1,0,0:0:0:0:
361,312,134692,1,8,0:0:0:0:
317,273,135323,1,0,0:0:0:0:
329,264,135639,1,0,0:0:0:0:
339,273,135955,1,8,0:0:0:0:
372,107,136587,1,0,0:0:0:0:
256,191,137218,1,8,0:0:0:0:
272,175,137692,1,8,0:0:0:0:
171,112,138166,1,0,0:0:0:0:
272,175,138481,1,8,0:0:0:0:
288,175,139113,1,0,0:0:0:0:
256,175,139744,1,8,0:0:0:0:
368,159,140218,1,0,0:0:0:0:
320,109,140692,1,0,0:0:0:0:
346,87,141008,1,8,0:0:0:0:
343,89,141323,1,0,0:0:0:0:
266,117,141639,1,0,0:0:0:0:
256,191,142271,1,8,0:0:0:0:
266,225,142902,1,0,0:0:0:0:
266,225,143218,1,0,0:0:0:0:
272,175,143534,1,8,0:0:0:0:
288,175,144166,1,0,0:0:0:0:
281,106,146692,1,4,0:0:0:0:
328,86,147323,1,8,0:0:0:0:
347,72,147639,1,8,0:0:0:0:
287,223,147955,1,4,0:0:0:0:
347,72,148587,1,0,0:0:0:0:
347,72,148902,1,0,0:0:0:0:
325,108,149218,1,12,0:0:0:0:
347,72,149850,1,0,0:0:0:0:
325,108,150481,1,8,0:0:0:0:
336,83,151429,1,8,0:0:0:0:
326,117,151744,1,0,0:0:0:0:
351,81,152376,1,0,0:0:0:0:
351,81,152692,1,0,0:0:0:0:
326,117,153008,1,12,0:0:0:0:
351,81,153639,1,8,0:0:0:0:
351,81,153955,1,8,0:0:0:0:
316,113,154271,1,4,0:0:0:0:
351,81,154902,1,8,0:0:0:0:
154,141,155534,1,0,0:0:0:0:
282,221,155850,1,8,0:0:0:0:
369,79,156481,1,8,0:0:0:0:
369,79,156797,1,4,0:0:0:0:
401,81,157429,1,8,0:0:0:0:
316,69,158060,1,0,0:0:0:0:
316,69,158376,1,0,0:0:0:0:
320,70,158692,5,12,0:0:0:0:
316,113,159323,5,0,0:0:0:0:
316,104,159955,1,0,0:0:0:0:
316,104,160587,1,8,0:0:0:0:
316,104,160902,1,8,0:0:0:0:
316,104,161218,1,0,0:0:0:0:
316,104,161534,1,8,0:0:0:0:
354,282,171955,5,4,0:0:0:0:
340,275,173218,1,4,0:0:0:0:
339,275,174481,1,4,0:0:0:0:
339,275,175744,1,4,0:0:0:0:
389,280,177008,1,0,0:0:0:0:
389,280,177639,1,0,0:0:0:0:
389,280,178271,1,0,0:0:0:0:
389,280,178902,1,0,0:0:0:0:
389,280,179534,1,0,0:0:0:0:
389,280,179850,1,0,0:0:0:0:
389,280,180166,1,0,0:0:0:0:
389,280,180481,1,0,0:0:0:0:
389,280,180797,1,8,0:0:0:0:
241,93,182060,1,4,0:0:0:0:
274,113,182692,1,8,0:0:0:0:
274,113,183323,1,0,0:0:0:0:
274,113,183639,1,0,0:0:0:0:
274,113,183955,1,8,0:0:0:0:
229,70,184271,1,8,0:0:0:0:
274,113,184587,1,0,0:0:0:0:
102,144,185218,1,8,0:0:0:0:
272,235,185850,1,0,0:0:0:0:
288,95,186323,1,8,0:0:0:0:
317,226,186639,1,8,0:0:0:0:
238,243,187113,1,0,0:0:0:0:
275,82,187744,1,8,0:0:0:0:
275,82,188376,1,0,0:0:0:0:
275,82,188692,1,0,0:0:0:0:
275,82,189008,1,8,0:0:0:0:
126,161,189323,1,8,0:0:0:0:
346,221,189639,5,4,0:0:0:0:
379,232,190902,1,0,0:0:0:0:
334,220,191218,1,8,0:0:0:0:
334,220,191850,1,8,0:0:0:0:
334,220,192165,1,4,0:0:0:0:
274,112,192797,1,8,0:0:0:0:
274,112,193429,1,0,0:0:0:0:
274,112,193744,1,0,0:0:0:0:
274,112,194060,1,8,0:0:0:0:
274,112,194692,1,0,0:0:0:0:
274,112,195323,1,8,0:0:0:0:
288,94,195955,1,0,0:0:0:0:
288,94,196271,1,0,0:0:0:0:
288,94,196587,1,8,0:0:0:0:
346,226,196902,1,8,0:0:0:0:
288,94,197218,1,4,0:0:0:0:
275,81,197850,1,8,0:0:0:0:
275,81,198481,1,0,0:0:0:0:
275,81,198797,1,0,0:0:0:0:
275,81,199113,1,8,0:0:0:0:
346,220,199744,5,0,0:0:0:0:
372,280,201008,1,0,0:0:0:0:
372,280,201323,1,0,0:0:0:0:
372,84,201639,5,8,0:0:0:0:
329,283,201955,5,8,0:0:0:0:
191,114,202271,1,4,0:0:0:0:
275,80,202902,5,8,0:0:0:0:
275,80,203534,1,0,0:0:0:0:
275,80,203850,1,0,0:0:0:0:
275,80,204166,1,8,0:0:0:0:
346,219,204797,5,0,0:0:0:0:
297,78,205429,1,8,0:0:0:0:
374,81,206060,1,0,0:0:0:0:
374,81,206376,1,0,0:0:0:0:
372,83,206692,5,8,0:0:0:0:
399,97,207008,1,8,0:0:0:0:
394,99,207323,1,4,0:0:0:0:
275,81,207955,1,8,0:0:0:0:
275,81,208587,1,0,0:0:0:0:
275,81,208902,1,0,0:0:0:0:
275,81,209218,1,8,0:0:0:0:
346,220,209850,5,12,0:0:0:0:
325,96,210481,1,0,0:0:0:0:
374,82,211113,1,0,0:0:0:0:
374,82,211429,1,8,0:0:0:0:
372,84,211744,5,8,0:0:0:0:
399,98,212060,5,8,0:0:0:0:
394,100,212376,1,4,0:0:0:0:
396,225,213639,5,0,0:0:0:0:
396,225,214271,1,8,0:0:0:0:
396,225,214587,1,0,0:0:0:0:
396,225,214902,1,0,0:0:0:0:
349,229,216166,1,0,0:0:0:0:
295,237,216797,1,8,0:0:0:0:
295,237,217113,1,8,0:0:0:0:
295,237,217429,1,0,0:0:0:0:
295,237,218692,1,0,0:0:0:0:
295,237,219323,1,8,0:0:0:0:
288,245,219639,1,0,0:0:0:0:
293,250,219955,1,12,0:0:0:0:
295,237,221218,1,0,0:0:0:0:
342,262,221534,1,8,0:0:0:0:
292,200,221850,1,0,0:0:0:0:
423,253,222166,1,8,0:0:0:0:
295,237,222481,1,4,0:0:0:0:
247,274,223744,1,0,0:0:0:0:
341,259,224376,1,8,0:0:0:0:
341,259,224692,1,0,0:0:0:0:
341,259,225008,1,4,0:0:0:0:
341,259,226271,1,0,0:0:0:0:
341,259,226902,1,8,0:0:0:0:
341,259,227218,1,8,0:0:0:0:
341,259,227534,1,0,0:0:0:0:
352,222,228797,1,0,0:0:0:0:
345,272,229113,1,0,0:0:0:0:
411,280,229429,1,8,0:0:0:0:
411,280,229744,1,4,0:0:0:0:
