osu file format v14

[General]
AudioFilename: audio.ogg
AudioLeadIn: 0
PreviewTime: 161860
Countdown: 0
SampleSet: Normal
StackLeniency: 0.7
Mode: 1
LetterboxInBreaks: 0
WidescreenStoryboard: 0

[Editor]
Bookmarks: 10281,20386,30491,45649,55754,65860,75965,91123,111333,131544,136597,146702,161860,171965,182070,201649,212386,229754
DistanceSpacing: 1.2
BeatDivisor: 4
GridSize: 16
TimelineZoom: 2.1

[Metadata]
Title:Lo malo de ser bueno
TitleUnicode:Lo malo de ser bueno
Artist:El Cuarteto de Nos
ArtistUnicode:El Cuarteto de Nos
Creator:Gamelan4
Version:Dualidad
Source:
Tags:Porfiado rock alternativo alternative spanish espaƱol uruguay kqrth skull kid skull_kid coryn
BeatmapID:2477182
BeatmapSetID:1188797

[Difficulty]
HPDrainRate:6
CircleSize:2
OverallDifficulty:6
ApproachRate:10
SliderMultiplier:1.4
SliderTickRate:1

[Events]
//Background and Video events
0,0,"Cuarteto Logo.png",0,55
//Break Periods
2,161850,171505
//Storyboard Layer 0 (Background)
//Storyboard Layer 1 (Fail)
//Storyboard Layer 2 (Pass)
//Storyboard Layer 3 (Foreground)
//Storyboard Layer 4 (Overlay)
//Storyboard Sound Samples

[TimingPoints]
166,631.578947368421,4,1,0,60,1,0
166,-83.3333333333333,4,1,0,60,0,0
28271,-82.6446280991736,4,1,0,60,0,0
28587,-82.6446280991736,4,1,0,60,0,0
28744,-81.9672131147541,4,1,0,60,0,0
28902,-81.3008130081301,4,1,0,60,0,0
29060,-80.6451612903226,4,1,0,60,0,0
29218,-80,4,1,0,60,0,0
29534,-79.3650793650794,4,1,0,60,0,0
29850,-78.7401574803149,4,1,0,60,0,0
30166,-78.125,4,1,0,60,0,0
30323,-77.5193798449612,4,1,0,60,0,0
30481,-76.9230769230769,4,1,0,60,0,0
39639,-76.3358778625954,4,1,0,60,0,0
39955,-75.7575757575758,4,1,0,60,0,0
40271,-75.187969924812,4,1,0,60,0,0
40429,-74.6268656716418,4,1,0,60,0,0
40587,-74.0740740740741,4,1,0,60,0,0
42166,-73.5294117647059,4,1,0,60,0,0
42481,-72.992700729927,4,1,0,60,0,0
42797,-72.463768115942,4,1,0,60,0,0
42955,-71.9424460431655,4,1,0,60,0,0
43113,-71.4285714285714,4,1,0,60,0,0
43429,-72.463768115942,4,1,0,60,0,0
43744,-73.5294117647059,4,1,0,60,0,0
44060,-74.6268656716418,4,1,0,60,0,0
44376,-75.7575757575758,4,1,0,60,0,0
44692,-76.9230769230769,4,1,0,60,0,0
44850,-78.125,4,1,0,60,0,0
45008,-79.3650793650794,4,1,0,60,0,0
45166,-80.6451612903226,4,1,0,60,0,0
45323,-81.9672131147541,4,1,0,60,0,0
45481,-83.3333333333333,4,1,0,60,0,0
45639,-66.6666666666667,4,1,0,70,0,1
53850,-68.9655172413793,4,1,0,70,0,1
54481,-71.4285714285714,4,1,0,70,0,1
54797,-74.0740740740741,4,1,0,70,0,1
55113,-76.9230769230769,4,1,0,70,0,1
55429,-80,4,1,0,70,0,1
55587,-83.3333333333333,4,1,0,70,0,1
55744,-66.6666666666667,4,1,0,70,0,1
65850,-83.3333333333333,4,1,0,60,0,0
73271,-82.9875518672199,4,1,0,60,0,0
73429,-82.6446280991736,4,1,0,60,0,0
73587,-82.3045267489712,4,1,0,60,0,0
73744,-81.9672131147541,4,1,0,60,0,0
73902,-81.6326530612245,4,1,0,60,0,0
74060,-81.3008130081301,4,1,0,60,0,0
74218,-80.9716599190283,4,1,0,60,0,0
74376,-80.6451612903226,4,1,0,60,0,0
74534,-80.3212851405623,4,1,0,60,0,0
74692,-80,4,1,0,60,0,0
75008,-79.3650793650794,4,1,0,60,0,0
75323,-78.7401574803149,4,1,0,60,0,0
75639,-78.125,4,1,0,60,0,0
75797,-77.5193798449612,4,1,0,60,0,0
75955,-76.9230769230769,4,1,0,60,0,0
85744,-75.7575757575758,4,1,0,60,0,0
85902,-74.6268656716418,4,1,0,60,0,0
86060,-73.5294117647059,4,1,0,60,0,0
87955,-71.4285714285714,4,1,0,60,0,0
88587,-72.463768115942,4,1,0,60,0,0
88902,-73.5294117647059,4,1,0,60,0,0
89218,-74.6268656716418,4,1,0,60,0,0
89534,-75.7575757575758,4,1,0,60,0,0
89850,-76.9230769230769,4,1,0,60,0,0
90165,-78.125,4,1,0,60,0,0
90481,-79.3650793650794,4,1,0,60,0,0
90639,-80.6451612903226,4,1,0,60,0,0
90797,-81.9672131147541,4,1,0,60,0,0
90955,-83.3333333333333,4,1,0,60,0,0
91113,-66.6666666666667,4,1,0,70,0,1
99323,-68.9655172413793,4,1,0,70,0,1
99955,-71.4285714285714,4,1,0,70,0,1
100271,-74.0740740740741,4,1,0,70,0,1
100587,-76.9230769230769,4,1,0,70,0,1
100902,-80,4,1,0,70,0,1
101060,-83.3333333333333,4,1,0,70,0,1
101218,-66.6666666666667,4,1,0,70,0,1
111323,-66.6666666666667,4,1,0,60,0,0
111639,-80,4,1,0,60,0,0
115113,-79.3650793650794,4,1,0,60,0,0
115429,-78.7401574803149,4,1,0,60,0,0
115744,-78.125,4,1,0,60,0,0
116060,-77.5193798449612,4,1,0,60,0,0
116376,-76.9230769230769,4,1,0,60,0,0
120481,-76.3358778625954,4,1,0,60,0,0
120797,-75.7575757575758,4,1,0,60,0,0
121113,-75.187969924812,4,1,0,60,0,0
121271,-74.6268656716418,4,1,0,60,0,0
121429,-74.0740740740741,4,1,0,60,0,0
125218,-73.5294117647059,4,1,0,60,0,0
125534,-72.992700729927,4,1,0,60,0,0
125850,-72.463768115942,4,1,0,60,0,0
126165,-71.9424460431655,4,1,0,60,0,0
126481,-71.4285714285714,4,1,0,60,0,0
129639,-71.9424460431655,4,1,0,60,0,0
130271,-72.463768115942,4,1,0,60,0,0
130587,-72.7272727272727,4,1,0,60,0,0
130902,-72.992700729927,4,1,0,60,0,0
131534,-73.5294117647059,4,1,0,60,0,0
132166,-74.0740740740741,4,1,0,60,0,0
132797,-74.6268656716418,4,1,0,60,0,0
133113,-75.187969924812,4,1,0,60,0,0
133429,-75.7575757575758,4,1,0,60,0,0
133744,-76.3358778625954,4,1,0,60,0,0
134060,-76.9230769230769,4,1,0,60,0,0
134692,-77.5193798449612,4,1,0,60,0,0
135323,-78.125,4,1,0,60,0,0
135639,-79.3650793650794,4,1,0,60,0,0
135955,-80.6451612903226,4,1,0,60,0,0
136271,-81.9672131147541,4,1,0,60,0,0
136587,-83.3333333333333,4,1,0,60,0,0
144126,-105.263157894737,4,1,0,60,0,0
146692,-62.5,4,1,0,60,0,0
147008,-74.6268656716418,4,1,0,60,0,0
147166,-73.5294117647059,4,1,0,60,0,0
147323,-72.463768115942,4,1,0,60,0,0
147481,-71.4285714285714,4,1,0,60,0,0
147639,-70.4225352112676,4,1,0,60,0,0
147797,-69.4444444444444,4,1,0,60,0,0
147955,-60.6060606060606,4,1,0,60,0,0
148271,-74.0740740740741,4,1,0,60,0,0
148587,-72.992700729927,4,1,0,60,0,0
148744,-71.9424460431655,4,1,0,60,0,0
148902,-70.9219858156028,4,1,0,60,0,0
149060,-69.9300699300699,4,1,0,60,0,0
149218,-58.8235294117647,4,1,0,60,0,0
149534,-73.5294117647059,4,1,0,60,0,0
149692,-72.463768115942,4,1,0,60,0,0
149850,-71.4285714285714,4,1,0,60,0,0
150008,-70.4225352112676,4,1,0,60,0,0
150166,-69.4444444444444,4,1,0,60,0,0
150323,-68.4931506849315,4,1,0,60,0,0
150481,-57.1428571428571,4,1,0,60,0,0
150797,-72.992700729927,4,1,0,60,0,0
150955,-71.9424460431655,4,1,0,60,0,0
151113,-70.9219858156028,4,1,0,60,0,0
151271,-69.9300699300699,4,1,0,60,0,0
151429,-68.9655172413793,4,1,0,60,0,0
151744,-55.5555555555556,4,1,0,60,0,0
152060,-72.463768115942,4,1,0,60,0,0
152218,-71.4285714285714,4,1,0,60,0,0
152376,-70.4225352112676,4,1,0,60,0,0
152534,-69.4444444444444,4,1,0,60,0,0
152692,-68.4931506849315,4,1,0,60,0,0
152850,-67.5675675675676,4,1,0,60,0,0
153008,-54.054054054054,4,1,0,60,0,0
153324,-71.9424460431655,4,1,0,60,0,0
153639,-70.9219858156028,4,1,0,60,0,0
153797,-69.9300699300699,4,1,0,60,0,0
153955,-68.9655172413793,4,1,0,60,0,0
154113,-68.0272108843537,4,1,0,60,0,0
154271,-52.6315789473684,4,1,0,60,0,0
154587,-70.9219858156028,4,1,0,60,0,0
154744,-70.4225352112676,4,1,0,60,0,0
154902,-69.9300699300699,4,1,0,60,0,0
155218,-69.4444444444444,4,1,0,60,0,0
155534,-68.9655172413793,4,1,0,60,0,0
155850,-68.4931506849315,4,1,0,60,0,0
156166,-68.0272108843537,4,1,0,60,0,0
156481,-67.5675675675676,4,1,0,60,0,0
156639,-67.1140939597315,4,1,0,60,0,0
156797,-66.6666666666667,4,1,0,60,0,0
157113,-66.2251655629139,4,1,0,60,0,0
157429,-65.7894736842105,4,1,0,60,0,0
157744,-65.359477124183,4,1,0,60,0,0
158060,-64.9350649350649,4,1,0,60,0,0
158376,-64.5161290322581,4,1,0,60,0,0
158692,-64.1025641025641,4,1,0,60,0,0
159008,-63.6942675159236,4,1,0,60,0,0
159323,-63.2911392405063,4,1,0,60,0,0
159639,-62.8930817610063,4,1,0,60,0,0
159955,-62.5,4,1,0,60,0,0
160271,-62.111801242236,4,1,0,60,0,0
160587,-61.7283950617284,4,1,0,60,0,0
160902,-61.3496932515337,4,1,0,60,0,0
161218,-60.9756097560976,4,1,0,60,0,0
161376,-60.6060606060606,4,1,0,60,0,0
161534,-60.2409638554217,4,1,0,60,0,0
161850,-100,4,1,0,45,0,0
171955,-66.6666666666667,4,1,0,60,0,0
177008,-83.3333333333333,4,1,0,60,0,0
177323,-81.9672131147541,4,1,0,60,0,0
177639,-80.6451612903226,4,1,0,60,0,0
177955,-79.3650793650794,4,1,0,60,0,0
178271,-78.125,4,1,0,60,0,0
178587,-76.9230769230769,4,1,0,60,0,0
178902,-75.7575757575758,4,1,0,60,0,0
179218,-74.6268656716418,4,1,0,60,0,0
179534,-73.5294117647059,4,1,0,60,0,0
179850,-72.463768115942,4,1,0,60,0,0
180166,-71.4285714285714,4,1,0,60,0,0
180481,-70.4225352112676,4,1,0,60,0,0
180797,-69.4444444444444,4,1,0,60,0,0
182060,-66.6666666666667,4,1,0,70,0,1
190271,-68.9655172413793,4,1,0,70,0,1
190902,-71.4285714285714,4,1,0,70,0,1
191218,-74.0740740740741,4,1,0,70,0,1
191534,-76.9230769230769,4,1,0,70,0,1
191850,-80,4,1,0,70,0,1
192008,-83.3333333333333,4,1,0,70,0,1
192126,-66.6666666666667,4,1,0,70,0,1
196429,-66.2251655629139,4,1,0,70,0,1
196587,-65.7894736842105,4,1,0,70,0,1
196744,-65.359477124183,4,1,0,70,0,1
197060,-64.9350649350649,4,1,0,70,0,1
197218,-64.5161290322581,4,1,0,70,0,1
201323,-64.1025641025641,4,1,0,70,0,1
201639,-63.6942675159236,4,1,0,70,0,1
201955,-63.2911392405063,4,1,0,70,0,1
202113,-62.8930817610063,4,1,0,70,0,1
202271,-62.5,4,1,0,70,0,1
206376,-62.111801242236,4,1,0,70,0,1
206692,-61.7283950617284,4,1,0,70,0,1
206850,-61.3496932515337,4,1,0,70,0,1
207166,-60.9756097560976,4,1,0,70,0,1
207323,-60.6060606060606,4,1,0,70,0,1
210797,-60.4229607250755,4,1,0,70,0,1
211113,-60.2409638554217,4,1,0,70,0,1
211429,-59.8802395209581,4,1,0,70,0,1
211587,-59.7014925373134,4,1,0,70,0,1
211744,-59.5238095238095,4,1,0,70,0,1
211902,-59.3471810089021,4,1,0,70,0,1
212060,-59.1715976331361,4,1,0,70,0,1
212218,-58.9970501474926,4,1,0,70,0,1
212376,-58.8235294117647,4,1,0,60,0,0
212692,-80,4,1,0,60,0,0
216166,-79.3650793650794,4,1,0,60,0,0
216481,-78.7401574803149,4,1,0,60,0,0
216797,-78.125,4,1,0,60,0,0
217113,-77.5193798449612,4,1,0,60,0,0
217429,-76.9230769230769,4,1,0,60,0,0
221534,-76.3358778625954,4,1,0,60,0,0
221850,-75.7575757575758,4,1,0,60,0,0
222166,-75.187969924812,4,1,0,60,0,0
222323,-74.6268656716418,4,1,0,60,0,0
222481,-74.0740740740741,4,1,0,60,0,0
226271,-73.5294117647059,4,1,0,60,0,0
226587,-72.992700729927,4,1,0,60,0,0
226902,-72.463768115942,4,1,0,60,0,0
227218,-71.9424460431655,4,1,0,60,0,0
227534,-71.4285714285714,4,1,0,60,0,0
228166,-68.9655172413793,4,1,0,60,0,0
228481,-66.6666666666667,4,1,0,60,0,0
228797,-64.5161290322581,4,1,0,60,0,0
229113,-62.5,4,1,0,60,0,0
229429,-60.6060606060606,4,1,0,60,0,0
229744,-58.8235294117647,4,1,0,60,0,0

[HitObjects]
256,192,166,5,0,0:0:0:0:
256,176,481,1,0,0:0:0:0:
256,192,797,1,8,0:0:0:0:
360,202,1113,1,8,0:0:0:0:
272,176,1271,1,8,0:0:0:0:
272,176,1429,1,0,0:0:0:0:
256,176,1744,1,0,0:0:0:0:
272,176,2060,1,8,0:0:0:0:
319,202,2376,1,0,0:0:0:0:
256,176,2534,1,0,0:0:0:0:
288,176,2692,1,8,0:0:0:0:
256,176,3008,1,0,0:0:0:0:
256,176,3323,1,8,0:0:0:0:
319,202,3639,1,0,0:0:0:0:
288,176,3797,1,8,0:0:0:0:
368,160,3955,1,8,0:0:0:0:
288,176,4113,1,0,0:0:0:0:
240,176,4587,1,8,0:0:0:0:
336,176,4902,1,8,0:0:0:0:
240,192,5218,1,0,0:0:0:0:
288,176,5534,1,0,0:0:0:0:
288,176,5850,1,8,0:0:0:0:
349,194,6166,1,8,0:0:0:0:
304,160,6323,1,8,0:0:0:0:
288,192,6481,1,0,0:0:0:0:
288,192,6797,1,0,0:0:0:0:
464,176,7113,1,8,0:0:0:0:
288,176,7429,1,0,0:0:0:0:
416,176,7587,1,8,0:0:0:0:
368,160,7744,1,0,0:0:0:0:
304,176,8376,1,8,0:0:0:0:
288,176,9008,1,0,0:0:0:0:
288,176,9323,1,8,0:0:0:0:
288,176,9639,1,0,0:0:0:0:
288,176,9955,1,8,0:0:0:0:
288,176,10113,1,8,0:0:0:0:
288,176,10271,1,0,0:0:0:0:
242,231,10587,1,0,0:0:0:0:
242,231,10744,1,0,0:0:0:0:
304,176,10902,1,8,0:0:0:0:
304,176,11218,1,8,0:0:0:0:
304,176,11376,1,8,0:0:0:0:
304,176,11534,1,0,0:0:0:0:
304,160,11850,1,0,0:0:0:0:
288,176,12166,1,8,0:0:0:0:
341,179,12639,1,8,0:0:0:0:
288,176,12797,1,0,0:0:0:0:
287,251,12955,1,8,0:0:0:0:
341,179,13113,1,8,0:0:0:0:
288,160,13271,1,0,0:0:0:0:
400,144,13429,1,8,0:0:0:0:
304,144,13744,1,0,0:0:0:0:
235,258,13902,1,8,0:0:0:0:
106,248,14060,1,0,0:0:0:0:
288,160,14376,1,0,0:0:0:0:
313,196,14692,1,0,0:0:0:0:
216,172,14850,1,0,0:0:0:0:
288,160,15008,1,8,0:0:0:0:
304,176,15323,1,8,0:0:0:0:
260,147,15639,1,0,0:0:0:0:
255,163,15797,1,0,0:0:0:0:
304,160,15955,1,8,0:0:0:0:
260,147,16113,1,0,0:0:0:0:
251,173,16271,1,8,0:0:0:0:
251,173,16587,1,0,0:0:0:0:
245,205,16744,1,0,0:0:0:0:
474,194,16902,1,8,0:0:0:0:
286,167,17060,1,8,0:0:0:0:
286,167,17218,1,0,0:0:0:0:
270,181,17534,1,0,0:0:0:0:
270,181,17692,1,0,0:0:0:0:
270,181,17850,1,8,0:0:0:0:
281,197,18166,1,0,0:0:0:0:
281,197,18481,1,8,0:0:0:0:
446,208,18797,1,0,0:0:0:0:
288,199,18955,1,8,0:0:0:0:
281,197,19113,1,0,0:0:0:0:
268,198,19429,1,8,0:0:0:0:
273,201,19744,1,0,0:0:0:0:
273,201,20060,1,8,0:0:0:0:
268,198,20218,1,8,0:0:0:0:
268,198,20376,1,0,0:0:0:0:
256,198,20692,1,0,0:0:0:0:
266,217,21008,1,8,0:0:0:0:
232,229,21323,1,8,0:0:0:0:
214,217,21481,1,0,0:0:0:0:
232,229,21639,1,8,0:0:0:0:
202,122,21797,1,8,0:0:0:0:
231,207,21955,1,0,0:0:0:0:
257,207,22271,1,8,0:0:0:0:
339,219,22587,1,0,0:0:0:0:
343,160,22744,1,0,0:0:0:0:
336,188,22902,1,8,0:0:0:0:
280,152,23060,1,0,0:0:0:0:
266,212,23218,1,0,0:0:0:0:
266,212,23534,1,8,0:0:0:0:
264,227,23850,1,0,0:0:0:0:
266,193,24008,1,0,0:0:0:0:
218,235,24166,1,8,0:0:0:0:
191,202,24323,1,8,0:0:0:0:
264,227,24481,1,0,0:0:0:0:
289,255,24797,1,8,0:0:0:0:
325,242,25113,1,8,0:0:0:0:
325,242,25271,1,8,0:0:0:0:
243,219,25429,1,0,0:0:0:0:
300,251,25744,1,0,0:0:0:0:
224,248,26060,1,8,0:0:0:0:
311,246,26218,1,0,0:0:0:0:
364,251,26376,1,8,0:0:0:0:
248,252,26692,1,0,0:0:0:0:
364,251,26850,1,8,0:0:0:0:
248,252,27008,1,0,0:0:0:0:
304,243,27166,1,0,0:0:0:0:
340,223,27323,1,8,0:0:0:0:
274,240,27639,1,0,0:0:0:0:
301,249,27797,1,0,0:0:0:0:
371,275,27955,1,8,0:0:0:0:
336,266,28271,1,8,0:0:0:0:
357,243,28587,1,0,0:0:0:0:
357,243,28744,1,0,0:0:0:0:
341,241,28902,1,8,0:0:0:0:
341,241,29060,1,8,0:0:0:0:
303,199,29218,1,0,0:0:0:0:
333,253,29534,1,8,0:0:0:0:
307,275,29850,1,0,0:0:0:0:
339,274,30165,1,8,0:0:0:0:
339,274,30323,1,8,0:0:0:0:
307,275,30481,1,4,0:0:0:0:
258,287,31113,1,0,0:0:0:0:
331,220,31271,1,8,0:0:0:0:
447,218,31429,1,0,0:0:0:0:
408,262,31587,1,0,0:0:0:0:
408,262,31744,1,8,0:0:0:0:
314,302,31902,1,0,0:0:0:0:
344,261,32060,1,8,0:0:0:0:
342,211,32376,1,0,0:0:0:0:
342,211,32534,1,0,0:0:0:0:
327,260,32692,1,8,0:0:0:0:
327,260,32850,1,8,0:0:0:0:
369,262,33008,1,0,0:0:0:0:
316,301,33166,1,0,0:0:0:0:
369,262,33323,1,8,0:0:0:0:
214,178,33639,1,0,0:0:0:0:
305,208,33797,1,8,0:0:0:0:
305,208,33955,1,8,0:0:0:0:
216,280,34113,1,0,0:0:0:0:
371,226,34271,1,0,0:0:0:0:
316,301,34429,1,0,0:0:0:0:
388,262,34587,1,8,0:0:0:0:
374,242,34902,1,8,0:0:0:0:
289,265,35218,1,0,0:0:0:0:
388,262,35534,1,8,0:0:0:0:
436,227,35692,1,8,0:0:0:0:
298,203,35850,1,0,0:0:0:0:
359,253,36008,1,0,0:0:0:0:
328,243,36166,1,8,0:0:0:0:
296,233,36639,1,0,0:0:0:0:
351,243,36797,1,8,0:0:0:0:
425,249,37113,1,8,0:0:0:0:
425,249,37271,1,8,0:0:0:0:
372,236,37429,1,0,0:0:0:0:
372,236,37744,1,0,0:0:0:0:
372,236,37902,1,0,0:0:0:0:
391,252,38060,1,8,0:0:0:0:
351,243,38218,1,0,0:0:0:0:
354,197,38692,1,8,0:0:0:0:
256,189,38850,1,0,0:0:0:0:
351,243,39008,1,8,0:0:0:0:
265,235,39166,1,8,0:0:0:0:
275,232,39244,1,8,0:0:0:0:
267,147,39323,1,0,0:0:0:0:
373,237,39639,1,8,0:0:0:0:
424,255,39955,1,0,0:0:0:0:
441,256,40271,1,8,0:0:0:0:
441,256,40429,1,8,0:0:0:0:
360,243,40587,1,0,0:0:0:0:
293,255,40902,1,0,0:0:0:0:
336,260,41218,1,8,0:0:0:0:
313,216,41534,1,0,0:0:0:0:
331,249,41692,1,8,0:0:0:0:
375,259,41850,1,0,0:0:0:0:
284,197,42166,1,0,0:0:0:0:
381,221,42481,1,8,0:0:0:0:
334,268,42797,1,0,0:0:0:0:
334,268,42955,1,0,0:0:0:0:
381,221,43113,1,12,0:0:0:0:
306,241,43429,1,0,0:0:0:0:
306,241,43744,1,8,0:0:0:0:
306,241,44060,1,0,0:0:0:0:
306,241,44376,1,8,0:0:0:0:
306,241,44692,1,8,0:0:0:0:
249,204,44850,1,0,0:0:0:0:
306,241,45008,1,8,0:0:0:0:
306,241,45166,1,8,0:0:0:0:
306,241,45323,1,8,0:0:0:0:
306,241,45481,1,8,0:0:0:0:
306,241,45639,1,4,0:0:0:0:
346,255,45955,1,0,0:0:0:0:
316,262,46271,1,8,0:0:0:0:
87,207,46587,1,0,0:0:0:0:
316,262,46902,1,8,0:0:0:0:
324,264,47060,1,0,0:0:0:0:
316,262,47218,1,8,0:0:0:0:
316,262,47376,1,8,0:0:0:0:
324,264,47534,1,0,0:0:0:0:
279,239,47850,1,0,0:0:0:0:
261,270,48166,1,8,0:0:0:0:
354,238,48323,1,0,0:0:0:0:
329,242,48639,1,8,0:0:0:0:
250,218,48797,1,8,0:0:0:0:
295,210,48955,1,0,0:0:0:0:
286,222,49271,1,0,0:0:0:0:
323,229,49429,1,8,0:0:0:0:
324,229,49587,1,8,0:0:0:0:
250,218,49902,1,8,0:0:0:0:
250,218,50218,1,0,0:0:0:0:
273,231,50534,1,8,0:0:0:0:
278,262,50692,1,0,0:0:0:0:
278,262,51008,1,0,0:0:0:0:
298,261,51166,1,0,0:0:0:0:
311,238,51323,1,8,0:0:0:0:
234,227,51639,1,8,0:0:0:0:
251,241,51797,1,0,0:0:0:0:
322,248,51955,1,0,0:0:0:0:
311,227,52113,1,8,0:0:0:0:
430,238,52429,1,0,0:0:0:0:
455,210,52587,1,8,0:0:0:0:
381,269,52744,1,8,0:0:0:0:
326,266,53060,1,8,0:0:0:0:
346,221,53218,1,4,0:0:0:0:
350,231,53850,1,8,0:0:0:0:
379,232,54481,1,0,0:0:0:0:
334,220,54797,1,8,0:0:0:0:
334,220,55113,1,0,0:0:0:0:
334,220,55429,1,8,0:0:0:0:
334,220,55587,1,8,0:0:0:0:
334,220,55744,1,4,0:0:0:0:
328,240,56060,1,0,0:0:0:0:
330,226,56376,1,8,0:0:0:0:
330,226,56692,1,0,0:0:0:0:
330,226,57008,1,0,0:0:0:0:
228,125,57166,1,0,0:0:0:0:
330,226,57323,1,8,0:0:0:0:
330,226,57481,1,0,0:0:0:0:
330,226,57639,1,8,0:0:0:0:
351,223,57955,1,0,0:0:0:0:
375,222,58271,1,8,0:0:0:0:
375,222,58429,1,8,0:0:0:0:
331,204,58587,1,0,0:0:0:0:
332,204,58744,1,0,0:0:0:0:
364,180,58902,1,8,0:0:0:0:
272,257,59060,1,0,0:0:0:0:
233,232,59218,1,0,0:0:0:0:
365,232,59376,1,8,0:0:0:0:
400,241,59534,1,8,0:0:0:0:
338,256,59692,1,0,0:0:0:0:
450,221,60008,1,8,0:0:0:0:
282,218,60165,1,0,0:0:0:0:
309,251,60323,1,0,0:0:0:0:
324,195,60639,1,0,0:0:0:0:
360,192,60797,1,8,0:0:0:0:
373,228,60955,1,0,0:0:0:0:
315,193,61271,1,8,0:0:0:0:
373,228,61587,1,0,0:0:0:0:
373,228,61902,1,8,0:0:0:0:
373,228,62218,1,0,0:0:0:0:
373,228,62376,1,0,0:0:0:0:
373,228,62534,1,8,0:0:0:0:
373,228,62692,1,8,0:0:0:0:
373,228,62850,1,0,0:0:0:0:
373,228,63165,1,0,0:0:0:0:
326,236,63323,1,8,0:0:0:0:
330,209,63639,1,0,0:0:0:0:
330,209,63955,1,8,0:0:0:0:
330,209,64271,1,0,0:0:0:0:
312,149,64429,1,8,0:0:0:0:
330,209,64587,1,0,0:0:0:0:
330,209,64902,1,0,0:0:0:0:
330,209,65218,1,12,0:0:0:0:
330,209,65850,1,0,0:0:0:0:
315,164,66481,1,8,0:0:0:0:
332,201,67113,1,0,0:0:0:0:
248,170,67271,1,0,0:0:0:0:
452,209,67429,1,0,0:0:0:0:
293,213,67744,1,8,0:0:0:0:
346,249,68060,1,8,0:0:0:0:
393,216,68376,1,0,0:0:0:0:
461,228,69008,1,8,0:0:0:0:
248,151,69639,1,0,0:0:0:0:
376,260,69797,1,8,0:0:0:0:
288,198,69955,1,0,0:0:0:0:
416,234,70271,1,8,0:0:0:0:
474,202,70587,1,8,0:0:0:0:
474,202,70744,1,8,0:0:0:0:
431,231,70902,1,0,0:0:0:0:
431,230,71218,1,0,0:0:0:0:
400,229,71534,1,8,0:0:0:0:
348,250,72008,1,0,0:0:0:0:
327,238,72166,1,8,0:0:0:0:
270,152,72323,1,0,0:0:0:0:
336,264,72481,1,0,0:0:0:0:
400,211,72797,1,8,0:0:0:0:
414,271,73113,1,0,0:0:0:0:
414,271,73271,1,0,0:0:0:0:
456,217,73429,1,8,0:0:0:0:
403,221,73587,1,8,0:0:0:0:
456,217,73744,1,8,0:0:0:0:
415,248,73902,1,0,0:0:0:0:
336,268,74060,1,8,0:0:0:0:
438,255,74218,1,0,0:0:0:0:
317,262,74376,1,8,0:0:0:0:
296,272,74534,1,8,0:0:0:0:
394,216,74692,1,0,0:0:0:0:
400,226,75008,1,8,0:0:0:0:
384,248,75323,1,0,0:0:0:0:
380,238,75639,1,8,0:0:0:0:
380,238,75797,1,8,0:0:0:0:
405,254,75955,1,4,0:0:0:0:
282,269,76429,1,0,0:0:0:0:
388,248,76587,1,8,0:0:0:0:
374,260,76902,1,0,0:0:0:0:
187,269,77218,1,0,0:0:0:0:
295,300,77376,1,8,0:0:0:0:
296,249,77534,1,0,0:0:0:0:
313,245,77692,1,0,0:0:0:0:
330,219,77850,1,8,0:0:0:0:
395,227,78166,1,0,0:0:0:0:
368,221,78481,1,0,0:0:0:0:
368,221,78639,1,0,0:0:0:0:
386,205,78797,1,8,0:0:0:0:
386,205,78955,1,8,0:0:0:0:
397,227,79113,1,0,0:0:0:0:
394,227,79429,1,0,0:0:0:0:
310,239,79744,1,8,0:0:0:0:
346,223,79902,1,8,0:0:0:0:
429,189,80060,1,0,0:0:0:0:
310,220,80218,1,0,0:0:0:0:
355,218,80376,1,8,0:0:0:0:
429,189,80692,1,0,0:0:0:0:
312,220,80850,1,0,0:0:0:0:
312,229,81008,1,8,0:0:0:0:
373,295,81323,1,0,0:0:0:0:
397,225,81481,1,8,0:0:0:0:
412,217,81639,1,8,0:0:0:0:
449,230,81797,1,0,0:0:0:0:
449,230,82113,1,0,0:0:0:0:
357,264,82271,1,8,0:0:0:0:
373,295,82429,1,0,0:0:0:0:
295,238,82587,1,0,0:0:0:0:
257,186,82744,1,0,0:0:0:0:
304,275,82902,1,8,0:0:0:0:
428,236,83218,1,0,0:0:0:0:
481,276,83376,1,0,0:0:0:0:
408,247,83534,1,8,0:0:0:0:
372,248,83692,1,8,0:0:0:0:
341,247,83850,1,0,0:0:0:0:
255,282,84008,1,0,0:0:0:0:
341,247,84166,1,8,0:0:0:0:
343,289,84323,1,0,0:0:0:0:
229,283,84639,1,8,0:0:0:0:
266,264,84718,1,8,0:0:0:0:
341,247,84797,1,0,0:0:0:0:
248,299,85113,1,8,0:0:0:0:
365,254,85429,1,0,0:0:0:0:
344,280,85744,1,8,0:0:0:0:
344,279,85902,1,8,0:0:0:0:
402,250,86060,1,0,0:0:0:0:
352,251,86376,1,0,0:0:0:0:
347,243,86692,1,8,0:0:0:0:
240,136,87008,1,0,0:0:0:0:
454,213,87166,1,8,0:0:0:0:
294,262,87323,1,0,0:0:0:0:
249,143,87481,1,8,0:0:0:0:
294,262,87639,1,0,0:0:0:0:
352,253,87955,1,12,0:0:0:0:
349,280,88587,1,0,0:0:0:0:
349,280,88902,1,0,0:0:0:0:
349,280,89218,1,0,0:0:0:0:
349,280,89534,1,0,0:0:0:0:
349,280,89850,1,0,0:0:0:0:
349,280,90166,1,0,0:0:0:0:
341,248,90481,1,8,0:0:0:0:
320,256,90639,1,0,0:0:0:0:
321,256,90797,1,8,0:0:0:0:
321,256,90955,1,8,0:0:0:0:
357,268,91113,1,4,0:0:0:0:
346,256,91429,1,0,0:0:0:0:
316,262,91744,1,8,0:0:0:0:
125,240,92060,1,0,0:0:0:0:
316,262,92376,1,8,0:0:0:0:
324,264,92534,1,0,0:0:0:0:
316,262,92692,1,0,0:0:0:0:
316,262,92850,1,8,0:0:0:0:
324,264,93008,1,0,0:0:0:0:
259,233,93323,1,0,0:0:0:0:
261,270,93639,1,8,0:0:0:0:
354,238,93797,1,0,0:0:0:0:
329,242,94113,1,0,0:0:0:0:
250,218,94271,1,8,0:0:0:0:
295,210,94429,1,0,0:0:0:0:
286,222,94744,1,0,0:0:0:0:
323,229,94902,1,8,0:0:0:0:
324,229,95060,1,8,0:0:0:0:
250,218,95376,1,8,0:0:0:0:
250,218,95692,1,0,0:0:0:0:
273,231,96008,1,8,0:0:0:0:
278,262,96165,1,0,0:0:0:0:
263,268,96481,1,0,0:0:0:0:
263,268,96639,1,0,0:0:0:0:
311,238,96797,1,8,0:0:0:0:
234,227,97113,1,8,0:0:0:0:
251,241,97271,1,0,0:0:0:0:
322,248,97429,1,0,0:0:0:0:
311,227,97587,1,8,0:0:0:0:
275,226,97902,1,0,0:0:0:0:
455,210,98060,1,8,0:0:0:0:
493,260,98218,1,8,0:0:0:0:
314,297,98534,1,8,0:0:0:0:
346,221,98692,1,4,0:0:0:0:
134,95,99323,1,0,0:0:0:0:
379,232,99955,1,0,0:0:0:0:
334,220,100271,1,8,0:0:0:0:
334,220,100587,1,0,0:0:0:0:
334,220,100902,1,8,0:0:0:0:
334,220,101060,1,8,0:0:0:0:
334,220,101218,1,4,0:0:0:0:
328,240,101534,1,0,0:0:0:0:
330,226,101850,1,8,0:0:0:0:
330,226,102323,1,0,0:0:0:0:
330,226,102481,1,0,0:0:0:0:
330,226,102639,1,8,0:0:0:0:
330,226,102797,1,8,0:0:0:0:
330,226,102955,1,8,0:0:0:0:
330,226,103113,1,0,0:0:0:0:
351,223,103429,1,0,0:0:0:0:
375,222,103744,1,8,0:0:0:0:
375,222,103902,1,8,0:0:0:0:
331,204,104060,1,0,0:0:0:0:
332,204,104218,1,0,0:0:0:0:
364,180,104376,1,8,0:0:0:0:
323,269,104534,1,8,0:0:0:0:
233,232,104692,1,0,0:0:0:0:
440,233,104850,1,0,0:0:0:0:
348,199,105008,1,0,0:0:0:0:
400,241,105166,1,8,0:0:0:0:
450,221,105481,1,8,0:0:0:0:
282,218,105639,1,0,0:0:0:0:
312,248,105797,1,8,0:0:0:0:
324,195,106113,1,0,0:0:0:0:
360,192,106271,1,8,0:0:0:0:
373,228,106429,1,0,0:0:0:0:
315,193,106744,1,8,0:0:0:0:
373,228,107060,1,0,0:0:0:0:
373,228,107376,1,8,0:0:0:0:
373,228,107692,1,0,0:0:0:0:
373,228,107850,1,0,0:0:0:0:
373,228,108008,1,8,0:0:0:0:
373,228,108166,1,8,0:0:0:0:
373,228,108323,1,0,0:0:0:0:
373,228,108639,1,0,0:0:0:0:
326,236,108797,1,8,0:0:0:0:
330,209,109113,1,0,0:0:0:0:
330,209,109429,1,8,0:0:0:0:
330,209,109744,1,0,0:0:0:0:
260,205,109902,1,8,0:0:0:0:
330,209,110060,1,0,0:0:0:0:
330,209,110376,1,0,0:0:0:0:
330,209,110692,1,8,0:0:0:0:
307,240,110850,1,0,0:0:0:0:
332,242,111008,1,8,0:0:0:0:
333,242,111166,1,8,0:0:0:0:
330,209,111323,1,4,0:0:0:0:
390,255,111955,1,8,0:0:0:0:
396,225,112587,1,8,0:0:0:0:
396,225,112902,1,0,0:0:0:0:
396,225,113218,1,8,0:0:0:0:
396,225,113534,1,8,0:0:0:0:
396,225,113850,1,0,0:0:0:0:
431,250,114481,1,8,0:0:0:0:
349,229,115113,1,0,0:0:0:0:
364,221,115429,1,0,0:0:0:0:
295,237,115744,1,8,0:0:0:0:
295,237,116060,1,8,0:0:0:0:
295,237,116376,1,0,0:0:0:0:
378,239,117008,1,8,0:0:0:0:
295,237,117639,1,0,0:0:0:0:
295,237,117955,1,8,0:0:0:0:
295,237,118271,1,0,0:0:0:0:
288,245,118587,1,0,0:0:0:0:
293,250,118902,1,12,0:0:0:0:
389,258,119534,1,8,0:0:0:0:
295,237,120165,1,0,0:0:0:0:
342,262,120481,1,8,0:0:0:0:
343,220,120797,1,0,0:0:0:0:
423,253,121113,1,8,0:0:0:0:
423,253,121271,1,8,0:0:0:0:
295,237,121429,1,4,0:0:0:0:
352,264,122060,1,8,0:0:0:0:
247,274,122692,1,0,0:0:0:0:
341,259,123008,1,0,0:0:0:0:
341,259,123323,1,8,0:0:0:0:
341,259,123639,1,0,0:0:0:0:
327,270,123955,1,0,0:0:0:0:
341,259,124587,1,8,0:0:0:0:
341,259,125218,1,0,0:0:0:0:
341,259,125534,1,0,0:0:0:0:
341,259,125850,1,8,0:0:0:0:
341,259,126165,1,8,0:0:0:0:
341,259,126481,1,0,0:0:0:0:
303,239,127113,1,8,0:0:0:0:
352,222,127744,1,0,0:0:0:0:
345,272,128060,1,8,0:0:0:0:
411,280,128376,1,0,0:0:0:0:
411,280,128692,1,0,0:0:0:0:
402,236,129008,1,12,0:0:0:0:
411,280,129639,5,8,0:0:0:0:
406,275,130271,1,0,0:0:0:0:
406,275,130587,1,0,0:0:0:0:
433,255,130902,1,8,0:0:0:0:
384,276,131534,1,0,0:0:0:0:
453,263,132166,1,8,0:0:0:0:
375,256,132797,1,0,0:0:0:0:
375,256,133113,1,0,0:0:0:0:
438,251,133429,1,8,0:0:0:0:
400,277,133744,1,0,0:0:0:0:
394,253,134060,1,0,0:0:0:0:
361,312,134692,1,8,0:0:0:0:
317,273,135323,1,0,0:0:0:0:
329,264,135639,1,0,0:0:0:0:
339,273,135955,1,8,0:0:0:0:
320,246,136271,1,0,0:0:0:0:
351,269,136587,1,8,0:0:0:0:
326,220,136902,1,0,0:0:0:0:
423,250,137060,1,8,0:0:0:0:
415,245,137218,1,8,0:0:0:0:
350,251,137534,1,8,0:0:0:0:
283,236,137692,1,0,0:0:0:0:
350,251,138008,1,8,0:0:0:0:
420,258,138166,1,0,0:0:0:0:
407,249,138323,1,0,0:0:0:0:
380,227,138481,1,8,0:0:0:0:
366,210,138797,1,8,0:0:0:0:
378,233,139113,1,0,0:0:0:0:
272,230,139271,1,8,0:0:0:0:
360,253,139587,1,0,0:0:0:0:
336,226,139744,1,0,0:0:0:0:
275,248,139902,1,8,0:0:0:0:
261,185,140218,1,8,0:0:0:0:
301,237,140534,1,0,0:0:0:0:
373,258,140692,1,8,0:0:0:0:
299,209,140850,1,0,0:0:0:0:
382,232,141008,1,0,0:0:0:0:
253,207,141166,1,0,0:0:0:0:
382,232,141481,1,8,0:0:0:0:
393,245,141797,1,0,0:0:0:0:
393,245,141955,1,8,0:0:0:0:
393,245,142113,1,8,0:0:0:0:
302,210,142271,1,0,0:0:0:0:
424,273,142587,1,8,0:0:0:0:
424,273,143060,1,8,0:0:0:0:
362,257,143218,1,0,0:0:0:0:
352,243,143376,1,0,0:0:0:0:
424,273,143534,1,8,0:0:0:0:
352,243,143850,1,0,0:0:0:0:
445,199,144126,1,8,0:0:0:0:
365,237,144166,1,8,0:0:0:0:
159,189,146692,1,4,0:0:0:0:
431,249,147008,1,8,0:0:0:0:
291,261,147166,1,0,0:0:0:0:
348,222,147323,1,8,0:0:0:0:
291,261,147481,1,0,0:0:0:0:
347,254,147639,1,0,0:0:0:0:
352,247,147797,1,8,0:0:0:0:
287,287,147955,1,4,0:0:0:0:
244,205,148429,1,0,0:0:0:0:
333,271,148587,1,8,0:0:0:0:
287,287,148744,1,8,0:0:0:0:
326,275,148902,1,0,0:0:0:0:
333,271,149060,1,0,0:0:0:0:
340,289,149218,1,12,0:0:0:0:
340,289,149534,1,0,0:0:0:0:
340,289,149692,1,0,0:0:0:0:
358,255,149850,1,8,0:0:0:0:
358,255,150008,1,8,0:0:0:0:
358,255,150166,1,8,0:0:0:0:
426,239,150323,1,8,0:0:0:0:
324,272,150481,1,4,0:0:0:0:
324,272,150797,1,0,0:0:0:0:
323,257,150955,1,8,0:0:0:0:
323,257,151113,1,8,0:0:0:0:
429,279,151271,1,0,0:0:0:0:
429,279,151429,1,8,0:0:0:0:
342,262,151744,1,4,0:0:0:0:
331,248,152060,1,0,0:0:0:0:
331,248,152218,1,0,0:0:0:0:
325,252,152376,1,8,0:0:0:0:
325,252,152534,1,8,0:0:0:0:
349,279,152692,1,0,0:0:0:0:
349,279,152850,1,0,0:0:0:0:
374,286,153008,1,12,0:0:0:0:
419,294,153481,1,8,0:0:0:0:
419,294,153639,1,8,0:0:0:0:
344,262,153797,1,0,0:0:0:0:
343,262,153955,1,0,0:0:0:0:
344,262,154113,1,8,0:0:0:0:
363,259,154271,1,4,0:0:0:0:
366,260,154587,1,8,0:0:0:0:
366,260,154744,1,8,0:0:0:0:
409,232,154902,1,0,0:0:0:0:
409,232,155218,1,0,0:0:0:0:
453,247,155534,1,0,0:0:0:0:
468,245,155850,1,8,0:0:0:0:
468,245,156166,1,0,0:0:0:0:
437,252,156481,1,8,0:0:0:0:
437,253,156639,1,8,0:0:0:0:
369,218,156797,1,4,0:0:0:0:
383,276,157113,1,0,0:0:0:0:
313,281,157429,1,8,0:0:0:0:
313,281,157744,1,8,0:0:0:0:
451,295,158060,1,0,0:0:0:0:
451,295,158376,1,0,0:0:0:0:
469,250,158692,1,12,0:0:0:0:
337,269,159008,1,0,0:0:0:0:
297,246,159323,1,0,0:0:0:0:
410,233,159639,1,0,0:0:0:0:
410,233,159955,1,0,0:0:0:0:
410,233,160271,1,0,0:0:0:0:
410,233,160587,1,8,0:0:0:0:
410,233,160902,1,8,0:0:0:0:
410,233,161218,1,0,0:0:0:0:
410,233,161376,1,0,0:0:0:0:
410,233,161534,1,8,0:0:0:0:
354,282,171955,5,4,0:0:0:0:
340,275,173218,1,4,0:0:0:0:
339,275,174481,1,4,0:0:0:0:
339,275,175744,1,4,0:0:0:0:
389,280,177008,1,8,0:0:0:0:
389,280,177323,1,0,0:0:0:0:
389,280,177639,1,0,0:0:0:0:
389,280,177955,1,0,0:0:0:0:
389,280,178271,1,8,0:0:0:0:
389,280,178587,1,0,0:0:0:0:
389,280,178902,1,0,0:0:0:0:
389,280,179218,1,0,0:0:0:0:
389,280,179534,1,8,0:0:0:0:
389,280,179850,1,0,0:0:0:0:
389,280,180166,1,0,0:0:0:0:
389,280,180481,1,0,0:0:0:0:
389,280,180797,1,8,0:0:0:0:
357,233,180837,1,8,0:0:0:0:
311,276,182060,1,4,0:0:0:0:
346,256,182376,1,0,0:0:0:0:
316,262,182692,1,8,0:0:0:0:
78,272,183008,1,0,0:0:0:0:
316,262,183323,1,8,0:0:0:0:
324,264,183481,1,0,0:0:0:0:
316,262,183639,1,8,0:0:0:0:
316,262,183797,1,8,0:0:0:0:
324,264,183955,1,0,0:0:0:0:
297,266,184271,1,0,0:0:0:0:
261,270,184587,1,8,0:0:0:0:
354,238,184744,1,0,0:0:0:0:
329,242,185060,1,0,0:0:0:0:
250,218,185218,1,8,0:0:0:0:
295,210,185376,1,0,0:0:0:0:
286,222,185692,1,0,0:0:0:0:
323,229,185850,1,8,0:0:0:0:
324,229,186008,1,8,0:0:0:0:
250,218,186323,1,8,0:0:0:0:
250,218,186639,1,0,0:0:0:0:
273,231,186955,1,8,0:0:0:0:
278,262,187113,1,0,0:0:0:0:
278,262,187429,1,0,0:0:0:0:
276,233,187587,1,0,0:0:0:0:
311,238,187744,1,8,0:0:0:0:
234,227,188060,1,8,0:0:0:0:
251,241,188218,1,0,0:0:0:0:
322,248,188376,1,0,0:0:0:0:
311,227,188534,1,8,0:0:0:0:
430,238,188850,1,0,0:0:0:0:
455,210,189008,1,8,0:0:0:0:
412,194,189166,1,8,0:0:0:0:
468,261,189481,1,8,0:0:0:0:
346,221,189639,1,4,0:0:0:0:
350,231,190271,1,8,0:0:0:0:
379,232,190902,1,0,0:0:0:0:
334,220,191218,1,8,0:0:0:0:
334,220,191534,1,0,0:0:0:0:
334,220,191850,1,8,0:0:0:0:
334,220,192008,1,8,0:0:0:0:
334,220,192166,1,4,0:0:0:0:
328,240,192481,1,0,0:0:0:0:
330,226,192797,1,8,0:0:0:0:
330,226,193271,1,0,0:0:0:0:
330,226,193429,1,0,0:0:0:0:
330,226,193587,1,8,0:0:0:0:
330,226,193744,1,8,0:0:0:0:
330,226,193902,1,8,0:0:0:0:
330,226,194060,1,0,0:0:0:0:
351,223,194376,1,0,0:0:0:0:
375,222,194692,1,8,0:0:0:0:
375,222,194850,1,8,0:0:0:0:
331,204,195008,1,0,0:0:0:0:
332,204,195166,1,0,0:0:0:0:
364,180,195323,1,8,0:0:0:0:
320,237,195481,1,8,0:0:0:0:
233,232,195639,1,0,0:0:0:0:
356,242,195797,1,0,0:0:0:0:
348,199,195955,1,0,0:0:0:0:
400,241,196113,1,8,0:0:0:0:
450,221,196429,1,8,0:0:0:0:
282,218,196587,1,0,0:0:0:0:
282,218,196744,1,0,0:0:0:0:
324,195,197060,1,0,0:0:0:0:
360,192,197218,1,12,0:0:0:0:
373,228,197376,1,0,0:0:0:0:
315,193,197692,1,8,0:0:0:0:
373,228,198008,1,0,0:0:0:0:
373,228,198323,1,8,0:0:0:0:
373,228,198639,1,0,0:0:0:0:
373,228,198797,1,0,0:0:0:0:
373,228,198955,1,8,0:0:0:0:
373,228,199113,1,8,0:0:0:0:
373,228,199271,1,0,0:0:0:0:
373,228,199587,1,0,0:0:0:0:
326,236,199744,1,8,0:0:0:0:
330,209,200060,1,0,0:0:0:0:
330,209,200376,1,8,0:0:0:0:
330,209,200692,1,0,0:0:0:0:
231,236,200850,1,8,0:0:0:0:
330,209,201008,1,0,0:0:0:0:
316,263,201323,1,8,0:0:0:0:
428,251,201639,1,0,0:0:0:0:
467,239,201955,1,8,0:0:0:0:
467,239,202113,1,8,0:0:0:0:
330,209,202271,1,4,0:0:0:0:
351,312,202429,1,8,0:0:0:0:
342,219,202744,1,8,0:0:0:0:
336,282,203060,1,0,0:0:0:0:
376,256,203376,1,8,0:0:0:0:
317,259,203692,1,0,0:0:0:0:
405,221,203850,1,8,0:0:0:0:
405,221,204008,1,0,0:0:0:0:
468,221,204166,1,8,0:0:0:0:
468,221,204323,1,8,0:0:0:0:
407,234,204639,1,8,0:0:0:0:
341,226,204797,1,0,0:0:0:0:
297,209,205113,1,0,0:0:0:0:
394,210,205429,1,8,0:0:0:0:
393,243,205744,1,0,0:0:0:0:
341,246,205902,1,8,0:0:0:0:
393,243,206060,1,0,0:0:0:0:
480,235,206376,1,0,0:0:0:0:
480,235,206692,1,8,0:0:0:0:
378,251,206850,1,0,0:0:0:0:
339,269,207166,1,0,0:0:0:0:
429,281,207323,1,12,0:0:0:0:
342,240,207481,1,0,0:0:0:0:
360,224,207797,1,0,0:0:0:0:
407,246,208113,1,8,0:0:0:0:
407,246,208429,1,8,0:0:0:0:
407,246,208744,1,0,0:0:0:0:
407,246,208902,1,8,0:0:0:0:
398,249,209060,1,0,0:0:0:0:
398,249,209218,1,0,0:0:0:0:
398,249,209376,1,8,0:0:0:0:
398,248,209692,1,0,0:0:0:0:
474,259,209850,1,12,0:0:0:0:
334,229,210166,1,0,0:0:0:0:
384,247,210481,1,8,0:0:0:0:
334,229,210797,1,0,0:0:0:0:
384,247,211113,1,8,0:0:0:0:
334,229,211429,1,0,0:0:0:0:
370,248,211587,1,0,0:0:0:0:
416,241,211744,1,8,0:0:0:0:
401,228,211902,1,8,0:0:0:0:
401,228,212060,1,8,0:0:0:0:
401,228,212218,1,8,0:0:0:0:
494,243,212376,1,4,0:0:0:0:
390,255,213008,1,8,0:0:0:0:
396,225,213639,1,8,0:0:0:0:
396,225,213955,1,0,0:0:0:0:
396,225,214271,1,8,0:0:0:0:
396,225,214587,1,8,0:0:0:0:
396,225,214902,1,0,0:0:0:0:
431,250,215534,1,8,0:0:0:0:
349,229,216166,1,0,0:0:0:0:
364,221,216481,1,0,0:0:0:0:
295,237,216797,1,8,0:0:0:0:
295,237,217113,1,8,0:0:0:0:
295,237,217429,1,0,0:0:0:0:
378,239,218060,1,8,0:0:0:0:
336,276,218692,1,8,0:0:0:0:
336,242,219008,1,0,0:0:0:0:
295,237,219323,1,0,0:0:0:0:
295,237,219639,1,8,0:0:0:0:
295,237,219955,1,4,0:0:0:0:
389,258,220587,1,8,0:0:0:0:
295,237,221218,1,0,0:0:0:0:
342,262,221534,1,8,0:0:0:0:
343,220,221850,1,0,0:0:0:0:
423,253,222166,1,8,0:0:0:0:
423,253,222323,1,8,0:0:0:0:
295,237,222481,1,4,0:0:0:0:
352,264,223113,1,8,0:0:0:0:
341,259,223744,1,0,0:0:0:0:
341,259,224060,1,8,0:0:0:0:
438,256,224376,1,8,0:0:0:0:
341,259,224692,1,8,0:0:0:0:
341,259,225008,1,4,0:0:0:0:
341,259,225639,1,8,0:0:0:0:
341,259,226271,1,0,0:0:0:0:
341,259,226587,1,0,0:0:0:0:
341,259,226902,1,8,0:0:0:0:
341,259,227218,1,8,0:0:0:0:
341,259,227534,1,0,0:0:0:0:
303,239,228166,1,8,0:0:0:0:
421,214,228481,1,0,0:0:0:0:
352,222,228797,1,0,0:0:0:0:
345,272,229113,1,8,0:0:0:0:
411,280,229429,1,0,0:0:0:0:
411,280,229744,1,12,0:0:0:0:
