osu file format v14

[General]
AudioFilename: audio.mp3
AudioLeadIn: 0
PreviewTime: 10579
Countdown: 1
SampleSet: Normal
StackLeniency: 0.7
Mode: 2
LetterboxInBreaks: 0
WidescreenStoryboard: 0

[Editor]
Bookmarks: 22807
DistanceSpacing: 1.2
BeatDivisor: 4
GridSize: 4
TimelineZoom: 2.899999

[Metadata]
Title:El Gato Volador
TitleUnicode:El Gato Volador
Artist:El Chombo
ArtistUnicode:El Chombo
Creator:[Nico]
Version:GATO VOLADOR
Source:Cuentos de la Cripta 3
Tags:gato volador el chombo Cuentos de la Cripta 3
BeatmapID:1162827
BeatmapSetID:549109

[Difficulty]
HPDrainRate:2
CircleSize:4
OverallDifficulty:9
ApproachRate:9
SliderMultiplier:1.5
SliderTickRate:1

[Events]
//Background and Video events
0,0,"364c41701a8705fe0df43a7cdfb18b8c.jpg",0,0
//Break Periods
//Storyboard Layer 0 (Background)
//Storyboard Layer 1 (Fail)
//Storyboard Layer 2 (Pass)
//Storyboard Layer 3 (Foreground)
//Storyboard Sound Samples

[TimingPoints]
275,274.788184108083,4,1,0,40,1,0
10579,-66.6666666666667,4,1,0,40,0,1
11266,-100,4,1,0,40,0,1
14976,-66.6666666666667,4,1,0,40,0,1
15663,-100,4,1,0,40,0,1
19510,-100,4,1,0,40,0,0
28852,-66.6666666666667,4,1,0,40,0,0
29539,-100,4,1,0,40,0,0
34348,-50,4,1,0,40,0,0
34898,-100,4,1,0,40,0,0
36959,-100,4,1,0,40,0,1
45889,-100,4,1,0,40,0,0
56747,-100,4,1,0,40,0,1
65674,-100,4,1,0,40,0,0
91916,-100,4,1,0,40,0,1
100297,-50,4,1,0,40,0,1
100847,-50,4,1,0,40,0,0

[HitObjects]
112,272,274,5,0,0:0:0:0:
220,272,411,1,0,0:0:0:0:
440,260,548,1,0,0:0:0:0:
80,176,823,1,0,0:0:0:0:
416,200,1098,5,0,0:0:0:0:
256,152,1373,1,0,0:0:0:0:
256,192,1648,12,0,2198,0:0:0:0:
280,288,2473,5,0,0:0:0:0:
100,264,2885,1,0,0:0:0:0:
456,192,3298,1,0,0:0:0:0:
88,180,3572,1,0,0:0:0:0:
392,188,3984,1,0,0:0:0:0:
76,108,4397,5,0,0:0:0:0:
432,112,4672,1,0,0:0:0:0:
228,116,5084,1,0,0:0:0:0:
100,188,5497,1,0,0:0:0:0:
456,192,5772,1,0,0:0:0:0:
268,196,6182,1,0,0:0:0:0:
420,116,6595,5,0,0:0:0:0:
52,116,6869,1,0,0:0:0:0:
216,244,7282,1,0,0:0:0:0:
428,240,7694,1,0,0:0:0:0:
64,216,7969,1,0,0:0:0:0:
324,96,8381,1,0,0:0:0:0:
80,152,8793,5,0,0:0:0:0:
440,216,9068,1,0,0:0:0:0:
200,288,9480,1,0,0:0:0:0:
464,240,9892,1,0,0:0:0:0:
128,216,10167,1,0,0:0:0:0:
424,212,10579,6,0,L|272:212,2,112.500004291535
88,212,10991,6,0,L|240:212,2,112.500004291535
432,148,11403,1,0,0:0:0:0:
100,172,11678,1,0,0:0:0:0:
252,172,11816,1,0,0:0:0:0:
104,96,12090,1,0,0:0:0:0:
388,88,12365,1,0,0:0:0:0:
152,240,12777,6,0,L|60:240,1,75
296,188,13052,2,0,L|196:188,1,75
436,136,13327,2,0,L|356:136,1,75
104,112,13602,1,0,0:0:0:0:
228,268,13877,1,0,0:0:0:0:
392,272,14014,1,0,0:0:0:0:
104,96,14289,1,0,0:0:0:0:
376,92,14564,1,0,0:0:0:0:
88,276,14976,6,0,L|224:276,1,112.500004291535
88,208,15250,2,0,L|212:208,1,112.500004291535
460,240,15525,2,0,L|344:240,1,112.500004291535
104,112,15800,1,0,0:0:0:0:
252,272,16075,1,0,0:0:0:0:
88,276,16212,1,0,0:0:0:0:
376,96,16487,1,0,0:0:0:0:
124,88,16762,1,0,0:0:0:0:
400,208,17174,6,0,L|304:208,1,75
184,208,17448,2,0,L|84:208,1,75
324,144,17724,2,0,L|428:144,1,75
100,136,17998,1,0,0:0:0:0:
396,88,18273,1,0,0:0:0:0:
248,88,18411,1,0,0:0:0:0:
424,196,18685,1,0,0:0:0:0:
92,192,18960,1,0,0:0:0:0:
432,192,19235,5,0,0:0:0:0:
92,152,19510,1,0,0:0:0:0:
72,256,20059,6,0,L|168:256,3,75
296,204,20609,6,0,L|221:204,3,75
368,192,21158,6,0,L|464:192,3,75
72,180,21708,6,0,L|168:180,3,75
440,180,22258,6,0,L|344:180,3,75
72,180,22807,6,0,L|168:180,3,75
336,180,23357,6,0,L|240:180,2,75
80,120,23769,6,0,L|176:120,3,75
424,264,24456,6,0,L|424:180,1,75
108,284,24731,2,0,L|108:196,1,75
336,272,25005,2,0,L|336:180,1,75
460,272,25280,2,0,L|460:180,1,75
96,264,25555,2,0,L|96:168,1,75
264,272,25830,6,0,L|264:184,1,75
396,272,26105,2,0,L|396:172,1,75
96,272,26379,2,0,L|96:168,1,75
356,280,26654,2,0,L|356:184,1,75
96,180,26929,2,0,L|200:180,1,75
308,168,27204,2,0,L|400:168,1,75
236,108,27479,2,0,L|132:108,1,75
416,112,27753,5,0,0:0:0:0:
60,128,28028,1,0,0:0:0:0:
392,144,28303,1,0,0:0:0:0:
196,260,28852,6,0,L|84:260,2,112.500004291535
316,260,29265,6,0,L|428:260,2,112.500004291535
244,196,29677,2,0,B|201:196|201:196|244:120,1,112.5
404,200,29952,6,0,L|492:200,1,75
292,200,30226,2,0,L|208:200,1,75
384,156,30501,2,0,L|296:156,1,75
48,144,30776,2,0,L|172:144,1,112.5
396,144,31051,1,0,0:0:0:0:
468,104,31188,1,0,0:0:0:0:
352,64,31326,1,0,0:0:0:0:
272,68,31463,1,0,0:0:0:0:
180,64,31600,1,0,0:0:0:0:
464,236,31738,1,0,0:0:0:0:
116,224,31875,1,0,0:0:0:0:
140,288,32150,5,0,0:0:0:0:
352,288,32287,5,0,0:0:0:0:
140,288,32425,5,0,0:0:0:0:
352,288,32562,5,0,0:0:0:0:
140,288,32700,5,0,0:0:0:0:
352,288,32837,5,0,0:0:0:0:
264,92,32974,2,0,L|376:92,1,112.5
176,228,33249,6,0,L|80:228,1,75
336,232,33524,2,0,L|336:136,1,75
176,160,33799,2,0,L|80:160,1,75
420,312,34348,6,0,B|176:304|32:272|204:232|424:132|284:108|252:104|44:96|44:96|36:96,1,600
404,160,35447,1,0,0:0:0:0:
52,156,35722,1,0,0:0:0:0:
256,160,35860,1,0,0:0:0:0:
460,164,35997,1,0,0:0:0:0:
84,96,36272,5,0,0:0:0:0:
328,88,36547,1,0,0:0:0:0:
112,312,36959,6,0,L|112:232,1,75
408,312,37234,2,0,L|408:228,1,75
200,312,37508,2,0,L|200:228,1,75
368,228,37783,1,0,0:0:0:0:
96,136,38058,1,0,0:0:0:0:
312,128,38196,1,0,0:0:0:0:
96,80,38470,1,0,0:0:0:0:
448,132,38744,1,0,0:0:0:0:
192,296,39157,6,0,L|100:296,1,75
408,292,39432,2,0,L|312:292,1,75
236,212,39707,2,0,L|140:212,1,75
448,216,39981,1,0,0:0:0:0:
112,168,40256,2,0,L|204:168,1,75
408,128,40668,2,0,L|244:128,1,150
108,284,41355,6,0,L|196:284,1,75
392,288,41630,1,0,0:0:0:0:
108,188,41768,2,0,L|200:188,1,75
324,188,42042,2,0,L|416:188,1,75
112,112,42454,6,0,L|212:112,1,75
432,120,42867,1,0,0:0:0:0:
152,156,43141,1,0,0:0:0:0:
380,292,43554,5,0,0:0:0:0:
124,288,43691,2,0,L|224:288,1,75
380,244,43966,1,0,0:0:0:0:
80,216,44103,2,0,L|184:216,1,75
380,212,44378,1,0,0:0:0:0:
88,136,44653,5,0,0:0:0:0:
256,128,44790,1,0,0:0:0:0:
452,128,45065,1,0,0:0:0:0:
88,60,45340,1,0,0:0:0:0:
256,192,45408,12,0,45889,0:0:0:0:
340,292,46439,6,0,L|448:292,2,75
76,280,46851,1,0,0:0:0:0:
328,212,46988,2,0,B|416:192|416:104,1,150
72,152,47401,1,0,0:0:0:0:
376,300,47538,2,0,P|452:256|416:200,1,150
96,168,47950,5,0,0:0:0:0:
384,160,48088,2,0,L|460:88,1,75
136,224,48362,2,0,P|80:168|64:88,1,150
428,232,48775,1,0,0:0:0:0:
208,276,49049,5,0,0:0:0:0:
368,280,49187,2,0,L|440:136,1,150
96,260,49599,1,0,0:0:0:0:
248,216,49736,2,0,L|384:148,1,150
200,96,50149,5,0,0:0:0:0:
444,296,50286,2,0,L|432:132,1,150
180,208,50698,1,0,0:0:0:0:
456,168,50836,1,0,0:0:0:0:
192,148,50973,1,0,0:0:0:0:
380,256,51248,6,0,L|468:192,1,75
152,272,51660,2,0,P|64:252|52:184,1,150
464,200,52209,1,0,0:0:0:0:
304,196,52347,5,0,0:0:0:0:
48,300,52484,2,0,L|160:176,1,150
60,168,52896,1,0,0:0:0:0:
348,232,53034,2,0,L|480:128,1,150
112,144,53446,5,0,0:0:0:0:
64,208,53583,1,0,0:0:0:0:
368,288,53721,2,0,L|424:208,1,75
432,184,53927,1,0,0:0:0:0:
392,144,53996,1,0,0:0:0:0:
68,144,54133,6,0,L|232:152,1,150
192,104,54476,1,0,0:0:0:0:
160,60,54545,1,0,0:0:0:0:
450,220,54683,2,0,B|288:228,1,150
104,208,55232,1,0,0:0:0:0:
256,192,55301,12,0,56331,0:0:0:0:
144,244,56743,5,0,0:0:0:0:
372,244,56881,1,0,0:0:0:0:
440,192,57018,1,0,0:0:0:0:
168,156,57156,2,0,L|104:100,1,75
192,288,57430,1,0,0:0:0:0:
448,260,57568,1,0,0:0:0:0:
104,308,57843,5,0,0:0:0:0:
436,304,57980,1,0,0:0:0:0:
60,248,58255,1,0,0:0:0:0:
440,248,58530,1,0,0:0:0:0:
212,256,58942,6,0,L|136:252,2,75
408,248,59354,2,0,L|496:248,1,75
84,144,59629,1,0,0:0:0:0:
436,152,59766,1,0,0:0:0:0:
216,208,60041,5,0,0:0:0:0:
420,220,60178,1,0,0:0:0:0:
44,176,60453,1,0,0:0:0:0:
448,168,60728,1,0,0:0:0:0:
196,292,61140,6,0,L|116:280,1,75
360,256,61415,2,0,L|435:265,1,75
152,200,61690,2,0,L|68:192,1,75
404,144,61964,1,0,0:0:0:0:
212,144,62239,5,0,0:0:0:0:
396,148,62377,1,0,0:0:0:0:
64,268,62651,1,0,0:0:0:0:
400,268,62926,1,0,0:0:0:0:
108,200,63338,6,0,L|196:200,2,75
364,208,63751,2,0,L|440:208,2,75
60,156,64163,1,0,0:0:0:0:
256,192,64438,1,0,0:0:0:0:
100,192,64575,1,0,0:0:0:0:
476,200,64850,1,0,0:0:0:0:
48,236,65125,5,0,0:0:0:0:
244,232,65399,1,0,0:0:0:0:
452,244,65674,1,0,0:0:0:0:
180,248,66224,6,0,L|104:248,2,75
384,196,66636,1,0,0:0:0:0:
156,160,66773,6,0,L|76:160,2,75
392,120,67185,1,0,0:0:0:0:
248,116,67323,6,0,L|168:116,2,75
440,128,67735,1,0,0:0:0:0:
144,200,67872,6,0,L|56:200,2,75
352,220,68285,1,0,0:0:0:0:
128,288,68422,6,0,L|48:288,2,75
216,288,68834,1,0,0:0:0:0:
304,292,68972,6,0,L|388:292,2,75
40,296,69384,1,0,0:0:0:0:
288,304,69521,1,0,0:0:0:0:
156,248,69659,6,0,L|64:216,3,75
360,260,70620,6,0,L|444:260,1,75
208,188,70895,2,0,L|304:188,1,75
56,136,71170,6,0,L|144:136,1,75
332,136,71445,2,0,L|248:136,1,75
136,64,71719,6,0,L|36:64,1,75
440,64,71994,2,0,L|360:64,1,75
136,228,72269,6,0,L|52:228,1,75
292,232,72544,2,0,L|384:232,1,75
136,156,72819,6,0,L|40:156,1,75
280,152,73093,2,0,L|220:104,1,75
428,152,73368,6,0,L|428:72,1,75
96,168,73643,2,0,L|96:72,1,75
344,292,73918,6,0,L|436:240,2,75
80,268,74330,1,0,0:0:0:0:
192,248,74467,6,0,L|88:120,1,150
224,132,74879,1,0,0:0:0:0:
336,160,75017,2,0,L|412:136,1,75
188,196,75292,2,0,L|92:184,1,75
424,228,75566,5,0,0:0:0:0:
196,280,75704,1,0,0:0:0:0:
96,180,75841,1,0,0:0:0:0:
304,148,75979,1,0,0:0:0:0:
372,112,76116,6,0,L|460:96,2,75
104,136,76528,1,0,0:0:0:0:
380,256,76666,2,0,L|392:304,2,37.5
156,244,76940,1,0,0:0:0:0:
288,148,77215,6,0,L|368:148,2,75
408,80,77627,2,0,L|488:76,2,75
104,92,78040,1,0,0:0:0:0:
232,112,78177,1,0,0:0:0:0:
112,208,78314,6,0,L|28:208,1,75
384,232,78589,2,0,L|484:232,1,75
176,304,78864,2,0,L|96:304,1,75
264,308,79230,5,0,0:0:0:0:
56,252,79413,1,0,0:0:0:0:
292,204,79597,1,0,0:0:0:0:
52,188,79780,1,0,0:0:0:0:
392,156,79963,1,0,0:0:0:0:
256,132,80146,1,0,0:0:0:0:
144,104,80329,1,0,0:0:0:0:
444,216,80513,1,0,0:0:0:0:
96,236,80787,1,0,0:0:0:0:
292,304,81062,6,0,L|320:220,1,75
56,308,81337,2,0,L|40:220,1,75
460,320,81612,6,0,L|468:240,1,75
120,224,81887,2,0,L|208:216,1,75
440,220,82161,6,0,L|356:204,1,75
168,168,82436,2,0,L|84:144,1,75
364,168,82711,6,0,L|504:100,1,150
220,300,83123,1,0,0:0:0:0:
312,296,83261,1,0,0:0:0:0:
124,224,83535,5,0,0:0:0:0:
416,228,83673,1,0,0:0:0:0:
288,200,83810,2,0,L|360:160,2,75
80,128,84222,1,0,0:0:0:0:
400,156,84360,2,0,L|488:144,1,75
332,184,84772,5,0,0:0:0:0:
164,280,84909,2,0,L|80:272,2,75
424,292,85321,1,0,0:0:0:0:
144,200,85459,2,0,L|56:176,1,75
352,292,86008,5,0,0:0:0:0:
212,296,86146,1,0,0:0:0:0:
424,224,86283,1,0,0:0:0:0:
284,212,86421,1,0,0:0:0:0:
144,220,86558,1,0,0:0:0:0:
220,164,86695,1,0,0:0:0:0:
96,164,86833,6,0,L|72:92,1,75
368,172,87108,2,0,L|432:116,1,75
116,280,87382,2,0,L|60:224,2,75
384,288,87795,1,0,0:0:0:0:
132,216,87932,6,0,L|92:180,2,37.5
424,296,88207,6,0,P|341:230|328:164,1,150
432,184,88619,1,0,0:0:0:0:
128,288,88756,2,0,L|68:240,1,75
320,272,89306,6,0,L|408:120,1,150
184,184,89718,1,0,0:0:0:0:
72,260,89855,2,0,L|44:208,2,37.5
388,264,90405,5,0,0:0:0:0:
96,228,90680,1,0,0:0:0:0:
452,216,90955,1,0,0:0:0:0:
320,212,91092,1,0,0:0:0:0:
112,120,91229,2,0,L|32:88,1,75
388,120,91504,1,0,0:0:0:0:
220,280,91916,5,0,0:0:0:0:
348,280,92054,2,0,L|432:280,1,75
116,264,92329,2,0,L|40:264,1,75
292,208,92603,1,0,0:0:0:0:
192,208,92741,1,0,0:0:0:0:
352,160,93016,5,0,0:0:0:0:
80,152,93153,1,0,0:0:0:0:
476,160,93428,1,0,0:0:0:0:
32,152,93702,1,0,0:0:0:0:
124,284,94115,5,0,0:0:0:0:
392,288,94252,2,0,L|480:284,1,75
220,208,94527,2,0,L|312:208,1,75
60,144,94802,1,0,0:0:0:0:
316,140,94939,1,0,0:0:0:0:
176,104,95214,5,0,0:0:0:0:
368,104,95351,1,0,0:0:0:0:
484,112,95626,1,0,0:0:0:0:
48,104,95901,1,0,0:0:0:0:
232,288,96313,5,0,0:0:0:0:
408,292,96450,1,0,0:0:0:0:
160,208,96588,1,0,0:0:0:0:
448,216,96725,1,0,0:0:0:0:
196,136,96863,1,0,0:0:0:0:
444,140,97000,1,0,0:0:0:0:
232,76,97137,1,0,0:0:0:0:
368,112,97412,5,0,0:0:0:0:
152,88,97550,1,0,0:0:0:0:
424,72,97824,1,0,0:0:0:0:
16,72,98099,1,0,0:0:0:0:
248,276,98511,5,0,0:0:0:0:
116,272,98649,2,0,L|48:200,1,75
432,268,98923,2,0,L|480:200,1,75
132,160,99198,1,0,0:0:0:0:
384,160,99336,1,0,0:0:0:0:
248,112,99610,5,0,0:0:0:0:
444,120,99748,1,0,0:0:0:0:
28,112,100023,1,0,0:0:0:0:
484,96,100297,2,0,B|365:95|365:95|428:56|428:56|254:56|254:56|292:100|292:100|112:100,1,600
256,192,101397,12,0,105793,0:0:0:0:
