osu file format v14

[General]
AudioFilename: audio.mp3
AudioLeadIn: 0
PreviewTime: -1
Countdown: 1
SampleSet: Normal
StackLeniency: 0.7
Mode: 0
LetterboxInBreaks: 0
WidescreenStoryboard: 0

[Editor]
DistanceSpacing: 1
BeatDivisor: 4
GridSize: 8
TimelineZoom: 1

[Metadata]
Title:Terremoto pa tu cola
TitleUnicode:Terremoto pa tu cola
Artist:El Apache Ness
ArtistUnicode:El Apache Ness
Creator:FerchOx
Version:Speed con vodka
Source:
Tags:cumbia atr preguntame si jodemo
BeatmapID:1367822
BeatmapSetID:645483

[Difficulty]
HPDrainRate:6
CircleSize:5
OverallDifficulty:6
ApproachRate:9
SliderMultiplier:1.4
SliderTickRate:1

[Events]
//Background and Video events
0,0,"maxresdefault.jpg",0,0
//Break Periods
//Storyboard Layer 0 (Background)
//Storyboard Layer 1 (Fail)
//Storyboard Layer 2 (Pass)
//Storyboard Layer 3 (Foreground)
//Storyboard Sound Samples

[TimingPoints]
2563,600.180054016205,4,1,0,100,1,0

[Colours]
Combo1 : 255,0,0
Combo2 : 0,255,128
Combo3 : 255,255,0

[HitObjects]
256,192,6940,12,8,16505,0:0:0:0:
320,120,20108,5,8,0:0:0:0:
408,120,20729,2,2,L|408:208,1,70
408,120,21350,1,8,0:0:0:0:
400,280,21847,1,0,0:0:0:0:
400,288,22096,1,0,0:0:0:0:
400,288,22468,5,8,0:0:0:0:
328,288,23089,2,0,L|280:288,1,35
256,192,23711,12,0,27313,0:0:0:0:
200,72,29177,5,8,0:0:0:0:
224,72,31289,1,8,0:0:0:0:
296,72,31537,2,4,L|352:72,1,35
400,80,32034,1,8,0:0:0:0:
400,80,32407,1,8,0:0:0:0:
392,280,33152,1,8,0:0:0:0:
392,280,33649,1,8,0:0:0:0:
120,296,33897,2,4,L|88:272,1,35
92,275,34146,1,8,0:0:0:0:
104,48,34518,2,4,L|136:72,1,35
136,72,34767,5,8,0:0:0:0:
440,64,35140,2,4,L|408:88,1,35
408,88,35388,1,8,0:0:0:0:
440,304,35761,2,4,L|400:288,1,35
416,296,36009,1,8,0:0:0:0:
200,40,36382,1,2,0:0:0:0:
256,192,36755,12,2,38742,0:0:0:0:
392,40,41103,6,2,L|424:72,1,35
416,120,41599,2,8,L|392:152,1,35
96,72,41972,2,2,L|80:104,1,35
64,160,42345,2,10,L|96:176,1,35
96,240,42842,2,2,L|96:288,1,35
256,336,43214,6,8,L|280:296,1,35
186,297,43587,2,2,L|162:345,1,35
352,352,43960,2,8,L|375:320,1,35
80,48,44457,2,0,L|96:80,1,35
136,168,44705,1,0,0:0:0:0:
280,80,44829,6,0,L|280:128,2,35
288,192,45326,1,8,0:0:0:0:
288,192,45575,1,8,0:0:0:0:
416,48,45947,5,2,0:0:0:0:
416,48,46072,1,8,0:0:0:0:
280,168,46444,1,2,0:0:0:0:
280,168,46569,1,8,0:0:0:0:
488,176,46817,1,2,0:0:0:0:
488,176,46941,1,8,0:0:0:0:
368,296,47190,5,2,0:0:0:0:
368,296,47314,1,8,0:0:0:0:
144,288,47562,1,2,0:0:0:0:
144,288,47687,1,8,0:0:0:0:
256,48,48059,1,2,0:0:0:0:
256,48,48184,5,8,0:0:0:0:
16,288,48432,1,2,0:0:0:0:
16,288,48556,1,8,0:0:0:0:
440,288,48805,1,2,0:0:0:0:
440,288,48929,1,8,0:0:0:0:
136,56,49177,5,0,0:0:0:0:
128,328,49302,1,0,0:0:0:0:
448,336,49426,1,0,0:0:0:0:
456,64,49550,1,0,0:0:0:0:
264,192,49674,1,0,0:0:0:0:
392,176,49799,5,0,0:0:0:0:
392,176,49923,1,0,0:0:0:0:
384,176,50171,2,0,L|384:272,1,70
48,48,50792,1,0,0:0:0:0:
440,48,51414,1,0,0:0:0:0:
72,336,52035,1,0,0:0:0:0:
152,336,52532,5,0,0:0:0:0:
232,336,52780,1,0,0:0:0:0:
320,336,53153,2,0,L|368:336,1,35
320,264,53774,2,0,L|320:192,1,70
256,192,54271,12,0,55265,0:0:0:0:
80,32,55637,5,0,0:0:0:0:
80,200,56134,1,0,0:0:0:0:
80,320,56755,2,0,P|128:320|120:320,1,35
224,48,57377,2,0,L|248:88,1,35
448,80,57625,1,0,0:0:0:0:
352,184,57873,2,0,L|312:184,1,35
352,320,58495,5,0,0:0:0:0:
256,192,58743,12,0,60234,0:0:0:0:
