osu file format v14

[General]
AudioFilename: audio.mp3
AudioLeadIn: 0
PreviewTime: 7612
Countdown: 0
SampleSet: Normal
StackLeniency: 0.7
Mode: 2
LetterboxInBreaks: 0
WidescreenStoryboard: 0

[Editor]
Bookmarks: 12287,19671,27056,34440,41825,56594,63979,71363,82440,104363
DistanceSpacing: 3.6
BeatDivisor: 4
GridSize: 8
TimelineZoom: 2.2

[Metadata]
Title:La Mama de la Mama
TitleUnicode:La Mamá de la Mamá
Artist:El Alfa "El Jefe" x CJ x El Cherry Scom
ArtistUnicode:El Alfa "El Jefe" x CJ x El Cherry Scom
Creator:Mrbinking
Version:LA MAMA DE LAS MAMA
Source:
Tags:dembow reggaeton jumps meme explicit
BeatmapID:3081605
BeatmapSetID:1504187

[Difficulty]
HPDrainRate:4
CircleSize:4
OverallDifficulty:10
ApproachRate:10
SliderMultiplier:2.99999990463257
SliderTickRate:1

[Events]
//Background and Video events
0,0,"uy.jpg",0,0
//Break Periods
//Storyboard Layer 0 (Background)
//Storyboard Layer 1 (Fail)
//Storyboard Layer 2 (Pass)
//Storyboard Layer 3 (Foreground)
//Storyboard Layer 4 (Overlay)
//Storyboard Sound Samples

[TimingPoints]
7840,810.810810810811,4,1,1,60,1,0
9462,526.315789473685,4,1,1,60,1,0
9989,480,4,1,1,60,1,0
10469,454.545454545455,4,1,1,60,1,0
12287,461.538461538462,4,1,1,90,1,1
12287,-71.9424460431655,4,1,1,90,0,1
19671,-71.9424460431655,4,1,1,60,0,0
27056,-71.9424460431655,4,1,1,90,0,1
34440,-71.9424460431655,4,1,1,60,0,0
75056,-71.9424460431655,4,1,1,90,0,1
82440,-71.9424460431655,4,1,1,60,0,0

[HitObjects]
256,192,7840,5,0,0:0:0:0:
256,192,8245,1,0,0:0:0:0:
160,192,8650,5,8,0:0:0:0:
248,192,8954,1,0,0:0:0:0:
264,192,9106,1,0,0:0:0:0:
248,192,9281,1,0,0:0:0:0:
352,192,9462,5,8,0:0:0:0:
264,192,9593,1,0,0:0:0:0:
248,192,9725,1,0,0:0:0:0:
264,192,9856,1,0,0:0:0:0:
152,192,9989,5,8,0:0:0:0:
248,192,10109,1,0,0:0:0:0:
264,192,10229,1,0,0:0:0:0:
248,192,10349,1,0,0:0:0:0:
368,192,10469,5,8,0:0:0:0:
264,192,10582,1,0,0:0:0:0:
248,192,10696,1,0,0:0:0:0:
264,192,10809,1,0,0:0:0:0:
136,192,10923,5,8,0:0:0:0:
248,192,11036,1,0,0:0:0:0:
264,192,11150,1,0,0:0:0:0:
248,192,11263,1,0,0:0:0:0:
384,192,11378,5,8,0:0:0:0:
264,192,11491,1,0,0:0:0:0:
248,192,11605,1,0,0:0:0:0:
264,192,11718,1,0,0:0:0:0:
120,192,11832,5,8,0:0:0:0:
248,192,11945,1,0,0:0:0:0:
264,192,12059,1,0,0:0:0:0:
248,192,12172,1,0,0:0:0:0:
488,192,12287,5,8,0:0:0:0:
248,192,12401,1,0,0:0:0:0:
432,192,12517,1,0,0:0:0:0:
216,192,12632,1,0,0:0:0:0:
480,192,12748,5,8,0:0:0:0:
184,192,12862,1,0,0:0:0:0:
368,192,12978,1,0,0:0:0:0:
152,192,13093,1,0,0:0:0:0:
488,192,13210,5,8,0:0:0:0:
120,192,13324,1,0,0:0:0:0:
304,192,13440,1,0,0:0:0:0:
88,192,13555,1,0,0:0:0:0:
488,192,13672,5,8,0:0:0:0:
56,192,13786,1,0,0:0:0:0:
240,192,13902,1,0,0:0:0:0:
24,192,14018,1,0,0:0:0:0:
392,88,14133,5,8,0:0:0:0:
152,88,14248,1,0,0:0:0:0:
328,192,14363,1,0,0:0:0:0:
152,88,14479,1,0,0:0:0:0:
416,88,14594,5,8,0:0:0:0:
152,88,14709,1,0,0:0:0:0:
328,192,14824,1,0,0:0:0:0:
152,88,14940,1,0,0:0:0:0:
440,88,15056,5,8,0:0:0:0:
152,88,15171,1,0,0:0:0:0:
328,192,15286,1,0,0:0:0:0:
152,88,15402,1,0,0:0:0:0:
464,88,15517,5,8,0:0:0:0:
152,88,15632,1,0,0:0:0:0:
328,192,15747,1,0,0:0:0:0:
152,88,15863,1,0,0:0:0:0:
488,192,15979,5,8,0:0:0:0:
200,192,16094,1,0,0:0:0:0:
392,192,16210,1,0,0:0:0:0:
216,192,16325,1,0,0:0:0:0:
488,192,16440,5,8,0:0:0:0:
152,192,16555,1,0,0:0:0:0:
344,192,16671,1,0,0:0:0:0:
168,192,16786,1,0,0:0:0:0:
488,192,16902,5,8,0:0:0:0:
104,192,17017,1,0,0:0:0:0:
296,192,17133,1,0,0:0:0:0:
120,192,17248,1,0,0:0:0:0:
488,192,17363,5,8,0:0:0:0:
56,192,17478,1,0,0:0:0:0:
248,192,17594,1,0,0:0:0:0:
72,192,17709,1,0,0:0:0:0:
432,192,17825,5,8,0:0:0:0:
128,192,17940,1,0,0:0:0:0:
336,192,18056,1,0,0:0:0:0:
128,192,18171,1,0,0:0:0:0:
456,192,18287,5,8,0:0:0:0:
128,192,18402,1,0,0:0:0:0:
336,192,18518,1,0,0:0:0:0:
120,192,18633,1,0,0:0:0:0:
480,192,18748,5,8,0:0:0:0:
128,192,18863,1,0,0:0:0:0:
336,192,18979,1,0,0:0:0:0:
120,192,19094,1,0,0:0:0:0:
488,264,19210,5,8,0:0:0:0:
24,264,19325,1,0,0:0:0:0:
488,264,19440,1,0,0:0:0:0:
24,264,19556,1,0,0:0:0:0:
384,264,19671,6,0,P|352:136|272:136,1,208.499999734879,8|0,0:0|0:0,0:0:0:0:
104,200,20017,1,0,0:0:0:0:
288,176,20133,6,0,L|336:312,1,104.249999867439,8|0,0:0|0:0,0:0:0:0:
120,272,20363,2,0,L|256:296,1,104.249999867439,8|0,0:0|0:0,0:0:0:0:
416,144,20594,2,0,L|280:120,1,104.249999867439,8|0,0:0|0:0,0:0:0:0:
488,48,20825,2,0,L|368:48,1,104.249999867439,8|0,0:0|0:0,0:0:0:0:
112,168,21056,5,0,0:0:0:0:
288,176,21171,1,0,0:0:0:0:
112,272,21287,1,0,0:0:0:0:
288,272,21402,1,0,0:0:0:0:
48,256,21517,6,0,P|88:112|152:112,1,208.499999734879,8|0,0:0|0:0,0:0:0:0:
336,104,21863,1,0,0:0:0:0:
160,192,21979,6,0,L|216:320,1,104.249999867439,8|0,0:0|0:0,0:0:0:0:
456,136,22210,2,0,L|344:112,1,104.249999867439,8|0,0:0|0:0,0:0:0:0:
56,56,22440,2,0,L|208:48,1,104.249999867439,8|0,0:0|0:0,0:0:0:0:
456,56,22671,2,0,L|304:48,1,104.249999867439,8|0,0:0|0:0,0:0:0:0:
104,152,22902,6,0,L|96:280,1,104.249999867439,8|0,0:0|0:0,0:0:0:0:
328,256,23133,1,8,0:0:0:0:
152,256,23248,1,8,0:0:0:0:
456,104,23363,6,0,P|400:208|480:240,1,208.499999734879,8|0,0:0|0:0,0:0:0:0:
200,200,23710,1,0,0:0:0:0:
432,200,23825,6,0,L|400:72,1,104.249999867439,8|0,0:0|0:0,0:0:0:0:
168,80,24056,2,0,L|320:56,1,104.249999867439,8|0,0:0|0:0,0:0:0:0:
96,152,24287,2,0,L|208:136,1,104.249999867439,8|0,0:0|0:0,0:0:0:0:
416,152,24517,2,0,L|304:136,1,104.249999867439,8|0,0:0|0:0,0:0:0:0:
32,192,24748,5,0,0:0:0:0:
208,192,24863,1,0,0:0:0:0:
384,192,24979,1,0,0:0:0:0:
120,192,25094,1,0,0:0:0:0:
312,192,25210,6,0,P|344:304|232:312,1,208.499999734879,8|0,0:0|0:0,0:0:0:0:
48,264,25556,1,0,0:0:0:0:
240,216,25671,6,0,L|280:96,1,104.249999867439,8|0,0:0|0:0,0:0:0:0:
96,64,25902,2,0,L|216:40,1,104.249999867439,8|0,0:0|0:0,0:0:0:0:
416,64,26133,2,0,L|296:40,1,104.249999867439,8|0,0:0|0:0,0:0:0:0:
133,192,26363,6,8,L|64:192,2,69.4999999116262
304,208,26594,2,8,L|280:64,1,104.249999867439,8|0,0:0|0:0,0:0:0:0:
64,56,26825,2,8,L|200:56,1,104.249999867439
488,192,27056,5,8,0:0:0:0:
144,192,27171,1,0,0:0:0:0:
384,192,27287,1,0,0:0:0:0:
208,192,27402,1,0,0:0:0:0:
488,192,27517,5,8,0:0:0:0:
112,192,27632,1,0,0:0:0:0:
352,192,27748,1,0,0:0:0:0:
176,192,27863,1,0,0:0:0:0:
488,192,27979,5,8,0:0:0:0:
80,192,28094,1,0,0:0:0:0:
320,192,28210,1,0,0:0:0:0:
144,192,28325,1,0,0:0:0:0:
488,192,28440,5,8,0:0:0:0:
48,192,28556,1,0,0:0:0:0:
288,192,28672,1,0,0:0:0:0:
112,192,28787,1,0,0:0:0:0:
488,192,28902,5,8,0:0:0:0:
248,192,29016,1,0,0:0:0:0:
432,192,29132,1,0,0:0:0:0:
216,192,29247,1,0,0:0:0:0:
480,192,29363,5,8,0:0:0:0:
184,192,29479,1,0,0:0:0:0:
368,192,29593,1,0,0:0:0:0:
152,192,29710,1,0,0:0:0:0:
488,192,29825,5,8,0:0:0:0:
120,192,29939,1,0,0:0:0:0:
304,192,30055,1,0,0:0:0:0:
88,192,30170,1,0,0:0:0:0:
488,192,30287,5,8,0:0:0:0:
56,192,30401,1,0,0:0:0:0:
240,192,30517,1,0,0:0:0:0:
24,192,30633,1,0,0:0:0:0:
392,192,30748,5,8,0:0:0:0:
32,192,30863,1,0,0:0:0:0:
208,192,30979,1,0,0:0:0:0:
32,192,31094,1,0,0:0:0:0:
392,192,31210,5,8,0:0:0:0:
32,192,31325,1,0,0:0:0:0:
248,192,31441,1,0,0:0:0:0:
32,192,31556,1,0,0:0:0:0:
392,192,31671,5,8,0:0:0:0:
32,192,31786,1,0,0:0:0:0:
288,192,31902,1,0,0:0:0:0:
32,192,32017,1,0,0:0:0:0:
392,192,32133,5,8,0:0:0:0:
32,192,32248,1,0,0:0:0:0:
208,192,32363,1,0,0:0:0:0:
32,192,32479,1,0,0:0:0:0:
336,224,32594,5,8,0:0:0:0:
120,176,32710,1,0,0:0:0:0:
368,176,32825,1,0,0:0:0:0:
152,128,32941,1,0,0:0:0:0:
400,224,33056,5,8,0:0:0:0:
184,176,33172,1,0,0:0:0:0:
432,176,33287,1,0,0:0:0:0:
216,128,33403,1,0,0:0:0:0:
456,224,33517,5,8,0:0:0:0:
240,176,33633,1,0,0:0:0:0:
488,176,33748,1,0,0:0:0:0:
272,128,33864,1,0,0:0:0:0:
488,184,33979,5,8,0:0:0:0:
24,184,34094,1,0,0:0:0:0:
488,184,34210,1,0,0:0:0:0:
24,184,34325,1,0,0:0:0:0:
312,192,34440,5,8,0:0:0:0:
152,96,34671,1,8,0:0:0:0:
232,96,34748,1,8,0:0:0:0:
168,96,34825,1,8,0:0:0:0:
248,96,34902,5,8,0:0:0:0:
32,176,35133,1,0,0:0:0:0:
360,96,35363,1,8,0:0:0:0:
280,96,35440,1,8,0:0:0:0:
344,96,35517,1,8,0:0:0:0:
264,96,35594,5,8,0:0:0:0:
480,176,35825,1,0,0:0:0:0:
32,176,36056,1,0,0:0:0:0:
256,192,36287,1,0,0:0:0:0:
120,96,36517,6,0,L|272:96,1,104.249999867439,8|0,0:0|0:0,0:0:0:0:
400,272,36748,1,8,0:0:0:0:
295,272,36863,1,0,0:0:0:0:
400,272,36979,1,8,0:0:0:0:
160,152,37094,1,0,0:0:0:0:
336,64,37210,6,0,L|200:64,1,104.249999867439,8|8,0:0|0:0,0:0:0:0:
408,160,37440,2,0,L|272:160,1,104.249999867439,8|8,0:0|0:0,0:0:0:0:
32,192,37671,6,0,L|176:192,1,104.249999867439,8|0,0:0|0:0,0:0:0:0:
480,192,37902,2,0,L|336:192,1,104.249999867439,8|0,0:0|0:0,0:0:0:0:
200,192,38133,5,8,0:0:0:0:
360,96,38364,1,8,0:0:0:0:
280,96,38441,1,8,0:0:0:0:
376,96,38518,1,8,0:0:0:0:
296,96,38595,5,8,0:0:0:0:
480,176,38826,1,0,0:0:0:0:
152,96,39056,1,8,0:0:0:0:
232,96,39133,1,8,0:0:0:0:
136,96,39210,1,8,0:0:0:0:
216,96,39287,5,8,0:0:0:0:
32,176,39518,1,0,0:0:0:0:
480,176,39749,1,0,0:0:0:0:
256,192,39980,1,0,0:0:0:0:
392,96,40210,6,0,L|240:96,1,104.249999867439,8|0,0:0|0:0,0:0:0:0:
112,272,40441,1,8,0:0:0:0:
217,272,40556,1,0,0:0:0:0:
112,272,40672,1,8,0:0:0:0:
352,152,40787,1,0,0:0:0:0:
176,64,40903,6,0,L|312:64,1,104.249999867439,8|8,0:0|0:0,0:0:0:0:
104,160,41133,2,0,L|240:160,1,104.249999867439,8|8,0:0|0:0,0:0:0:0:
480,192,41363,5,8,0:0:0:0:
304,192,41479,1,0,0:0:0:0:
32,192,41594,1,8,0:0:0:0:
208,192,41710,1,0,0:0:0:0:
480,232,41825,6,0,L|496:64,1,138.999999823252,8|8,0:0|0:0,0:0:0:0:
288,72,42171,1,8,0:0:0:0:
464,112,42287,2,0,P|424:240|352:216,1,208.499999734879,8|8,0:0|0:0,0:0:0:0:
144,312,42633,1,0,0:0:0:0:
320,264,42748,5,8,0:0:0:0:
144,216,42863,1,8,0:0:0:0:
392,264,42979,2,0,L|280:264,1,104.249999867439,8|8,0:0|0:0,0:0:0:0:
464,152,43210,1,8,0:0:0:0:
288,104,43325,2,0,P|328:232|400:208,1,208.499999734879,8|0,0:0|0:0,0:0:0:0:
136,272,43671,6,0,L|120:136,1,104.249999867439,8|8,0:0|0:0,0:0:0:0:
304,80,43902,2,0,L|192:80,1,104.249999867439,8|8,0:0|0:0,0:0:0:0:
416,168,44133,5,8,0:0:0:0:
240,168,44248,1,8,0:0:0:0:
472,248,44363,2,0,L|488:112,1,104.249999867439,8|8,0:0|0:0,0:0:0:0:
248,144,44594,5,8,0:0:0:0:
424,144,44709,1,8,0:0:0:0:
160,168,44825,1,8,0:0:0:0:
344,208,44940,1,8,0:0:0:0:
224,256,45113,1,8,0:0:0:0:
344,208,45229,1,8,0:0:0:0:
184,264,45363,1,8,0:0:0:0:
408,128,45517,6,0,P|448:208|336:264,1,208.499999734879,8|0,0:0|0:0,0:0:0:0:
192,224,45863,1,0,0:0:0:0:
448,136,45979,6,0,P|488:216|376:272,1,208.499999734879,8|0,0:0|0:0,0:0:0:0:
192,224,46325,1,0,0:0:0:0:
448,136,46440,6,0,L|224:128,1,208.499999734879,8|0,0:0|0:0,0:0:0:0:
416,200,46787,1,0,0:0:0:0:
200,208,46902,6,0,L|320:176,1,104.249999867439,8|0,0:0|0:0,0:0:0:0:
480,80,47133,2,0,L|328:72,1,104.249999867439,8|0,0:0|0:0,0:0:0:0:
80,152,47363,6,0,P|64:248|168:272,1,208.499999734879,8|8,0:0|0:0,0:0:0:0:
336,176,47710,1,8,0:0:0:0:
440,176,47825,1,8,0:0:0:0:
336,176,47940,1,8,0:0:0:0:
160,88,48056,6,0,L|288:88,1,104.249999867439,8|8,0:0|0:0,0:0:0:0:
80,128,48287,2,0,L|96:240,1,104.249999867439,8|8,0:0|0:0,0:0:0:0:
272,88,48517,2,0,L|167:88,1,104.249999867439,8|8,0:0|0:0,0:0:0:0:
384,168,48748,5,8,0:0:0:0:
200,128,48863,2,0,P|168:248|264:240,1,208.499999734879,8|0,0:0|0:0,0:0:0:0:
480,192,49210,6,0,L|256:192,1,208.499999734879,8|8,0:0|0:0,0:0:0:0:
448,48,49556,1,8,0:0:0:0:
272,192,49671,2,0,L|480:192,1,208.499999734879,8|8,0:0|0:0,0:0:0:0:
248,80,50133,5,8,0:0:0:0:
400,144,50594,1,8,0:0:0:0:
416,224,50710,1,8,0:0:0:0:
192,200,50825,1,8,0:0:0:0:
424,136,50940,6,0,P|472:216|368:256,1,208.499999734879,8|0,0:0|0:0,0:0:0:0:
216,168,51287,2,0,L|328:144,1,104.249999867439,8|0,0:0|0:0,0:0:0:0:
32,192,51517,2,0,L|240:192,2,208.499999734879,8|8|8,0:0|0:0|0:0,0:0:0:0:
344,208,52133,5,8,0:0:0:0:
224,256,52325,1,8,0:0:0:0:
344,208,52440,1,8,0:0:0:0:
184,264,52613,1,8,0:0:0:0:
352,184,52748,1,8,0:0:0:0:
32,192,52902,6,0,L|192:192,1,104.249999867439,8|8,0:0|0:0,0:0:0:0:
344,96,53133,2,0,L|184:96,1,104.249999867439,8|8,0:0|0:0,0:0:0:0:
480,192,53363,6,0,L|264:192,2,208.499999734879,8|8|8,0:0|0:0|0:0,0:0:0:0:
272,80,54056,2,0,L|384:80,1,104.249999867439,8|0,0:0|0:0,0:0:0:0:
184,112,54287,6,0,P|96:224|184:240,1,208.499999734879,8|8,0:0|0:0,0:0:0:0:
312,240,54633,1,8,0:0:0:0:
136,208,54748,2,0,L|160:64,1,104.249999867439,0|8,0:0|0:0,0:0:0:0:
328,40,54979,2,0,L|224:29,1,104.249999867439,8|8,0:0|0:0,0:0:0:0:
32,192,55210,6,0,L|248:192,2,208.499999734879,8|8|8,0:0|0:0|0:0,0:0:0:0:
480,200,55902,1,0,0:0:0:0:
32,192,56133,1,0,0:0:0:0:
480,192,56363,1,0,0:0:0:0:
256,192,56594,5,8,0:0:0:0:
384,200,59363,1,8,0:0:0:0:
32,104,59825,5,8,0:0:0:0:
128,200,63056,1,8,0:0:0:0:
480,104,63517,5,8,0:0:0:0:
48,184,63979,6,0,L|320:184,1,208.499999734879,8|0,0:0|0:0,0:0:0:0:
32,88,64325,1,0,0:0:0:0:
296,184,64440,2,0,L|24:184,1,208.499999734879,8|0,0:0|0:0,0:0:0:0:
312,88,64786,1,0,0:0:0:0:
88,184,64902,6,0,L|360:184,1,208.499999734879,8|0,0:0|0:0,0:0:0:0:
72,88,65248,1,0,0:0:0:0:
336,184,65363,2,0,L|64:184,1,208.499999734879,8|0,0:0|0:0,0:0:0:0:
352,88,65709,1,0,0:0:0:0:
32,192,65825,6,0,L|280:192,1,208.499999734879,8|0,0:0|0:0,0:0:0:0:
416,192,66171,1,0,0:0:0:0:
32,192,66287,2,0,L|280:192,1,208.499999734879,8|0,0:0|0:0,0:0:0:0:
432,192,66633,1,0,0:0:0:0:
32,192,66748,6,0,L|280:192,1,208.499999734879,8|0,0:0|0:0,0:0:0:0:
456,192,67094,1,0,0:0:0:0:
32,192,67210,2,0,L|280:192,1,208.499999734879,8|8,0:0|0:0,0:0:0:0:
32,96,67671,6,0,L|272:96,1,208.499999734879,8|0,0:0|0:0,0:0:0:0:
64,96,68017,1,0,0:0:0:0:
480,96,68133,2,0,L|240:96,1,208.499999734879,8|0,0:0|0:0,0:0:0:0:
456,96,68479,1,0,0:0:0:0:
32,96,68594,6,0,L|272:96,1,208.499999734879,8|0,0:0|0:0,0:0:0:0:
48,96,68940,1,0,0:0:0:0:
480,96,69056,2,0,L|240:96,1,208.499999734879,8|0,0:0|0:0,0:0:0:0:
472,96,69402,1,0,0:0:0:0:
168,272,69517,6,0,L|112:16,1,208.499999734879,8|0,0:0|0:0,0:0:0:0:
344,64,69863,1,0,0:0:0:0:
128,272,69979,2,0,L|72:16,1,208.499999734879,8|0,0:0|0:0,0:0:0:0:
384,64,70325,1,0,0:0:0:0:
80,272,70440,6,0,L|24:16,1,208.499999734879,8|8,0:0|0:0,0:0:0:0:
432,64,70787,1,8,0:0:0:0:
168,48,70902,6,0,L|264:120,1,104.249999867439,8|0,0:0|0:0,0:0:0:0:
480,192,71133,2,0,L|352:192,1,104.249999867439,8|8,0:0|0:0,0:0:0:0:
144,192,71363,5,8,0:0:0:0:
248,192,71479,1,0,0:0:0:0:
264,192,71594,1,0,0:0:0:0:
248,192,71710,1,0,0:0:0:0:
376,192,71825,5,8,0:0:0:0:
264,192,71940,1,0,0:0:0:0:
248,192,72056,1,0,0:0:0:0:
264,192,72171,1,0,0:0:0:0:
128,192,72287,5,8,0:0:0:0:
248,192,72402,1,0,0:0:0:0:
264,192,72517,1,0,0:0:0:0:
248,192,72633,1,0,0:0:0:0:
392,192,72748,5,8,0:0:0:0:
264,192,72863,1,0,0:0:0:0:
248,192,72979,1,0,0:0:0:0:
264,192,73094,1,0,0:0:0:0:
72,192,73210,5,8,0:0:0:0:
248,192,73326,1,0,0:0:0:0:
264,192,73441,1,0,0:0:0:0:
248,192,73557,1,0,0:0:0:0:
464,192,73671,5,8,0:0:0:0:
264,192,73787,1,0,0:0:0:0:
248,192,73903,1,0,0:0:0:0:
264,192,74018,1,0,0:0:0:0:
24,192,74133,6,0,L|144:192,1,104.249999867439,8|0,0:0|0:0,0:0:0:0:
304,192,74363,6,8,L|373:192,2,69.4999999116262
133,208,74594,2,8,L|150:105,1,104.249999867439,8|0,0:0|0:0,0:0:0:0:
373,56,74825,2,8,L|237:56,1,104.249999867439
24,192,75056,5,8,0:0:0:0:
264,192,75170,1,0,0:0:0:0:
80,192,75286,1,0,0:0:0:0:
296,192,75401,1,0,0:0:0:0:
32,192,75517,5,8,0:0:0:0:
328,192,75633,1,0,0:0:0:0:
144,192,75747,1,0,0:0:0:0:
360,192,75862,1,0,0:0:0:0:
24,192,75979,5,8,0:0:0:0:
392,192,76093,1,0,0:0:0:0:
208,192,76209,1,0,0:0:0:0:
424,192,76324,1,0,0:0:0:0:
24,192,76441,5,8,0:0:0:0:
456,192,76555,1,0,0:0:0:0:
272,192,76671,1,0,0:0:0:0:
488,192,76787,1,0,0:0:0:0:
112,80,76902,5,8,0:0:0:0:
432,80,77017,1,0,0:0:0:0:
256,80,77133,1,0,0:0:0:0:
432,80,77248,1,0,0:0:0:0:
96,80,77363,5,8,0:0:0:0:
440,80,77478,1,0,0:0:0:0:
264,80,77594,1,0,0:0:0:0:
440,80,77709,1,0,0:0:0:0:
80,80,77825,5,8,0:0:0:0:
448,80,77940,1,0,0:0:0:0:
272,80,78056,1,0,0:0:0:0:
448,80,78171,1,0,0:0:0:0:
64,80,78287,5,8,0:0:0:0:
456,80,78402,1,0,0:0:0:0:
280,80,78518,1,0,0:0:0:0:
456,80,78633,1,0,0:0:0:0:
24,192,78748,5,8,0:0:0:0:
368,192,78863,1,0,0:0:0:0:
128,192,78979,1,0,0:0:0:0:
304,192,79094,1,0,0:0:0:0:
24,192,79209,5,8,0:0:0:0:
400,192,79324,1,0,0:0:0:0:
160,192,79440,1,0,0:0:0:0:
336,192,79555,1,0,0:0:0:0:
24,192,79671,5,8,0:0:0:0:
432,192,79786,1,0,0:0:0:0:
192,192,79902,1,0,0:0:0:0:
368,192,80017,1,0,0:0:0:0:
24,192,80132,5,8,0:0:0:0:
464,192,80248,1,0,0:0:0:0:
224,192,80364,1,0,0:0:0:0:
400,192,80479,1,0,0:0:0:0:
168,192,80594,5,8,0:0:0:0:
344,192,80710,1,0,0:0:0:0:
128,192,80825,5,0,0:0:0:0:
384,192,80941,1,0,0:0:0:0:
96,192,81056,5,8,0:0:0:0:
416,192,81172,1,0,0:0:0:0:
72,192,81287,5,0,0:0:0:0:
440,192,81403,1,0,0:0:0:0:
56,192,81517,5,8,0:0:0:0:
456,192,81633,1,0,0:0:0:0:
48,192,81748,5,0,0:0:0:0:
464,192,81864,1,0,0:0:0:0:
44,192,81979,5,8,0:0:0:0:
468,192,82094,1,0,0:0:0:0:
40,192,82210,5,0,0:0:0:0:
472,192,82326,1,0,0:0:0:0:
216,72,82440,5,8,0:0:0:0:
336,72,82787,1,0,0:0:0:0:
152,72,82902,2,0,P|136:192|216:216,1,208.499999734879
408,200,83363,6,0,L|-16:8,1,416.999999469757
128,40,84056,1,0,0:0:0:0:
168,152,84287,5,0,0:0:0:0:
32,32,84633,1,0,0:0:0:0:
208,104,84748,2,0,L|8:232,1,208.499999734879
208,192,85210,6,0,L|8:320,1,208.499999734879
352,168,85671,1,0,0:0:0:0:
456,136,85902,1,0,0:0:0:0:
352,168,86133,1,0,0:0:0:0:
128,80,86248,5,0,0:0:0:0:
256,144,86479,1,0,0:0:0:0:
80,208,86594,1,0,0:0:0:0:
248,272,86825,1,0,0:0:0:0:
464,272,87056,5,0,0:0:0:0:
448,160,87287,1,0,0:0:0:0:
160,168,87517,1,0,0:0:0:0:
56,136,87748,1,0,0:0:0:0:
160,168,87979,1,0,0:0:0:0:
384,80,88094,5,0,0:0:0:0:
256,144,88325,1,0,0:0:0:0:
432,208,88440,1,0,0:0:0:0:
264,272,88671,1,0,0:0:0:0:
48,272,88902,6,0,P|32:216|128:192,1,138.999999823252
232,176,89133,2,0,L|320:176,2,69.4999999116262
32,120,89363,5,0,0:0:0:0:
144,120,89479,1,0,0:0:0:0:
32,120,89594,1,0,0:0:0:0:
144,120,89710,1,0,0:0:0:0:
408,160,89825,6,0,P|424:224|280:288,1,208.499999734879
128,232,90171,1,0,0:0:0:0:
324,304,90287,2,0,L|352:168,1,104.249999867439
144,104,90517,2,0,L|280:72,1,104.249999867439
480,192,90748,6,0,L|208:192,1,208.499999734879
480,192,91094,1,0,0:0:0:0:
304,192,91210,2,0,L|32:192,1,208.499999734879
304,192,91556,1,0,0:0:0:0:
104,160,91671,6,0,P|88:224|232:288,1,208.499999734879
384,232,92017,1,0,0:0:0:0:
188,304,92133,2,0,L|160:168,1,104.249999867439
368,104,92363,2,0,L|232:72,1,104.249999867439
32,192,92594,6,0,L|304:192,1,208.499999734879
32,192,92940,1,0,0:0:0:0:
208,192,93056,2,0,L|480:192,1,208.499999734879
208,192,93402,1,0,0:0:0:0:
480,192,93517,1,0,0:0:0:0:
304,80,93633,6,0,P|360:176|272:232,1,208.499999734879
120,152,93979,2,0,L|360:176,2,208.499999734879
416,240,94671,1,0,0:0:0:0:
256,192,94902,2,0,L|368:192,1,104.249999867439
184,88,95133,2,0,L|312:88,1,104.249999867439
32,192,95363,1,0,0:0:0:0:
208,80,95479,6,0,P|152:176|240:232,1,208.499999734879
392,152,95825,2,0,L|152:176,2,208.499999734879
96,240,96517,1,0,0:0:0:0:
256,192,96748,2,0,L|144:192,1,104.249999867439
328,88,96979,2,0,L|200:88,1,104.249999867439
480,192,97210,5,0,0:0:0:0:
304,192,97556,1,0,0:0:0:0:
480,192,97671,1,0,0:0:0:0:
304,192,97902,1,0,0:0:0:0:
480,192,98133,6,0,L|296:24,1,208.499999734879
480,192,98594,2,0,L|296:24,1,208.499999734879
32,192,99056,5,0,0:0:0:0:
208,192,99402,1,0,0:0:0:0:
32,192,99517,1,0,0:0:0:0:
208,192,99748,1,0,0:0:0:0:
32,192,99979,6,0,L|216:24,1,208.499999734879
32,192,100440,2,0,L|216:24,1,208.499999734879
480,192,100902,5,0,0:0:0:0:
168,192,101248,1,0,0:0:0:0:
344,192,101363,1,0,0:0:0:0:
144,192,101594,1,0,0:0:0:0:
392,192,101825,5,0,0:0:0:0:
96,192,102056,1,0,0:0:0:0:
440,192,102287,1,0,0:0:0:0:
48,192,102517,1,0,0:0:0:0:
480,192,102748,5,0,0:0:0:0:
168,192,103094,1,0,0:0:0:0:
344,192,103209,1,0,0:0:0:0:
144,192,103440,1,0,0:0:0:0:
392,192,103671,5,0,0:0:0:0:
96,192,103902,2,0,L|-8:192,2,69.4999999116262
440,192,104133,1,0,0:0:0:0:
48,192,104363,5,0,0:0:0:0:
