osu file format v14

[General]
AudioFilename: audio.mp3
AudioLeadIn: 0
PreviewTime: 167836
Countdown: 0
SampleSet: Soft
StackLeniency: 0.7
Mode: 3
LetterboxInBreaks: 0
SpecialStyle: 0
WidescreenStoryboard: 1

[Editor]
Bookmarks: 5864,28996,52167,75261,98394,121564,144659,167791,190924,214094,237227,260359,283454,306586
DistanceSpacing: 1.2
BeatDivisor: 12
GridSize: 4
TimelineZoom: 2.6

[Metadata]
Title:The Impulsive State
TitleUnicode:The Impulsive State
Artist:Ekcle
ArtistUnicode:Ekcle
Creator:Parachor
Version:Entropy_
Source:
Tags:powered by inspected 2 deshoda ep experimental abstract downtempo glitch
BeatmapID:1364765
BeatmapSetID:643857

[Difficulty]
HPDrainRate:8.8
CircleSize:4
OverallDifficulty:7
ApproachRate:5
SliderMultiplier:1.4
SliderTickRate:1

[Events]
//Background and Video events
0,0,"download (3).png",0,0
//Break Periods
//Storyboard Layer 0 (Background)
//Storyboard Layer 1 (Fail)
//Storyboard Layer 2 (Pass)
//Storyboard Layer 3 (Foreground)
//Storyboard Sound Samples

[TimingPoints]
4101,361.44578313253,4,2,1,15,1,0
4101,-100,4,2,1,15,0,0
4462,-10,4,2,1,15,0,0
4492,-1000,4,2,1,15,0,0
4522,-142.857142857143,4,2,1,15,0,0
4552,-1000,4,2,1,15,0,0
4582,-142.857142857143,4,2,1,15,0,0
4613,-1000,4,2,1,15,0,0
4643,-142.857142857143,4,2,1,15,0,0
4673,-1000,4,2,1,15,0,0
4703,-142.857142857143,4,2,1,15,0,0
4733,-1000,4,2,1,15,0,0
4793,-142.857142857143,4,2,1,15,0,0
4823,-1000,4,2,1,15,0,0
4884,-142.857142857143,4,2,1,15,0,0
4914,-1000,4,2,1,15,0,0
4974,-142.857142857143,4,2,1,15,0,0
5004,-1000,4,2,1,15,0,0
5094,-142.857142857143,4,2,1,15,0,0
5125,-1000,4,2,1,15,0,0
5215,-142.857142857143,4,2,1,15,0,0
5245,-1000,4,2,1,15,0,0
5335,-142.857142857143,4,2,1,15,0,0
5366,-1000,4,2,1,15,0,0
5456,-142.857142857143,4,2,1,15,0,0
5520,-1000,4,2,1,15,0,0
5637,-142.857142857143,4,2,1,15,0,0
5697,-1000,4,2,1,15,0,0
5817,-142.857142857143,4,2,1,15,0,0
5908,-100,4,2,1,15,0,0
5909,361.44578313253,4,2,1,15,1,0
10969,-10,4,2,1,15,0,0
10999,-285.714285714286,4,2,1,15,0,0
11330,-250,4,2,1,15,0,0
11390,-200,4,2,1,15,0,0
11451,-153.846153846154,4,2,1,15,0,0
11511,-117.647058823529,4,2,1,15,0,0
11571,-90.9090909090909,4,2,1,15,0,0
11631,-71.4285714285714,4,2,1,15,0,0
11692,-100,4,2,1,15,0,0
16390,-86.9565217391304,4,2,1,15,0,0
16481,-64.5161290322581,4,2,1,15,0,0
16571,-133.333333333333,4,2,1,15,0,0
16631,-1000,4,2,1,15,0,0
16692,-86.9565217391304,4,2,1,15,0,0
16752,-64.5161290322581,4,2,1,15,0,0
16842,-133.333333333333,4,2,1,15,0,0
16933,-1000,4,2,1,15,0,0
16993,-86.9565217391304,4,2,1,15,0,0
17053,-64.5161290322581,4,2,1,15,0,0
17143,-133.333333333333,4,2,1,15,0,0
17234,-1000,4,2,1,15,0,0
17294,-86.9565217391304,4,2,1,15,0,0
17354,-64.5161290322581,4,2,1,15,0,0
17415,-86.9565217391304,4,2,1,15,0,0
17475,-100,4,2,1,15,0,0
20065,-1000,4,2,1,15,0,0
20155,-666.666666666667,4,2,1,15,0,0
20186,-400,4,2,1,15,0,0
20216,-250,4,2,1,15,0,0
20246,-166.666666666667,4,2,1,15,0,0
20276,-117.647058823529,4,2,1,15,0,0
20306,-86.9565217391304,4,2,1,15,0,0
20336,-57.1428571428571,4,2,1,15,0,0
20366,-100,4,2,1,15,0,0
22535,-10,4,2,1,15,0,0
22565,-285.714285714286,4,2,1,15,0,0
22896,-250,4,2,1,15,0,0
22957,-222.222222222222,4,2,1,15,0,0
23017,-181.818181818182,4,2,1,15,0,0
23077,-142.857142857143,4,2,1,15,0,0
23137,-100,4,2,1,15,0,0
23198,-71.4285714285714,4,2,1,15,0,0
23258,-100,4,2,1,15,0,0
25848,-1000,4,2,1,15,0,0
25939,-666.666666666667,4,2,1,15,0,0
25969,-400,4,2,1,15,0,0
25999,-250,4,2,1,15,0,0
26029,-166.666666666667,4,2,1,15,0,0
26059,-117.647058823529,4,2,1,15,0,0
26089,-86.9565217391304,4,2,1,15,0,0
26119,-57.1428571428571,4,2,1,15,0,0
26149,-66.6666666666667,4,2,1,15,0,0
26180,-200,4,2,1,15,0,0
26210,-100,4,2,1,15,0,0
26240,-66.6666666666667,4,2,1,15,0,0
26270,-200,4,2,1,15,0,0
26300,-100,4,2,1,15,0,0
26330,-66.6666666666667,4,2,1,15,0,0
26360,-200,4,2,1,15,0,0
26390,-100,4,2,1,15,0,0
26421,-66.6666666666667,4,2,1,15,0,0
26451,-200,4,2,1,15,0,0
26481,-100,4,2,1,15,0,0
26511,-66.6666666666667,4,2,1,15,0,0
26541,-200,4,2,1,15,0,0
26571,-100,4,2,1,15,0,0
26601,-66.6666666666667,4,2,1,15,0,0
26631,-200,4,2,1,15,0,0
26662,-100,4,2,1,15,0,0
26692,-66.6666666666667,4,2,1,15,0,0
26722,-200,4,2,1,15,0,0
26752,-100,4,2,1,15,0,0
26782,-66.6666666666667,4,2,1,15,0,0
26812,-200,4,2,1,15,0,0
26842,-100,4,2,1,15,0,0
26963,-66.6666666666667,4,2,1,15,0,0
26993,-200,4,2,1,15,0,0
27023,-100,4,2,1,15,0,0
27143,-66.6666666666667,4,2,1,15,0,0
27174,-200,4,2,1,15,0,0
27204,-100,4,2,1,15,0,0
27324,-66.6666666666667,4,2,1,15,0,0
27354,-200,4,2,1,15,0,0
27384,-100,4,2,1,15,0,0
27595,-66.6666666666667,4,2,1,15,0,0
27625,-200,4,2,1,15,0,0
27655,-100,4,2,1,15,0,0
27776,-66.6666666666667,4,2,1,15,0,0
27806,-100,4,2,1,15,0,0
27836,-100,4,2,1,15,0,0
27957,-200,4,2,1,15,0,0
28198,-76.9230769230769,4,2,1,15,0,0
28318,-200,4,2,1,15,0,0
28499,-76.9230769230769,4,2,1,15,0,0
28589,-200,4,2,1,15,0,0
28860,-33.3333333333333,4,2,1,15,0,0
28890,-200,4,2,1,15,0,0
28981,-100,4,2,1,15,0,0
30487,-66.6666666666667,4,2,1,15,0,0
30517,-200,4,2,1,15,0,0
30547,-66.6666666666667,4,2,1,15,0,0
30577,-200,4,2,1,15,0,0
30607,-66.6666666666667,4,2,1,15,0,0
30637,-200,4,2,1,15,0,0
30668,-66.6666666666667,4,2,1,15,0,0
30698,-200,4,2,1,15,0,0
30728,-66.6666666666667,4,2,1,15,0,0
30758,-200,4,2,1,15,0,0
30788,-100,4,2,1,15,0,0
30818,-66.6666666666667,4,2,1,15,0,0
30848,-200,4,2,1,15,0,0
30878,-100,4,2,1,15,0,0
30908,-66.6666666666667,4,2,1,15,0,0
30939,-200,4,2,1,15,0,0
30969,-100,4,2,1,15,0,0
30999,-66.6666666666667,4,2,1,15,0,0
31029,-200,4,2,1,15,0,0
31059,-100,4,2,1,15,0,0
31119,-66.6666666666667,4,2,1,15,0,0
31149,-200,4,2,1,15,0,0
31180,-100,4,2,1,15,0,0
31300,-57.1428571428571,4,2,1,15,0,0
31360,-285.714285714286,4,2,1,15,0,0
31571,-57.1428571428571,4,2,1,15,0,0
31631,-285.714285714286,4,2,1,15,0,0
31842,-200,4,2,1,15,0,0
31872,-100,4,2,1,15,0,0
31902,-66.6666666666667,4,2,1,15,0,0
31933,-100,4,2,1,15,0,0
33378,-400,4,2,1,15,0,0
34372,-57.1428571428571,4,2,1,15,0,0
34433,-285.714285714286,4,2,1,15,0,0
34463,-57.1428571428571,4,2,1,15,0,0
34523,-100,4,2,1,15,0,0
34583,-166.666666666667,4,2,1,15,0,0
34643,-400,4,2,1,15,0,0
34734,-200,4,2,1,15,0,0
34764,-100,4,2,1,15,0,0
34794,-66.6666666666667,4,2,1,15,0,0
34824,-100,4,2,1,15,0,0
35547,-66.6666666666667,4,2,1,15,0,0
35577,-200,4,2,1,15,0,0
35607,-66.6666666666667,4,2,1,15,0,0
35637,-200,4,2,1,15,0,0
35668,-66.6666666666667,4,2,1,15,0,0
35698,-200,4,2,1,15,0,0
35728,-66.6666666666667,4,2,1,15,0,0
35758,-200,4,2,1,15,0,0
35788,-66.6666666666667,4,2,1,15,0,0
35818,-200,4,2,1,15,0,0
35848,-100,4,2,1,15,0,0
35878,-66.6666666666667,4,2,1,15,0,0
35908,-200,4,2,1,15,0,0
35939,-100,4,2,1,15,0,0
35969,-66.6666666666667,4,2,1,15,0,0
35999,-200,4,2,1,15,0,0
36029,-100,4,2,1,15,0,0
36059,-66.6666666666667,4,2,1,15,0,0
36089,-200,4,2,1,15,0,0
36119,-100,4,2,1,15,0,0
36180,-66.6666666666667,4,2,1,15,0,0
36210,-200,4,2,1,15,0,0
36240,-100,4,2,1,15,0,0
37234,-80,4,2,1,15,0,0
37294,-33.3333333333333,4,2,1,15,0,0
37324,-285.714285714286,4,2,1,15,0,0
37625,-200,4,2,1,15,0,0
37655,-100,4,2,1,15,0,0
37686,-66.6666666666667,4,2,1,15,0,0
37716,-100,4,2,1,15,0,0
39523,-400,4,2,1,15,0,0
40125,-57.1428571428571,4,2,1,15,0,0
40155,-133.333333333333,4,2,1,15,0,0
40306,-57.1428571428571,4,2,1,15,0,0
40336,-133.333333333333,4,2,1,15,0,0
40547,-66.6666666666667,4,2,1,15,0,0
40607,-100,4,2,1,15,0,0
41330,-97.0873786407767,4,2,1,15,0,0
42053,-95.2380952380952,4,2,1,15,0,0
42776,-92.5925925925926,4,2,1,15,0,0
43439,-66.6666666666667,4,2,1,15,0,0
43499,-90.9090909090909,4,2,1,15,0,0
44222,-88.4955752212389,4,2,1,15,0,0
44945,-86.9565217391304,4,2,1,15,0,0
45668,-84.7457627118644,4,2,1,15,0,0
46390,-20,4,2,1,15,0,0
46421,-100,4,2,1,15,0,0
47113,-60.6060606060606,4,2,1,15,0,0
47143,-285.714285714286,4,2,1,15,0,0
47174,-100,4,2,1,15,0,0
47234,-60.6060606060606,4,2,1,15,0,0
47264,-285.714285714286,4,2,1,15,0,0
47294,-100,4,2,1,15,0,0
47354,-60.6060606060606,4,2,1,15,0,0
47384,-285.714285714286,4,2,1,15,0,0
47415,-100,4,2,1,15,0,0
47445,-60.6060606060606,4,2,1,15,0,0
47475,-285.714285714286,4,2,1,15,0,0
47505,-100,4,2,1,15,0,0
47535,-60.6060606060606,4,2,1,15,0,0
47565,-285.714285714286,4,2,1,15,0,0
47595,-100,4,2,1,15,0,0
47746,-60.6060606060606,4,2,1,15,0,0
47776,-285.714285714286,4,2,1,15,0,0
47806,-100,4,2,1,15,0,0
48198,-92.5925925925926,4,2,1,15,0,0
48921,-86.2068965517241,4,2,1,15,0,0
49643,-80.6451612903226,4,2,1,15,0,0
50366,-75.7575757575758,4,2,1,15,0,0
51089,-71.4285714285714,4,2,1,15,0,0
51812,-67.5675675675676,4,2,1,15,0,0
52174,-25,4,2,1,15,0,0
52204,-1000,4,2,1,15,0,0
52241,-200,4,2,1,15,0,0
52287,-133.333333333333,4,2,1,15,0,0
52332,-100,4,2,1,15,0,0
52490,-33.3333333333333,4,2,1,15,0,0
52512,-250,4,2,1,15,0,0
52671,-86.9565217391304,4,2,1,15,0,0
52716,-100,4,2,1,15,0,0
57347,-54.054054054054,4,2,1,15,0,0
57369,-666.666666666667,4,2,1,15,0,0
57392,-100,4,2,1,15,0,0
57437,-54.054054054054,4,2,1,15,0,0
57460,-666.666666666667,4,2,1,15,0,0
57482,-100,4,2,1,15,0,0
57527,-54.054054054054,4,2,1,15,0,0
57550,-666.666666666667,4,2,1,15,0,0
57573,-100,4,2,1,15,0,0
57618,-54.054054054054,4,2,1,15,0,0
57640,-666.666666666667,4,2,1,15,0,0
57663,-100,4,2,1,15,0,0
57708,-54.054054054054,4,2,1,15,0,0
57731,-666.666666666667,4,2,1,15,0,0
57753,-100,4,2,1,15,0,0
57799,-54.054054054054,4,2,1,15,0,0
57821,-666.666666666667,4,2,1,15,0,0
57844,-100,4,2,1,15,0,0
57889,-54.054054054054,4,2,1,15,0,0
57912,-666.666666666667,4,2,1,15,0,0
57934,-100,4,2,1,15,0,0
64011,-66.6666666666667,4,2,1,15,0,0
64041,-200,4,2,1,15,0,0
64071,-100,4,2,1,15,0,0
64282,-66.6666666666667,4,2,1,15,0,0
64312,-200,4,2,1,15,0,0
64342,-100,4,2,1,15,0,0
65186,-62.5,4,2,1,15,0,0
65246,-76.9230769230769,4,2,1,15,0,0
65306,-100,4,2,1,15,0,0
66631,-62.5,4,2,1,15,0,0
66692,-76.9230769230769,4,2,1,15,0,0
66752,-100,4,2,1,15,0,0
68077,-62.5,4,2,1,15,0,0
68137,-76.9230769230769,4,2,1,15,0,0
68198,-100,4,2,1,15,0,0
68981,-54.054054054054,4,2,1,15,0,0
69003,-666.666666666667,4,2,1,15,0,0
69026,-100,4,2,1,15,0,0
69071,-54.054054054054,4,2,1,15,0,0
69094,-666.666666666667,4,2,1,15,0,0
69116,-100,4,2,1,15,0,0
69139,-54.054054054054,4,2,1,15,0,0
69162,-666.666666666667,4,2,1,15,0,0
69184,-100,4,2,1,15,0,0
69207,-54.054054054054,4,2,1,15,0,0
69229,-666.666666666667,4,2,1,15,0,0
69252,-54.054054054054,4,2,1,15,0,0
69274,-666.666666666667,4,2,1,15,0,0
69297,-100,4,2,1,15,0,0
69342,-54.054054054054,4,2,1,15,0,0
69365,-666.666666666667,4,2,1,15,0,0
69387,-100,4,2,1,15,0,0
69433,-54.054054054054,4,2,1,15,0,0
69455,-666.666666666667,4,2,1,15,0,0
69478,-100,4,2,1,15,0,0
74674,-117.647058823529,4,2,1,15,0,0
74794,-66.6666666666667,4,2,1,15,0,0
74824,-117.647058823529,4,2,1,15,0,0
74975,-66.6666666666667,4,2,1,15,0,0
75005,-117.647058823529,4,2,1,15,0,0
75216,-66.6666666666667,4,2,1,15,0,0
75246,-117.647058823529,4,2,1,15,0,0
75306,-100,4,2,1,15,0,0
76059,-111.111111111111,4,2,1,15,0,0
76119,-125,4,2,1,15,0,0
76541,-111.111111111111,4,2,1,15,0,0
76601,-125,4,2,1,15,0,0
76692,-66.6666666666667,4,2,1,15,0,0
76752,-100,4,2,1,15,0,0
78198,-62.5,4,2,1,15,0,0
78258,-76.9230769230769,4,2,1,15,0,0
78318,-100,4,2,1,15,0,0
79643,-62.5,4,2,1,15,0,0
79704,-76.9230769230769,4,2,1,15,0,0
79764,-100,4,2,1,15,0,0
86149,-90.9090909090909,4,2,1,15,0,0
86210,-95.2380952380952,4,2,1,15,0,0
86270,-100,4,2,1,15,0,0
86330,-105.263157894737,4,2,1,15,0,0
86390,-111.111111111111,4,2,1,15,0,0
86451,-117.647058823529,4,2,1,15,0,0
86511,-125,4,2,1,15,0,0
86571,-133.333333333333,4,2,1,15,0,0
86631,-142.857142857143,4,2,1,15,0,0
86692,-153.846153846154,4,2,1,15,0,0
86752,-142.857142857143,4,2,1,15,0,0
86812,-133.333333333333,4,2,1,15,0,0
86872,-125,4,2,1,15,0,0
86933,-117.647058823529,4,2,1,15,0,0
86993,-111.111111111111,4,2,1,15,0,0
87053,-105.263157894737,4,2,1,15,0,0
87113,-100,4,2,1,15,0,0
87174,-95.2380952380952,4,2,1,15,0,0
87234,-100,4,2,1,15,0,0
89764,-62.5,4,2,1,15,0,0
89824,-76.9230769230769,4,2,1,15,0,0
89884,-100,4,2,1,15,0,0
91210,-62.5,4,2,1,15,0,0
91270,-76.9230769230769,4,2,1,15,0,0
91330,-100,4,2,1,15,0,0
92655,-57.1428571428571,4,2,1,15,0,0
92686,-400,4,2,1,15,0,0
92716,-100,4,2,1,15,0,0
92746,-57.1428571428571,4,2,1,15,0,0
92776,-400,4,2,1,15,0,0
92806,-100,4,2,1,15,0,0
96993,-108.695652173913,4,2,1,15,0,0
97083,-119.047619047619,4,2,1,15,0,0
97174,-131.578947368421,4,2,1,15,0,0
97264,-147.058823529412,4,2,1,15,0,0
97354,-166.666666666667,4,2,1,15,0,0
97445,-192.307692307692,4,2,1,15,0,0
97625,-76.9230769230769,4,2,1,15,0,0
97671,-86.9565217391304,4,2,1,15,0,0
97716,-100,4,2,1,15,0,0
98439,-125,4,2,1,15,0,0
99643,-200,4,2,1,15,0,0
99824,-66.6666666666667,4,2,1,15,0,0
99884,-100,4,2,1,15,0,0
104222,-250,4,2,1,15,0,0
104402,-166.666666666667,4,2,1,15,0,0
104583,-125,4,2,1,15,0,0
104734,-40,4,2,1,15,0,0
104764,-100,4,2,1,15,0,0
108559,-1000,4,2,1,15,0,0
108649,-400,4,2,1,15,0,0
108740,-200,4,2,1,15,0,0
108830,-133.333333333333,4,2,1,15,0,0
108921,-100,4,2,1,15,0,0
109312,-285.714285714286,4,2,1,15,0,0
109342,-60.6060606060606,4,2,1,15,0,0
109372,-100,4,2,1,15,0,0
109433,-285.714285714286,4,2,1,15,0,0
109463,-60.6060606060606,4,2,1,15,0,0
109493,-100,4,2,1,15,0,0
109553,-285.714285714286,4,2,1,15,0,0
109583,-60.6060606060606,4,2,1,15,0,0
109613,-100,4,2,1,15,0,0
109674,-285.714285714286,4,2,1,15,0,0
109704,-60.6060606060606,4,2,1,15,0,0
109734,-100,4,2,1,15,0,0
109794,-285.714285714286,4,2,1,15,0,0
109824,-60.6060606060606,4,2,1,15,0,0
109854,-100,4,2,1,15,0,0
109915,-285.714285714286,4,2,1,15,0,0
109945,-60.6060606060606,4,2,1,15,0,0
109975,-100,4,2,1,15,0,0
110698,-76.9230769230769,4,2,1,15,0,0
111451,-100,4,2,1,15,0,0
117234,-62.5,4,2,1,15,0,0
117294,-76.9230769230769,4,2,1,15,0,0
117354,-100,4,2,1,15,0,0
118680,-62.5,4,2,1,15,0,0
118740,-76.9230769230769,4,2,1,15,0,0
118800,-100,4,2,1,15,0,0
120125,-76.9230769230769,4,2,1,15,0,0
120186,-86.9565217391304,4,2,1,15,0,0
120246,-100,4,2,1,15,0,0
122836,-200,4,2,1,15,0,0
122896,-50,4,2,1,15,0,0
122927,-100,4,2,1,15,0,0
128619,-200,4,2,1,15,0,0
128680,-50,4,2,1,15,0,0
128710,-100,4,2,1,15,0,0
131466,-83.3333333333333,4,2,1,15,0,0
133137,-100,4,2,1,15,0,0
135668,-200,4,2,1,15,0,0
135969,-50,4,2,1,15,0,0
136029,-100,4,2,1,15,0,0
138469,-200,4,2,1,15,0,0
138860,-50,4,2,1,15,0,0
138921,-100,4,2,1,15,0,0
141511,-400,4,2,1,15,0,0
141752,-50,4,2,1,15,0,0
141812,-100,4,2,1,15,0,0
142174,-97.0873786407767,4,2,1,15,0,0
142535,-92.5925925925926,4,2,1,15,0,0
142896,-91.743119266055,4,2,1,15,0,0
143258,-89.2857142857143,4,2,1,15,0,0
143619,-86.9565217391304,4,2,1,15,0,0
143981,-84.7457627118644,4,2,1,15,0,0
144342,-200,4,2,1,15,0,0
144643,-66.6666666666667,4,2,1,15,0,0
144704,-40,4,2,1,15,0,1
144884,-66.6666666666667,4,2,1,15,0,1
144975,-100,4,2,1,15,0,0
151210,-90.9090909090909,4,2,1,15,0,0
151571,-83.3333333333333,4,2,1,15,0,0
151933,-100,4,2,1,15,0,0
153378,-86.9565217391304,4,2,1,15,0,0
154824,-100,4,2,1,15,0,0
155954,-90.9090909090909,4,2,1,15,0,0
156089,-71.4285714285714,4,2,1,15,0,0
156270,-100,4,2,1,15,0,0
159884,-60.6060606060606,4,2,1,15,0,0
159915,-285.714285714286,4,2,1,15,0,0
159945,-100,4,2,1,15,0,0
160005,-60.6060606060606,4,2,1,15,0,0
160035,-285.714285714286,4,2,1,15,0,0
160065,-100,4,2,1,15,0,0
160125,-60.6060606060606,4,2,1,15,0,0
160155,-285.714285714286,4,2,1,15,0,0
160186,-100,4,2,1,15,0,0
160246,-60.6060606060606,4,2,1,15,0,0
160276,-285.714285714286,4,2,1,15,0,0
160306,-100,4,2,1,15,0,0
160366,-60.6060606060606,4,2,1,15,0,0
160396,-285.714285714286,4,2,1,15,0,0
160427,-100,4,2,1,15,0,0
167113,-66.6666666666667,4,2,1,15,0,0
167143,-100,4,2,1,15,0,0
167264,-66.6666666666667,4,2,1,15,0,0
167294,-100,4,2,1,15,0,0
167384,-66.6666666666667,4,2,1,15,0,0
167415,-100,4,2,1,15,0,0
167475,-66.6666666666667,4,2,1,15,0,0
167505,-133.333333333333,4,2,1,15,0,0
167776,-66.6666666666667,4,2,1,15,0,0
167836,-28.5714285714286,4,2,1,15,0,1
167866,-74.0740740740741,4,2,1,15,0,1
168017,-100,4,2,1,15,0,1
168137,-66.6666666666667,4,2,1,15,0,1
168198,-28.5714285714286,4,2,1,15,0,1
168228,-74.0740740740741,4,2,1,15,0,1
168378,-100,4,2,1,15,0,0
168921,-66.6666666666667,4,2,1,15,0,0
168981,-100,4,2,1,15,0,0
173619,-125,4,2,1,15,0,0
173755,-80,4,2,1,15,0,0
173845,-125,4,2,1,15,0,0
173936,-80,4,2,1,15,0,0
174026,-125,4,2,1,15,0,0
174116,-80,4,2,1,15,0,0
174207,-125,4,2,1,15,0,0
174297,-1000,4,2,1,15,0,0
174342,-66.6666666666667,4,2,1,15,0,0
174372,-200,4,2,1,15,0,0
174402,-100,4,2,1,15,0,0
174463,-66.6666666666667,4,2,1,15,0,0
174493,-200,4,2,1,15,0,0
174523,-100,4,2,1,15,0,0
174583,-66.6666666666667,4,2,1,15,0,0
174613,-200,4,2,1,15,0,0
174643,-100,4,2,1,15,0,0
174674,-66.6666666666667,4,2,1,15,0,0
174704,-200,4,2,1,15,0,0
174734,-100,4,2,1,15,0,0
174764,-66.6666666666667,4,2,1,15,0,0
174794,-200,4,2,1,15,0,0
174824,-100,4,2,1,15,0,0
177324,-66.6666666666667,4,2,1,15,0,0
177354,-200,4,2,1,15,0,0
177384,-100,4,2,1,15,0,0
177415,-66.6666666666667,4,2,1,15,0,0
177445,-200,4,2,1,15,0,0
177475,-100,4,2,1,15,0,0
177565,-66.6666666666667,4,2,1,15,0,0
177595,-200,4,2,1,15,0,0
177625,-100,4,2,1,15,0,0
177655,-66.6666666666667,4,2,1,15,0,0
177686,-200,4,2,1,15,0,0
177716,-100,4,2,1,15,0,0
185186,-125,4,2,1,15,0,0
185321,-80,4,2,1,15,0,0
185412,-125,4,2,1,15,0,0
185502,-80,4,2,1,15,0,0
185592,-125,4,2,1,15,0,0
185683,-80,4,2,1,15,0,0
185773,-125,4,2,1,15,0,0
185863,-100,4,2,1,15,0,0
190969,-66.6666666666667,4,2,1,15,0,0
191029,-100,4,2,1,15,0,0
191330,-66.6666666666667,4,2,1,15,0,0
191390,-100,4,2,1,15,0,0
192053,-66.6666666666667,4,2,1,15,0,0
192113,-100,4,2,1,15,0,0
196752,-125,4,2,1,15,0,0
196887,-80,4,2,1,15,0,0
196978,-125,4,2,1,15,0,0
197068,-80,4,2,1,15,0,0
197158,-125,4,2,1,15,0,0
197249,-80,4,2,1,15,0,0
197339,-125,4,2,1,15,0,0
197430,-100,4,2,1,15,0,0
202686,-100,4,2,1,15,0,0
202746,-100,4,2,1,15,0,0
202806,-125,4,2,1,15,0,0
202866,-80,4,2,1,15,0,0
202927,-125,4,2,1,15,0,0
202987,-80,4,2,1,15,0,0
203047,-125,4,2,1,15,0,0
203107,-80,4,2,1,15,0,0
203168,-125,4,2,1,15,0,0
203228,-100,4,2,1,15,0,0
208318,-125,4,2,1,15,0,0
208454,-80,4,2,1,15,0,0
208544,-125,4,2,1,15,0,0
208634,-80,4,2,1,15,0,0
208725,-125,4,2,1,15,0,0
208815,-80,4,2,1,15,0,0
208905,-125,4,2,1,15,0,0
208996,-100,4,2,1,15,0,0
209975,-66.6666666666667,4,2,1,15,0,0
210005,-200,4,2,1,15,0,0
210035,-100,4,2,1,15,0,0
210065,-66.6666666666667,4,2,1,15,0,0
210095,-200,4,2,1,15,0,0
210125,-100,4,2,1,15,0,0
210155,-66.6666666666667,4,2,1,15,0,0
210186,-200,4,2,1,15,0,0
210216,-100,4,2,1,15,0,0
210246,-66.6666666666667,4,2,1,15,0,0
210276,-200,4,2,1,15,0,0
210306,-100,4,2,1,15,0,0
210336,-66.6666666666667,4,2,1,15,0,0
210366,-200,4,2,1,15,0,0
210396,-100,4,2,1,15,0,0
210427,-66.6666666666667,4,2,1,15,0,0
210457,-200,4,2,1,15,0,0
210487,-100,4,2,1,15,0,0
210698,-66.6666666666667,4,2,1,15,0,0
210728,-200,4,2,1,15,0,0
210758,-100,4,2,1,15,0,0
210788,-66.6666666666667,4,2,1,15,0,0
210818,-200,4,2,1,15,0,0
210848,-100,4,2,1,15,0,0
210908,-66.6666666666667,4,2,1,15,0,0
210939,-200,4,2,1,15,0,0
210969,-66.6666666666667,4,2,1,15,0,0
210999,-200,4,2,1,15,0,0
211029,-100,4,2,1,15,0,0
211059,-66.6666666666667,4,2,1,15,0,0
211089,-200,4,2,1,15,0,0
211119,-100,4,2,1,15,0,0
211149,-66.6666666666667,4,2,1,15,0,0
211180,-200,4,2,1,15,0,0
211210,-100,4,2,1,15,0,0
211421,-66.6666666666667,4,2,1,15,0,0
211451,-200,4,2,1,15,0,0
211481,-100,4,2,1,15,0,0
211511,-66.6666666666667,4,2,1,15,0,0
211541,-200,4,2,1,15,0,0
211571,-100,4,2,1,15,0,0
211692,-66.6666666666667,4,2,1,15,0,0
211722,-200,4,2,1,15,0,0
211752,-100,4,2,1,15,0,0
211782,-66.6666666666667,4,2,1,15,0,0
211812,-200,4,2,1,15,0,0
211842,-100,4,2,1,15,0,0
211872,-66.6666666666667,4,2,1,15,0,0
211902,-200,4,2,1,15,0,0
211933,-100,4,2,1,15,0,0
212143,-80,4,2,1,15,0,0
212174,-133.333333333333,4,2,1,15,0,0
212204,-100,4,2,1,15,0,0
212234,-80,4,2,1,15,0,0
212264,-133.333333333333,4,2,1,15,0,0
212294,-100,4,2,1,15,0,0
212505,-80,4,2,1,15,0,0
212535,-133.333333333333,4,2,1,15,0,0
212565,-100,4,2,1,15,0,0
212595,-80,4,2,1,15,0,0
212625,-133.333333333333,4,2,1,15,0,0
212655,-86.9565217391304,4,2,1,15,0,0
214101,-111.111111111111,4,2,1,15,0,0
224945,-105.263157894737,4,2,1,15,0,0
225668,-100,4,2,1,15,0,0
236511,-90.9090909090909,4,2,1,15,0,0
237234,-125,4,2,1,15,0,0
245186,-60.6060606060606,4,2,1,15,0,0
245216,-2000,4,2,1,15,0,0
245246,-60.6060606060606,4,2,1,15,0,0
245276,-2000,4,2,1,15,0,0
245306,-60.6060606060606,4,2,1,15,0,0
245336,-2000,4,2,1,15,0,0
245366,-60.6060606060606,4,2,1,15,0,0
245396,-2000,4,2,1,15,0,0
245427,-60.6060606060606,4,2,1,15,0,0
245457,-2000,4,2,1,15,0,0
245487,-60.6060606060606,4,2,1,15,0,0
245517,-2000,4,2,1,15,0,0
245547,-60.6060606060606,4,2,1,15,0,0
245577,-2000,4,2,1,15,0,0
245607,-60.6060606060606,4,2,1,15,0,0
245637,-2000,4,2,1,15,0,0
245668,-60.6060606060606,4,2,1,15,0,0
245698,-2000,4,2,1,15,0,0
245728,-60.6060606060606,4,2,1,15,0,0
245758,-2000,4,2,1,15,0,0
245788,-60.6060606060606,4,2,1,15,0,0
245818,-2000,4,2,1,15,0,0
245848,-60.6060606060606,4,2,1,15,0,0
245878,-2000,4,2,1,15,0,0
245908,-125,4,2,1,15,0,0
248800,-117.647058823529,4,2,1,15,0,0
250246,-111.111111111111,4,2,1,15,0,0
250969,-57.1428571428571,4,2,1,15,0,0
250999,-2000,4,2,1,15,0,0
251029,-57.1428571428571,4,2,1,15,0,0
251059,-2000,4,2,1,15,0,0
251089,-57.1428571428571,4,2,1,15,0,0
251119,-2000,4,2,1,15,0,0
251149,-57.1428571428571,4,2,1,15,0,0
251180,-2000,4,2,1,15,0,0
251210,-57.1428571428571,4,2,1,15,0,0
251240,-2000,4,2,1,15,0,0
251270,-57.1428571428571,4,2,1,15,0,0
251300,-2000,4,2,1,15,0,0
251330,-57.1428571428571,4,2,1,15,0,0
251360,-2000,4,2,1,15,0,0
251390,-57.1428571428571,4,2,1,15,0,0
251421,-2000,4,2,1,15,0,0
251451,-57.1428571428571,4,2,1,15,0,0
251481,-2000,4,2,1,15,0,0
251511,-57.1428571428571,4,2,1,15,0,0
251541,-2000,4,2,1,15,0,0
251571,-57.1428571428571,4,2,1,15,0,0
251601,-2000,4,2,1,15,0,0
251631,-57.1428571428571,4,2,1,15,0,0
251662,-2000,4,2,1,15,0,0
251692,-111.111111111111,4,2,1,15,0,0
253137,-100,4,2,1,15,0,0
256752,-51.2820512820513,4,2,1,15,0,0
256782,-2000,4,2,1,15,0,0
256812,-51.2820512820513,4,2,1,15,0,0
256842,-2000,4,2,1,15,0,0
256872,-51.2820512820513,4,2,1,15,0,0
256902,-2000,4,2,1,15,0,0
256933,-51.2820512820513,4,2,1,15,0,0
256963,-2000,4,2,1,15,0,0
256993,-51.2820512820513,4,2,1,15,0,0
257023,-2000,4,2,1,15,0,0
257053,-51.2820512820513,4,2,1,15,0,0
257083,-2000,4,2,1,15,0,0
257113,-51.2820512820513,4,2,1,15,0,0
257143,-2000,4,2,1,15,0,0
257174,-51.2820512820513,4,2,1,15,0,0
257204,-2000,4,2,1,15,0,0
257234,-51.2820512820513,4,2,1,15,0,0
257264,-2000,4,2,1,15,0,0
257294,-51.2820512820513,4,2,1,15,0,0
257324,-2000,4,2,1,15,0,0
257354,-51.2820512820513,4,2,1,15,0,0
257384,-2000,4,2,1,15,0,0
257415,-51.2820512820513,4,2,1,15,0,0
257445,-2000,4,2,1,15,0,0
257475,-90.9090909090909,4,2,1,15,0,0
257836,-86.9565217391304,4,2,1,15,0,0
258198,-83.3333333333333,4,2,1,15,0,0
260366,-117.647058823529,4,2,1,15,0,0
261451,-100,4,2,1,15,0,0
265427,-83.3333333333333,4,2,1,15,0,0
266149,-100,4,2,1,15,0,0
270487,-83.3333333333333,4,2,1,15,0,0
270728,-100,4,2,1,15,0,0
275186,-83.3333333333333,4,2,1,15,0,0
275306,-100,4,2,1,15,0,0
277354,-83.3333333333333,4,2,1,15,0,0
277716,-100,4,2,1,15,0,0
280246,-83.3333333333333,4,2,1,15,0,0
280607,-100,4,2,1,15,0,0
283137,-86.9565217391304,4,2,1,15,0,0
283499,-100,4,2,1,15,0,0
284583,-86.9565217391304,4,2,1,15,0,0
285306,-100,4,2,1,15,0,0
288559,-90.9090909090909,4,2,1,15,0,0
289282,-100,4,2,1,15,0,0
294410,-95.2380952380952,4,2,1,15,0,0
295065,-100,4,2,1,15,0,0
306631,-105.263157894737,4,2,1,15,0,0
307445,-42.1940928270042,4,2,1,15,0,0
307467,-263.157894736842,4,2,1,15,0,0
307490,-105.263157894737,4,2,1,15,0,0
307716,-42.1940928270042,4,2,1,15,0,0
307738,-263.157894736842,4,2,1,15,0,0
307761,-105.263157894737,4,2,1,15,0,0
307896,-42.1940928270042,4,2,1,15,0,0
307919,-263.157894736842,4,2,1,15,0,0
307942,-105.263157894737,4,2,1,15,0,0
308077,-42.1940928270042,4,2,1,15,0,0
308100,-263.157894736842,4,2,1,15,0,0
308122,-111.111111111111,4,2,1,15,0,0
328830,-125,4,2,1,15,0,0

[HitObjects]
64,192,4462,128,0,5909:0:0:0:0:
192,192,5909,5,0,0:0:0:15:HI-HAT.wav
320,192,5909,1,0,0:0:0:85:KICK.wav
448,192,5969,1,0,0:0:0:20:STICKHIT.wav
448,192,6210,1,0,0:0:0:20:STICKHIT.wav
448,192,6451,1,0,0:0:0:20:STICKHIT.wav
192,192,6631,1,0,0:0:0:15:HI-HAT.wav
448,192,6692,1,0,0:0:0:20:STICKHIT.wav
448,192,6933,1,0,0:0:0:20:STICKHIT.wav
192,192,7354,1,0,0:0:0:15:HI-HAT.wav
448,192,7415,1,0,0:0:0:20:STICKHIT.wav
448,192,7655,1,0,0:0:0:20:STICKHIT.wav
448,192,7896,1,0,0:0:0:20:STICKHIT.wav
192,192,8077,1,0,0:0:0:15:HI-HAT.wav
448,192,8137,1,0,0:0:0:20:STICKHIT.wav
448,192,8378,1,0,0:0:0:20:STICKHIT.wav
192,192,8800,1,0,0:0:0:15:HI-HAT.wav
320,192,8800,1,0,0:0:0:85:KICK.wav
64,192,8800,128,0,10969:0:0:0:0:
448,192,8860,1,0,0:0:0:20:STICKHIT.wav
448,192,9101,1,0,0:0:0:20:STICKHIT.wav
448,192,9342,1,0,0:0:0:20:STICKHIT.wav
192,192,9523,1,0,0:0:0:15:HI-HAT.wav
448,192,9583,1,0,0:0:0:20:STICKHIT.wav
448,192,9824,1,0,0:0:0:20:STICKHIT.wav
192,192,10246,1,0,0:0:0:15:HI-HAT.wav
448,192,10306,1,0,0:0:0:20:STICKHIT.wav
448,192,10547,1,0,0:0:0:20:STICKHIT.wav
320,192,10969,128,0,11692:0:0:0:0:
64,192,11692,1,0,0:0:0:15:HI-HAT.wav
192,192,11692,128,0,14583:0:0:0:85:KICK.wav
448,192,11752,1,0,0:0:0:20:STICKHIT.wav
448,192,11993,1,0,0:0:0:20:STICKHIT.wav
448,192,12234,1,0,0:0:0:20:STICKHIT.wav
64,192,12415,1,0,0:0:0:15:HI-HAT.wav
448,192,12475,1,0,0:0:0:20:STICKHIT.wav
448,192,12716,1,0,0:0:0:20:STICKHIT.wav
64,192,13137,1,0,0:0:0:15:HI-HAT.wav
448,192,13198,1,0,0:0:0:20:STICKHIT.wav
448,192,13439,1,0,0:0:0:20:STICKHIT.wav
448,192,13680,1,0,0:0:0:20:STICKHIT.wav
64,192,13860,1,0,0:0:0:15:HI-HAT.wav
448,192,13921,1,0,0:0:0:20:STICKHIT.wav
448,192,14162,1,0,0:0:0:20:STICKHIT.wav
320,192,14583,128,0,16330:0:0:0:85:KICK.wav
64,192,14583,1,0,0:0:0:15:HI-HAT.wav
448,192,14643,1,0,0:0:0:20:STICKHIT.wav
448,192,14884,1,0,0:0:0:20:STICKHIT.wav
448,192,15125,1,0,0:0:0:20:STICKHIT.wav
64,192,15306,1,0,0:0:0:15:HI-HAT.wav
448,192,15366,1,0,0:0:0:20:STICKHIT.wav
448,192,15607,1,0,0:0:0:20:STICKHIT.wav
64,192,16029,1,0,0:0:0:15:HI-HAT.wav
448,192,16089,1,0,0:0:0:20:STICKHIT.wav
448,192,16330,1,0,0:0:0:20:STICKHIT.wav
192,192,16390,128,0,16692:0:0:0:0:
64,192,16390,128,0,16692:0:0:0:0:
448,192,16752,128,0,16993:0:0:0:0:
320,192,16752,128,0,16993:0:0:0:0:
448,192,17053,128,0,17294:0:0:0:0:
192,192,17053,128,0,17294:0:0:0:0:
64,192,17354,128,0,17475:0:0:0:0:
192,192,17354,128,0,17475:0:0:0:0:
320,192,17475,1,0,0:0:0:0:
448,192,17475,1,0,0:0:0:85:KICK.wav
192,192,17535,1,0,0:0:0:30:STICKHIT.wav
320,192,17588,1,0,0:0:0:0:
64,192,17655,1,0,0:0:0:0:
192,192,17716,1,0,0:0:0:0:
448,192,17746,1,0,0:0:0:30:STICKHIT.wav
64,192,17896,1,0,0:0:0:0:
448,192,17994,1,0,0:0:0:30:STICKHIT.wav
64,192,18137,1,0,0:0:0:0:
320,192,18198,1,0,0:0:0:15:HI-HAT.wav
448,192,18243,1,0,0:0:0:30:STICKHIT.wav
64,192,18378,1,0,0:0:0:0:
448,192,18499,1,0,0:0:0:30:STICKHIT.wav
64,192,18537,1,0,0:0:0:0:
320,192,18604,1,0,0:0:0:0:
192,192,18649,1,0,0:0:0:0:
64,192,18800,1,0,0:0:0:0:
192,192,18890,1,0,0:0:0:0:
320,192,18921,1,0,0:0:0:15:HI-HAT.wav
448,192,18981,1,0,0:0:0:30:STICKHIT.wav
64,192,19033,1,0,0:0:0:0:
320,192,19101,1,0,0:0:0:0:
192,192,19162,1,0,0:0:0:0:
448,192,19192,1,0,0:0:0:30:STICKHIT.wav
64,192,19342,1,0,0:0:0:0:
448,192,19440,1,0,0:0:0:30:STICKHIT.wav
64,192,19583,1,0,0:0:0:0:
320,192,19643,1,0,0:0:0:15:HI-HAT.wav
448,192,19689,1,0,0:0:0:30:STICKHIT.wav
64,192,19824,1,0,0:0:0:0:
448,192,19937,1,0,0:0:0:30:STICKHIT.wav
320,192,20050,1,0,0:0:0:0:
64,192,20366,1,0,0:0:0:0:
192,192,20366,1,0,0:0:0:85:KICK.wav
448,192,20427,1,0,0:0:0:30:STICKHIT.wav
320,192,20479,1,0,0:0:0:0:
64,192,20547,1,0,0:0:0:0:
192,192,20607,1,0,0:0:0:0:
448,192,20637,1,0,0:0:0:30:STICKHIT.wav
64,192,20788,1,0,0:0:0:0:
448,192,20886,1,0,0:0:0:30:STICKHIT.wav
64,192,21029,1,0,0:0:0:0:
320,192,21089,1,0,0:0:0:15:HI-HAT.wav
448,192,21134,1,0,0:0:0:30:STICKHIT.wav
64,192,21270,1,0,0:0:0:0:
448,192,21390,1,0,0:0:0:30:STICKHIT.wav
64,192,21428,1,0,0:0:0:0:
320,192,21481,1,0,0:0:0:0:
192,192,21541,1,0,0:0:0:0:
64,192,21692,1,0,0:0:0:0:
192,192,21782,1,0,0:0:0:0:
320,192,21812,1,0,0:0:0:15:HI-HAT.wav
448,192,21872,1,0,0:0:0:30:STICKHIT.wav
64,192,21925,1,0,0:0:0:0:
320,192,21993,1,0,0:0:0:0:
192,192,22053,1,0,0:0:0:0:
448,192,22083,1,0,0:0:0:30:STICKHIT.wav
64,192,22234,1,0,0:0:0:0:
320,192,22354,128,0,23258:0:0:0:0:
448,192,22535,1,0,0:0:0:15:HI-HAT.wav
192,192,23258,1,0,0:0:0:85:KICK.wav
64,192,23258,1,0,0:0:0:0:
448,192,23318,1,0,0:0:0:30:STICKHIT.wav
64,192,23371,1,0,0:0:0:0:
192,192,23439,1,0,0:0:0:0:
320,192,23499,1,0,0:0:0:0:
448,192,23529,1,0,0:0:0:30:STICKHIT.wav
64,192,23680,1,0,0:0:0:0:
448,192,23777,1,0,0:0:0:30:STICKHIT.wav
64,192,23921,1,0,0:0:0:0:
320,192,23981,1,0,0:0:0:15:HI-HAT.wav
448,192,24026,1,0,0:0:0:30:STICKHIT.wav
64,192,24162,1,0,0:0:0:0:
448,192,24274,1,0,0:0:0:30:STICKHIT.wav
64,192,24320,1,0,0:0:0:0:
320,192,24387,1,0,0:0:0:0:
192,192,24433,1,0,0:0:0:0:
64,192,24583,1,0,0:0:0:0:
192,192,24674,1,0,0:0:0:0:
320,192,24704,1,0,0:0:0:15:HI-HAT.wav
448,192,24764,1,0,0:0:0:30:STICKHIT.wav
64,192,24817,1,0,0:0:0:0:
320,192,24884,1,0,0:0:0:0:
192,192,24945,1,0,0:0:0:0:
448,192,24975,1,0,0:0:0:30:STICKHIT.wav
64,192,25125,1,0,0:0:0:0:
448,192,25223,1,0,0:0:0:30:STICKHIT.wav
64,192,25366,1,0,0:0:0:0:
320,192,25427,1,0,0:0:0:15:HI-HAT.wav
448,192,25472,1,0,0:0:0:30:STICKHIT.wav
64,192,25607,1,0,0:0:0:0:
448,192,25720,1,0,0:0:0:30:STICKHIT.wav
320,192,25833,1,0,0:0:0:0:
64,192,26149,1,0,0:0:0:0:
192,192,26149,1,0,0:0:0:85:KICK.wav
448,192,26210,1,0,0:0:0:30:STICKHIT.wav
320,192,26262,1,0,0:0:0:0:
64,192,26330,1,0,0:0:0:0:
192,192,26390,1,0,0:0:0:0:
448,192,26421,1,0,0:0:0:30:STICKHIT.wav
64,192,26571,1,0,0:0:0:0:
448,192,26669,1,0,0:0:0:30:STICKHIT.wav
64,192,26812,1,0,0:0:0:0:
320,192,26872,1,0,0:0:0:15:HI-HAT.wav
448,192,26918,1,0,0:0:0:30:STICKHIT.wav
64,192,27053,1,0,0:0:0:0:
448,192,27166,1,0,0:0:0:30:STICKHIT.wav
64,192,27211,1,0,0:0:0:0:
320,192,27279,1,0,0:0:0:0:
192,192,27324,1,0,0:0:0:0:
64,192,27475,1,0,0:0:0:0:
192,192,27565,1,0,0:0:0:0:
320,192,27595,1,0,0:0:0:15:HI-HAT.wav
448,192,27655,1,0,0:0:0:30:STICKHIT.wav
64,192,27708,1,0,0:0:0:0:
320,192,27776,1,0,0:0:0:0:
192,192,27821,1,0,0:0:0:0:
448,192,27866,1,0,0:0:0:30:STICKHIT.wav
64,192,27957,128,0,28198:0:0:0:0:
320,192,28002,1,0,0:0:0:0:
64,192,28318,128,0,28499:0:0:0:0:
64,192,28589,128,0,28860:0:0:0:0:
448,192,28860,128,0,28981:0:0:0:0:
192,192,29041,1,0,0:0:0:0:
320,192,29041,1,0,0:0:0:85:KICK.wav
64,192,29101,1,0,0:0:0:30:STICKHIT.wav
192,192,29342,128,0,31933:0:0:0:0:
64,192,29342,1,0,0:0:0:30:STICKHIT.wav
64,192,29583,1,0,0:0:0:30:STICKHIT.wav
64,192,29824,1,0,0:0:0:30:STICKHIT.wav
64,192,30065,1,0,0:0:0:30:STICKHIT.wav
448,192,30487,1,0,0:0:0:0:
320,192,30547,1,0,0:0:0:0:
448,192,30607,1,0,0:0:0:0:
320,192,30668,1,0,0:0:0:0:
448,192,30728,1,0,0:0:0:0:
320,192,30818,1,0,0:0:0:0:
448,192,30908,1,0,0:0:0:0:
320,192,30999,1,0,0:0:0:0:
448,192,31119,1,0,0:0:0:0:
320,192,31933,1,0,0:0:0:85:KICK.wav
448,192,31933,128,0,34824:0:0:0:0:
64,192,31933,128,0,31978:0:0:0:0:
320,192,32294,128,0,32339:0:0:0:0:
64,192,32565,128,0,32610:0:0:0:0:
320,192,33017,128,0,33062:0:0:0:0:
64,192,33288,128,0,33333:0:0:0:0:
192,192,34824,1,0,0:0:0:0:
320,192,34824,1,0,0:0:0:85:KICK.wav
64,192,34884,1,0,0:0:0:30:STICKHIT.wav
64,192,35125,1,0,0:0:0:30:STICKHIT.wav
448,192,35186,128,0,35231:0:0:0:0:
64,192,35366,1,0,0:0:0:30:STICKHIT.wav
192,192,35457,128,0,35502:0:0:0:0:
448,192,35547,1,0,0:0:0:0:
64,192,35607,1,0,0:0:0:30:STICKHIT.wav
320,192,35607,1,0,0:0:0:0:
448,192,35668,1,0,0:0:0:0:
320,192,35728,1,0,0:0:0:0:
448,192,35788,1,0,0:0:0:0:
64,192,35848,1,0,0:0:0:30:STICKHIT.wav
320,192,35878,1,0,0:0:0:0:
448,192,35969,1,0,0:0:0:0:
320,192,36059,1,0,0:0:0:0:
448,192,36180,1,0,0:0:0:0:
64,192,36330,1,0,0:0:0:30:STICKHIT.wav
64,192,36571,1,0,0:0:0:30:STICKHIT.wav
64,192,36812,1,0,0:0:0:30:STICKHIT.wav
64,192,37053,1,0,0:0:0:30:STICKHIT.wav
448,192,37234,128,0,37535:0:0:0:0:
320,192,37234,128,0,37294:0:0:0:0:
64,192,37294,1,0,0:0:0:30:STICKHIT.wav
192,192,37716,1,0,0:0:0:85:KICK.wav
448,192,37716,1,0,0:0:0:0:
320,192,37716,128,0,39523:0:0:0:0:
64,192,37776,1,0,0:0:0:30:STICKHIT.wav
64,192,38017,1,0,0:0:0:30:STICKHIT.wav
64,192,38258,1,0,0:0:0:30:STICKHIT.wav
64,192,38499,1,0,0:0:0:30:STICKHIT.wav
64,192,38740,1,0,0:0:0:30:STICKHIT.wav
64,192,39222,1,0,0:0:0:30:STICKHIT.wav
64,192,39463,1,0,0:0:0:30:STICKHIT.wav
320,192,40125,128,0,40306:0:0:0:0:
448,192,40306,128,0,40487:0:0:0:0:
64,192,40607,1,0,0:0:0:85:KICK.wav
192,192,40607,128,0,40848:0:0:0:0:
320,192,40607,128,0,43499:0:0:0:0:
448,192,40668,1,0,0:0:0:30:STICKHIT.wav
448,192,40908,1,0,0:0:0:30:STICKHIT.wav
64,192,40969,128,0,41029:0:0:0:0:
448,192,41149,1,0,0:0:0:30:STICKHIT.wav
192,192,41330,1,0,0:0:0:15:HI-HAT.wav
448,192,41390,1,0,0:0:0:30:STICKHIT.wav
64,192,41421,128,0,41511:0:0:0:0:
448,192,41631,1,0,0:0:0:30:STICKHIT.wav
448,192,42113,1,0,0:0:0:30:STICKHIT.wav
192,192,42174,128,0,42264:0:0:0:0:
448,192,42354,1,0,0:0:0:30:STICKHIT.wav
448,192,42595,1,0,0:0:0:30:STICKHIT.wav
192,192,42776,1,0,0:0:0:15:HI-HAT.wav
448,192,42836,1,0,0:0:0:30:STICKHIT.wav
64,192,42866,128,0,42927:0:0:0:0:
448,192,43077,1,0,0:0:0:30:STICKHIT.wav
64,192,43499,1,0,0:0:0:85:KICK.wav
192,192,43499,128,0,43740:0:0:0:0:
448,192,43559,1,0,0:0:0:30:STICKHIT.wav
320,192,43649,128,0,46390:0:0:0:0:
448,192,43800,1,0,0:0:0:30:STICKHIT.wav
448,192,44041,1,0,0:0:0:30:STICKHIT.wav
192,192,44222,1,0,0:0:0:15:HI-HAT.wav
448,192,44282,1,0,0:0:0:30:STICKHIT.wav
64,192,44312,128,0,44402:0:0:0:0:
448,192,44523,1,0,0:0:0:30:STICKHIT.wav
448,192,45005,1,0,0:0:0:30:STICKHIT.wav
192,192,45065,128,0,45125:0:0:0:0:
448,192,45246,1,0,0:0:0:30:STICKHIT.wav
448,192,45487,1,0,0:0:0:30:STICKHIT.wav
64,192,45487,128,0,45577:0:0:0:0:
192,192,45668,1,0,0:0:0:15:HI-HAT.wav
448,192,45728,1,0,0:0:0:30:STICKHIT.wav
448,192,45969,1,0,0:0:0:30:STICKHIT.wav
192,192,46390,1,0,0:0:0:85:KICK.wav
448,192,46390,1,0,0:0:0:0:
64,192,46390,1,0,0:0:0:0:
448,192,46752,1,0,0:0:0:0:
64,192,47023,1,0,0:0:0:0:
192,192,47113,1,0,0:0:0:0:
64,192,47234,1,0,0:0:0:0:
192,192,47354,1,0,0:0:0:0:
64,192,47445,1,0,0:0:0:0:
448,192,47475,1,0,0:0:0:0:
192,192,47535,1,0,0:0:0:0:
64,192,47746,1,0,0:0:0:0:
320,192,47746,1,0,0:0:0:0:
448,192,48198,1,0,0:0:0:0:
64,192,48469,1,0,0:0:0:0:
448,192,48921,1,0,0:0:0:0:
192,192,48921,128,0,52113:0:0:0:0:
64,192,49222,1,0,0:0:0:0:
320,192,49342,1,0,0:0:0:15:STICKHIT.wav
320,192,49583,1,0,0:0:0:15:STICKHIT.wav
448,192,49643,1,0,0:0:0:0:
320,192,49824,1,0,0:0:0:15:STICKHIT.wav
64,192,49945,1,0,0:0:0:0:
320,192,50065,1,0,0:0:0:15:STICKHIT.wav
448,192,50366,1,0,0:0:0:0:
64,192,50637,1,0,0:0:0:0:
320,192,50728,128,0,52113:0:0:0:0:
448,192,51089,1,0,0:0:0:0:
64,192,51390,1,0,0:0:0:0:
448,192,51812,1,0,0:0:0:0:
64,192,52113,1,0,0:0:0:0:
192,192,52174,1,0,0:0:0:0:
448,192,52174,128,0,52475:0:0:0:100:KICK.wav
320,192,52174,128,0,52475:0:0:0:0:
64,192,52475,1,0,0:0:0:0:
64,192,52716,1,0,0:0:0:0:
192,192,52716,1,0,0:0:0:85:KICK.wav
320,192,52806,1,0,0:0:0:0:
448,192,52866,1,0,0:0:0:95:METALHIT.wav
192,192,52927,128,0,53348:0:0:0:0:
448,192,53408,128,0,53830:0:0:0:0:
192,192,53619,1,0,0:0:0:0:
320,192,53665,1,0,0:0:0:0:
448,192,53890,128,0,54312:0:0:0:0:
320,192,53936,1,0,0:0:0:0:
192,192,53981,1,0,0:0:0:0:
64,192,53981,1,0,0:0:0:85:KICK.wav
192,192,54252,1,0,0:0:0:0:
64,192,54312,1,0,0:0:0:95:METALHIT.wav
448,192,54372,128,0,54794:0:0:0:0:
320,192,54854,128,0,55276:0:0:0:0:
448,192,55020,1,0,0:0:0:0:
192,192,55065,1,0,0:0:0:0:
64,192,55065,1,0,0:0:0:85:KICK.wav
192,192,55246,1,0,0:0:0:0:
320,192,55336,128,0,55758:0:0:0:0:
448,192,55396,1,0,0:0:0:0:
64,192,55607,1,0,0:0:0:85:KICK.wav
192,192,55607,1,0,0:0:0:0:
448,192,55698,1,0,0:0:0:0:
64,192,55758,1,0,0:0:0:95:METALHIT.wav
192,192,55788,1,0,0:0:0:0:
320,192,55818,128,0,56240:0:0:0:0:
192,192,56300,128,0,56722:0:0:0:0:
64,192,56466,1,0,0:0:0:0:
448,192,56556,1,0,0:0:0:85:KICK.wav
320,192,56556,1,0,0:0:0:0:
192,192,56782,128,0,57264:0:0:0:0:
448,192,56827,1,0,0:0:0:85:KICK.wav
320,192,56827,1,0,0:0:0:0:
320,192,57174,1,0,0:0:0:0:
448,192,57234,1,0,0:0:0:95:METALHIT.wav
64,192,57264,1,0,0:0:0:0:
320,192,57347,1,0,0:0:0:0:
64,192,57384,128,0,57595:0:0:0:0:
192,192,57437,1,0,0:0:0:0:
320,192,57527,1,0,0:0:0:0:
192,192,57618,1,0,0:0:0:0:
320,192,57708,1,0,0:0:0:0:
192,192,57799,1,0,0:0:0:0:
320,192,57889,1,0,0:0:0:0:
448,192,57957,1,0,0:0:0:85:KICK.wav
64,192,57957,1,0,0:0:0:0:
448,192,58318,128,0,58408:0:0:0:0:
192,192,58499,1,0,0:0:0:0:
64,192,58499,1,0,0:0:0:85:KICK.wav
64,192,58589,128,0,58680:0:0:0:0:
448,192,58589,1,0,0:0:0:0:
320,192,58649,1,0,0:0:0:95:METALHIT.wav
448,192,58770,1,0,0:0:0:0:
192,192,58860,1,0,0:0:0:0:
448,192,59041,128,0,59131:0:0:0:0:
192,192,59041,1,0,0:0:0:0:
192,192,59222,1,0,0:0:0:0:
64,192,59312,128,0,59402:0:0:0:0:
192,192,59402,1,0,0:0:0:0:
320,192,59402,1,0,0:0:0:85:KICK.wav
448,192,59493,1,0,0:0:0:0:
192,192,59719,1,0,0:0:0:0:
448,192,59764,128,0,59854:0:0:0:0:
192,192,60035,128,0,60125:0:0:0:0:
448,192,60035,1,0,0:0:0:0:
320,192,60095,1,0,0:0:0:95:METALHIT.wav
448,192,60216,1,0,0:0:0:0:
64,192,60276,1,0,0:0:0:0:
448,192,60487,128,0,60577:0:0:0:0:
64,192,60713,1,0,0:0:0:0:
192,192,60758,128,0,60848:0:0:0:0:
64,192,60848,1,0,0:0:0:0:
320,192,60848,1,0,0:0:0:85:KICK.wav
448,192,60939,1,0,0:0:0:0:
192,192,61029,1,0,0:0:0:0:
64,192,61180,1,0,0:0:0:0:
448,192,61210,128,0,61300:0:0:0:0:
192,192,61481,128,0,61571:0:0:0:0:
448,192,61481,1,0,0:0:0:0:
320,192,61541,1,0,0:0:0:95:METALHIT.wav
448,192,61662,1,0,0:0:0:0:
64,192,61752,1,0,0:0:0:0:
448,192,61933,128,0,62023:0:0:0:0:
64,192,61933,1,0,0:0:0:0:
64,192,62113,1,0,0:0:0:0:
320,192,62204,128,0,62294:0:0:0:0:
448,192,62249,1,0,0:0:0:0:
192,192,62339,1,0,0:0:0:0:
64,192,62339,1,0,0:0:0:85:KICK.wav
448,192,62384,1,0,0:0:0:0:
192,192,62610,1,0,0:0:0:0:
64,192,62610,1,0,0:0:0:85:KICK.wav
448,192,62655,128,0,62746:0:0:0:0:
320,192,62927,128,0,63017:0:0:0:0:
64,192,63017,128,0,63137:0:0:0:0:
448,192,63017,128,0,63107:0:0:0:0:
192,192,63137,1,0,0:0:0:0:
448,192,63198,128,0,63288:0:0:0:0:
320,192,63288,128,0,63378:0:0:0:0:
192,192,63288,128,0,63378:0:0:0:0:
64,192,63378,128,0,63439:0:0:0:0:
448,192,63439,128,0,63649:0:0:0:0:
64,192,63499,128,0,63589:0:0:0:0:
320,192,63649,128,0,63740:0:0:0:0:
448,192,63740,1,0,0:0:0:0:
64,192,63740,128,0,64011:0:0:0:85:KICK.wav
192,192,63740,128,0,63921:0:0:0:0:
320,192,63921,128,0,64011:0:0:0:0:
192,192,64011,128,0,64101:0:0:0:0:
448,192,64011,128,0,64402:0:0:0:0:
320,192,64101,128,0,64192:0:0:0:0:
192,192,64192,128,0,64282:0:0:0:0:
64,192,64282,128,0,64433:0:0:0:0:
320,192,64402,1,0,0:0:0:0:
448,192,64463,1,0,0:0:0:95:METALHIT.wav
64,192,64493,128,0,64915:0:0:0:0:
320,192,64689,1,0,0:0:0:0:
448,192,64945,1,0,0:0:0:0:
192,192,64975,128,0,65396:0:0:0:0:
64,192,65140,1,0,0:0:0:0:
448,192,65186,128,0,65396:0:0:0:85:KICK.wav
320,192,65186,128,0,65396:0:0:0:0:
64,192,65427,1,0,0:0:0:0:
192,192,65457,128,0,65878:0:0:0:0:
64,192,65668,1,0,0:0:0:0:
448,192,65818,1,0,0:0:0:0:
320,192,65878,1,0,0:0:0:95:METALHIT.wav
192,192,65939,128,0,66360:0:0:0:0:
448,192,66112,1,0,0:0:0:0:
448,192,66240,1,0,0:0:0:0:
448,192,66330,1,0,0:0:0:0:
64,192,66390,1,0,0:0:0:0:
320,192,66421,128,0,66842:0:0:0:0:
448,192,66421,1,0,0:0:0:0:
192,192,66511,1,0,0:0:0:0:
192,192,66631,128,0,66842:0:0:0:0:
64,192,66631,128,0,66842:0:0:0:85:KICK.wav
320,192,66902,128,0,67324:0:0:0:0:
192,192,66948,1,0,0:0:0:0:
448,192,67113,1,0,0:0:0:0:
192,192,67264,1,0,0:0:0:0:
64,192,67324,1,0,0:0:0:95:METALHIT.wav
320,192,67384,128,0,67806:0:0:0:0:
448,192,67580,1,0,0:0:0:0:
64,192,67836,1,0,0:0:0:0:
448,192,67866,128,0,68288:0:0:0:0:
320,192,68032,1,0,0:0:0:0:
64,192,68077,128,0,68288:0:0:0:85:KICK.wav
192,192,68077,128,0,68288:0:0:0:0:
320,192,68288,1,0,0:0:0:0:
448,192,68348,128,0,68770:0:0:0:0:
64,192,68393,1,0,0:0:0:85:KICK.wav
192,192,68393,1,0,0:0:0:0:
320,192,68559,1,0,0:0:0:0:
192,192,68740,1,0,0:0:0:0:
64,192,68800,1,0,0:0:0:95:METALHIT.wav
448,192,68830,128,0,68981:0:0:0:0:
320,192,68981,128,0,69071:0:0:0:0:
448,192,69071,128,0,69139:0:0:0:0:
320,192,69139,128,0,69207:0:0:0:0:
192,192,69207,128,0,69252:0:0:0:0:
64,192,69252,128,0,69342:0:0:0:0:
448,192,69312,128,0,69463:0:0:0:0:
192,192,69342,128,0,69433:0:0:0:0:
64,192,69433,128,0,69523:0:0:0:0:
192,192,69523,1,0,0:0:0:0:
320,192,69523,1,0,0:0:0:85:KICK.wav
448,192,69613,1,0,0:0:0:0:
448,192,69884,128,0,69975:0:0:0:0:
192,192,70065,1,0,0:0:0:0:
64,192,70065,1,0,0:0:0:85:KICK.wav
64,192,70155,128,0,70246:0:0:0:0:
448,192,70155,1,0,0:0:0:0:
320,192,70216,1,0,0:0:0:95:METALHIT.wav
448,192,70336,1,0,0:0:0:0:
192,192,70427,1,0,0:0:0:0:
448,192,70607,128,0,70698:0:0:0:0:
192,192,70607,1,0,0:0:0:0:
192,192,70788,1,0,0:0:0:0:
64,192,70878,128,0,70969:0:0:0:0:
320,192,71014,1,0,0:0:0:85:KICK.wav
192,192,71014,128,0,71149:0:0:0:0:
448,192,71059,1,0,0:0:0:0:
64,192,71285,1,0,0:0:0:0:
192,192,71285,1,0,0:0:0:85:KICK.wav
448,192,71330,128,0,71421:0:0:0:0:
192,192,71601,128,0,71692:0:0:0:0:
448,192,71601,1,0,0:0:0:0:
320,192,71662,1,0,0:0:0:95:METALHIT.wav
448,192,71782,1,0,0:0:0:0:
320,192,72053,128,0,72143:0:0:0:0:
192,192,72279,1,0,0:0:0:0:
64,192,72324,128,0,72415:0:0:0:0:
320,192,72415,1,0,0:0:0:85:KICK.wav
448,192,72415,128,0,72595:0:0:0:0:
192,192,72505,1,0,0:0:0:0:
64,192,72731,1,0,0:0:0:0:
320,192,72776,128,0,72866:0:0:0:0:
320,192,72957,1,0,0:0:0:0:
448,192,72957,1,0,0:0:0:85:KICK.wav
64,192,73047,128,0,73137:0:0:0:0:
192,192,73047,1,0,0:0:0:0:
320,192,73107,1,0,0:0:0:95:METALHIT.wav
448,192,73137,1,0,0:0:0:0:
192,192,73228,1,0,0:0:0:0:
64,192,73318,1,0,0:0:0:0:
320,192,73499,128,0,73589:0:0:0:0:
64,192,73499,1,0,0:0:0:0:
64,192,73680,1,0,0:0:0:0:
192,192,73770,128,0,73860:0:0:0:0:
448,192,73815,1,0,0:0:0:0:
320,192,73905,1,0,0:0:0:85:KICK.wav
64,192,73905,128,0,74086:0:0:0:0:
448,192,73951,1,0,0:0:0:0:
192,192,74177,1,0,0:0:0:85:KICK.wav
64,192,74177,1,0,0:0:0:0:
448,192,74222,128,0,74312:0:0:0:0:
320,192,74493,128,0,74583:0:0:0:0:
448,192,74583,128,0,74674:0:0:0:95:METALHIT.wav
64,192,74674,128,0,75216:0:0:0:0:
320,192,74794,128,0,74884:0:0:0:0:
320,192,74975,128,0,75035:0:0:0:0:
320,192,75216,128,0,75261:0:0:0:0:
192,192,75306,128,0,75758:0:0:0:0:
448,192,75306,128,0,75758:0:0:0:85:KICK.wav
320,192,75487,1,0,0:0:0:0:
64,192,75607,1,0,0:0:0:0:
448,192,75848,128,0,75999:0:0:0:0:
320,192,75848,128,0,75999:0:0:0:0:
192,192,75939,1,0,0:0:0:0:
64,192,75999,1,0,0:0:0:95:METALHIT.wav
320,192,76059,128,0,76119:0:0:0:0:
448,192,76541,128,0,76601:0:0:0:0:
320,192,76752,1,0,0:0:0:0:
64,192,76752,1,0,0:0:0:100:KICK.wav
192,192,76752,1,0,0:0:0:0:
448,192,76963,128,0,77083:0:0:0:0:
64,192,77083,1,0,0:0:0:0:
448,192,77143,128,0,77445:0:0:0:0:
64,192,77264,1,0,0:0:0:0:
320,192,77384,1,0,0:0:0:0:
64,192,77445,1,0,0:0:0:0:
192,192,77445,1,0,0:0:0:95:METALHIT.wav
448,192,77505,128,0,77625:0:0:0:0:
64,192,77625,1,0,0:0:0:0:
448,192,77686,128,0,77987:0:0:0:0:
64,192,77806,1,0,0:0:0:0:
64,192,77987,1,0,0:0:0:0:
448,192,78047,128,0,78168:0:0:0:0:
320,192,78168,1,0,0:0:0:0:
192,192,78198,128,0,78408:0:0:0:0:
64,192,78198,128,0,78408:0:0:0:85:KICK.wav
448,192,78228,128,0,78529:0:0:0:0:
320,192,78378,1,0,0:0:0:0:
64,192,78529,1,0,0:0:0:0:
448,192,78589,128,0,78710:0:0:0:0:
64,192,78710,1,0,0:0:0:0:
448,192,78770,128,0,79071:0:0:0:0:
320,192,78830,1,0,0:0:0:0:
192,192,78890,1,0,0:0:0:95:METALHIT.wav
64,192,78890,1,0,0:0:0:0:
64,192,79071,1,0,0:0:0:0:
448,192,79131,128,0,79252:0:0:0:0:
64,192,79252,1,0,0:0:0:0:
448,192,79312,128,0,79613:0:0:0:0:
64,192,79433,1,0,0:0:0:0:
320,192,79613,1,0,0:0:0:0:
64,192,79643,128,0,79854:0:0:0:85:KICK.wav
192,192,79643,128,0,79854:0:0:0:0:
448,192,79674,128,0,79794:0:0:0:0:
448,192,79854,128,0,80155:0:0:0:0:
192,192,79960,1,0,0:0:0:0:
64,192,79960,1,0,0:0:0:85:KICK.wav
192,192,80155,1,0,0:0:0:0:
448,192,80216,128,0,80336:0:0:0:0:
64,192,80276,1,0,0:0:0:0:
192,192,80336,1,0,0:0:0:0:
448,192,80396,128,0,80698:0:0:0:0:
320,192,80396,1,0,0:0:0:95:METALHIT.wav
64,192,80547,1,0,0:0:0:0:
64,192,80728,1,0,0:0:0:0:
448,192,80758,128,0,80908:0:0:0:0:
64,192,80908,1,0,0:0:0:0:
448,192,80969,128,0,81089:0:0:0:0:
64,192,81089,1,0,0:0:0:85:KICK.wav
192,192,81089,1,0,0:0:0:0:
320,192,81300,1,0,0:0:0:0:
448,192,81481,1,0,0:0:0:0:
192,192,81631,1,0,0:0:0:0:
64,192,81631,1,0,0:0:0:85:KICK.wav
64,192,81722,128,0,81812:0:0:0:0:
448,192,81722,1,0,0:0:0:0:
320,192,81782,1,0,0:0:0:95:METALHIT.wav
448,192,81902,1,0,0:0:0:0:
192,192,81993,1,0,0:0:0:0:
448,192,82174,128,0,82264:0:0:0:0:
192,192,82174,1,0,0:0:0:0:
192,192,82354,1,0,0:0:0:0:
64,192,82445,128,0,82535:0:0:0:0:
192,192,82535,1,0,0:0:0:0:
320,192,82535,1,0,0:0:0:85:KICK.wav
448,192,82625,1,0,0:0:0:0:
192,192,82851,1,0,0:0:0:0:
320,192,82851,1,0,0:0:0:85:KICK.wav
448,192,82896,128,0,82987:0:0:0:0:
64,192,83168,128,0,83258:0:0:0:0:
448,192,83168,1,0,0:0:0:0:
320,192,83228,1,0,0:0:0:95:METALHIT.wav
448,192,83348,1,0,0:0:0:0:
448,192,83619,128,0,83710:0:0:0:0:
64,192,83845,1,0,0:0:0:0:
192,192,83890,128,0,83981:0:0:0:0:
64,192,83981,1,0,0:0:0:85:KICK.wav
320,192,83981,1,0,0:0:0:0:
448,192,84071,1,0,0:0:0:0:
192,192,84162,1,0,0:0:0:0:
320,192,84274,1,0,0:0:0:0:
448,192,84342,128,0,84433:0:0:0:0:
64,192,84523,1,0,0:0:0:85:KICK.wav
192,192,84523,1,0,0:0:0:0:
448,192,84613,1,0,0:0:0:0:
192,192,84613,128,0,84704:0:0:0:0:
320,192,84674,1,0,0:0:0:95:METALHIT.wav
448,192,84794,1,0,0:0:0:0:
64,192,84884,1,0,0:0:0:0:
448,192,85065,128,0,85155:0:0:0:0:
64,192,85065,1,0,0:0:0:0:
64,192,85246,1,0,0:0:0:0:
192,192,85336,128,0,85427:0:0:0:0:
64,192,85427,1,0,0:0:0:85:KICK.wav
320,192,85427,1,0,0:0:0:0:
448,192,85517,1,0,0:0:0:0:
192,192,85743,1,0,0:0:0:0:
64,192,85743,1,0,0:0:0:85:KICK.wav
448,192,85788,128,0,85878:0:0:0:0:
192,192,86059,128,0,86149:0:0:0:0:
64,192,86149,128,0,87234:0:0:0:0:
448,192,86240,1,0,0:0:0:0:
448,192,86511,128,0,86601:0:0:0:0:
320,192,86782,128,0,86872:0:0:0:0:
448,192,86963,1,0,0:0:0:0:
448,192,87234,128,0,87324:0:0:0:0:
192,192,87234,128,0,87324:0:0:0:0:
320,192,87415,1,0,0:0:0:0:
448,192,87505,128,0,87595:0:0:0:0:
192,192,87595,128,0,87746:0:0:0:0:
320,192,87595,128,0,87686:0:0:0:95:METALHIT.wav
64,192,87844,128,0,87934:0:0:0:0:
64,192,88047,128,0,88168:0:0:0:0:
320,192,88318,1,0,0:0:0:0:
64,192,88318,1,0,0:0:0:100:KICK.wav
192,192,88318,1,0,0:0:0:0:
192,192,88529,128,0,89192:0:0:0:0:
64,192,88649,1,0,0:0:0:0:
64,192,88830,1,0,0:0:0:0:
320,192,88951,1,0,0:0:0:0:
64,192,89011,1,0,0:0:0:0:
448,192,89011,1,0,0:0:0:95:METALHIT.wav
64,192,89192,1,0,0:0:0:0:
320,192,89252,128,0,89734:0:0:0:0:
64,192,89372,1,0,0:0:0:0:
64,192,89553,1,0,0:0:0:0:
448,192,89734,1,0,0:0:0:0:
192,192,89764,128,0,89975:0:0:0:0:
64,192,89764,128,0,89975:0:0:0:85:KICK.wav
320,192,89794,128,0,90276:0:0:0:0:
448,192,89945,1,0,0:0:0:0:
64,192,90095,1,0,0:0:0:0:
64,192,90276,1,0,0:0:0:0:
320,192,90336,128,0,90788:0:0:0:0:
192,192,90396,1,0,0:0:0:0:
448,192,90457,1,0,0:0:0:95:METALHIT.wav
64,192,90457,1,0,0:0:0:0:
64,192,90637,1,0,0:0:0:0:
64,192,90818,1,0,0:0:0:0:
320,192,90848,128,0,91180:0:0:0:0:
64,192,90999,1,0,0:0:0:0:
448,192,91180,1,0,0:0:0:0:
64,192,91210,128,0,91421:0:0:0:85:KICK.wav
192,192,91210,128,0,91421:0:0:0:0:
320,192,91240,128,0,91722:0:0:0:0:
448,192,91421,1,0,0:0:0:0:
192,192,91526,1,0,0:0:0:0:
64,192,91526,1,0,0:0:0:85:KICK.wav
192,192,91722,1,0,0:0:0:0:
448,192,91782,128,0,91902:0:0:0:0:
64,192,91842,1,0,0:0:0:0:
192,192,91902,1,0,0:0:0:0:
448,192,91963,128,0,92083:0:0:0:0:
320,192,91963,1,0,0:0:0:95:METALHIT.wav
64,192,92113,1,0,0:0:0:0:
448,192,92143,128,0,92264:0:0:0:0:
64,192,92294,1,0,0:0:0:0:
448,192,92324,128,0,92445:0:0:0:0:
64,192,92475,1,0,0:0:0:0:
448,192,92505,128,0,92625:0:0:0:0:
192,192,92655,1,0,0:0:0:0:
64,192,92655,1,0,0:0:0:85:KICK.wav
320,192,92655,128,0,92746:0:0:0:0:
448,192,92746,1,0,0:0:0:0:
192,192,92866,1,0,0:0:0:0:
320,192,93047,1,0,0:0:0:0:
192,192,93198,1,0,0:0:0:0:
64,192,93198,1,0,0:0:0:85:KICK.wav
64,192,93288,128,0,93378:0:0:0:0:
448,192,93288,1,0,0:0:0:0:
320,192,93348,1,0,0:0:0:95:METALHIT.wav
448,192,93469,1,0,0:0:0:0:
192,192,93559,1,0,0:0:0:0:
448,192,93740,128,0,93830:0:0:0:0:
192,192,93740,1,0,0:0:0:0:
192,192,93921,1,0,0:0:0:0:
64,192,94011,128,0,94101:0:0:0:0:
192,192,94101,1,0,0:0:0:0:
320,192,94101,1,0,0:0:0:85:KICK.wav
448,192,94192,1,0,0:0:0:0:
64,192,94418,1,0,0:0:0:0:
192,192,94418,1,0,0:0:0:85:KICK.wav
448,192,94463,128,0,94553:0:0:0:0:
192,192,94734,128,0,94824:0:0:0:0:
448,192,94734,1,0,0:0:0:0:
320,192,94794,1,0,0:0:0:95:METALHIT.wav
448,192,94915,1,0,0:0:0:0:
448,192,95186,128,0,95276:0:0:0:0:
64,192,95412,1,0,0:0:0:0:
192,192,95457,128,0,95547:0:0:0:0:
64,192,95547,1,0,0:0:0:85:KICK.wav
320,192,95547,1,0,0:0:0:0:
448,192,95637,1,0,0:0:0:0:
448,192,95908,128,0,95999:0:0:0:0:
320,192,96180,128,0,96270:0:0:0:0:
192,192,96180,1,0,0:0:0:0:
64,192,96240,1,0,0:0:0:95:METALHIT.wav
448,192,96360,1,0,0:0:0:0:
448,192,96631,128,0,96722:0:0:0:0:
64,192,96631,1,0,0:0:0:85:KICK.wav
192,192,96631,1,0,0:0:0:0:
320,192,96902,128,0,96993:0:0:0:0:
64,192,96993,1,0,0:0:0:85:KICK.wav
192,192,96993,128,0,97445:0:0:0:0:
448,192,97083,1,0,0:0:0:0:
448,192,97354,128,0,97445:0:0:0:0:
320,192,97625,128,0,97716:0:0:0:0:
448,192,97716,1,0,0:0:0:0:
64,192,97716,128,0,98439:0:0:0:0:
192,192,97829,1,0,0:0:0:0:
448,192,97919,1,0,0:0:0:0:
192,192,98009,1,0,0:0:0:0:
448,192,98100,128,0,98348:0:0:0:0:
320,192,98348,1,0,0:0:0:0:
192,192,98439,128,0,98484:0:0:0:0:
320,192,98687,128,0,98732:0:0:0:0:
448,192,98868,128,0,98913:0:0:0:0:
448,192,99071,1,0,0:0:0:0:
320,192,99131,1,0,0:0:0:95:METALHIT.wav
448,192,99229,128,0,99274:0:0:0:0:
320,192,99410,128,0,99455:0:0:0:0:
320,192,99591,128,0,99636:0:0:0:0:
448,192,99884,1,0,0:0:0:100:KICK.wav
192,192,99884,128,0,99930:0:0:0:0:
64,192,99884,1,0,0:0:0:0:
320,192,99884,1,0,0:0:0:0:
192,192,100088,1,0,0:0:0:0:
320,192,100133,128,0,100178:0:0:0:0:
64,192,100216,1,0,0:0:0:0:
448,192,100314,128,0,100359:0:0:0:0:
64,192,100396,1,0,0:0:0:0:
448,192,100517,1,0,0:0:0:0:
64,192,100577,1,0,0:0:0:0:
320,192,100577,1,0,0:0:0:95:METALHIT.wav
448,192,100675,128,0,100720:0:0:0:0:
64,192,100758,1,0,0:0:0:0:
320,192,100856,128,0,100901:0:0:0:0:
64,192,100939,1,0,0:0:0:0:
320,192,101037,128,0,101082:0:0:0:0:
64,192,101119,1,0,0:0:0:0:
64,192,101300,1,0,0:0:0:0:
320,192,101330,1,0,0:0:0:0:
448,192,101330,1,0,0:0:0:85:KICK.wav
192,192,101330,128,0,101375:0:0:0:0:
64,192,101481,1,0,0:0:0:0:
320,192,101579,128,0,101624:0:0:0:0:
64,192,101662,1,0,0:0:0:0:
448,192,101759,128,0,101805:0:0:0:0:
64,192,101842,1,0,0:0:0:0:
448,192,101963,1,0,0:0:0:0:
320,192,102023,1,0,0:0:0:95:METALHIT.wav
192,192,102053,1,0,0:0:0:0:
448,192,102121,128,0,102166:0:0:0:0:
64,192,102204,1,0,0:0:0:0:
320,192,102302,128,0,102347:0:0:0:0:
64,192,102384,1,0,0:0:0:0:
320,192,102482,128,0,102527:0:0:0:0:
64,192,102565,1,0,0:0:0:0:
64,192,102746,1,0,0:0:0:0:
192,192,102776,128,0,102821:0:0:0:0:
448,192,102776,1,0,0:0:0:85:KICK.wav
320,192,102776,128,0,102821:0:0:0:0:
64,192,102957,1,0,0:0:0:0:
320,192,103024,128,0,103070:0:0:0:0:
448,192,103024,128,0,103070:0:0:0:0:
192,192,103092,1,0,0:0:0:0:
64,192,103092,1,0,0:0:0:85:KICK.wav
320,192,103205,128,0,103250:0:0:0:0:
448,192,103205,128,0,103250:0:0:0:0:
64,192,103288,1,0,0:0:0:0:
448,192,103408,1,0,0:0:0:0:
320,192,103469,1,0,0:0:0:95:METALHIT.wav
192,192,103544,1,0,0:0:0:0:
320,192,103567,128,0,103612:0:0:0:0:
448,192,103567,128,0,103612:0:0:0:0:
64,192,103710,1,0,0:0:0:0:
320,192,103747,128,0,103793:0:0:0:0:
448,192,103747,128,0,103793:0:0:0:0:
64,192,103860,1,0,0:0:0:0:
192,192,103928,128,0,103973:0:0:0:0:
320,192,103928,128,0,103973:0:0:0:0:
64,192,104041,1,0,0:0:0:0:
192,192,104222,1,0,0:0:0:0:
320,192,104222,1,0,0:0:0:85:KICK.wav
64,192,104222,128,0,104945:0:0:0:0:
448,192,104734,1,0,0:0:0:60:STICKHIT.wav
192,192,104945,128,0,105555:0:0:0:0:
448,192,104945,128,0,105005:0:0:0:0:
64,192,105005,128,0,105065:0:0:0:0:
320,192,105058,1,0,0:0:0:0:
448,192,105103,1,0,0:0:0:0:
320,192,105148,128,0,105555:0:0:0:0:
64,192,105238,128,0,105283:0:0:0:0:
64,192,105374,128,0,105464:0:0:0:0:
448,192,105555,128,0,105668:0:0:0:0:
320,192,105622,128,0,105668:0:0:0:0:
192,192,105668,128,0,105713:0:0:0:0:
64,192,105668,128,0,105713:0:0:0:85:KICK.wav
64,192,105848,1,0,0:0:0:0:
320,192,105916,128,0,105961:0:0:0:0:
448,192,105916,128,0,105961:0:0:0:0:
192,192,105984,1,0,0:0:0:0:
64,192,105984,1,0,0:0:0:85:KICK.wav
320,192,106097,128,0,106142:0:0:0:0:
448,192,106097,128,0,106142:0:0:0:0:
192,192,106300,1,0,0:0:0:0:
64,192,106360,1,0,0:0:0:95:METALHIT.wav
192,192,106436,1,0,0:0:0:0:
320,192,106458,128,0,106503:0:0:0:0:
448,192,106458,128,0,106503:0:0:0:0:
64,192,106601,1,0,0:0:0:0:
320,192,106639,128,0,106684:0:0:0:0:
448,192,106639,128,0,106684:0:0:0:0:
64,192,106752,1,0,0:0:0:0:
192,192,106820,128,0,106865:0:0:0:0:
320,192,106820,128,0,106865:0:0:0:0:
64,192,106933,1,0,0:0:0:0:
448,192,107113,1,0,0:0:0:85:KICK.wav
192,192,107113,128,0,107158:0:0:0:0:
320,192,107113,1,0,0:0:0:0:
64,192,107294,1,0,0:0:0:0:
320,192,107362,128,0,107407:0:0:0:0:
64,192,107430,1,0,0:0:0:85:KICK.wav
192,192,107430,1,0,0:0:0:0:
448,192,107543,128,0,107588:0:0:0:0:
64,192,107625,1,0,0:0:0:0:
448,192,107746,1,0,0:0:0:0:
320,192,107806,1,0,0:0:0:95:METALHIT.wav
192,192,107881,1,0,0:0:0:0:
448,192,107904,128,0,107949:0:0:0:0:
64,192,108047,1,0,0:0:0:0:
320,192,108085,128,0,108130:0:0:0:0:
64,192,108198,1,0,0:0:0:0:
320,192,108265,128,0,108311:0:0:0:0:
64,192,108378,1,0,0:0:0:0:
448,192,108559,1,0,0:0:0:85:KICK.wav
192,192,108559,128,0,109252:0:0:0:0:
320,192,108559,128,0,109252:0:0:0:0:
64,192,109312,128,0,109372:0:0:0:0:
192,192,109312,128,0,109372:0:0:0:0:
64,192,109433,128,0,109493:0:0:0:0:
320,192,109433,128,0,109493:0:0:0:0:
192,192,109553,128,0,109613:0:0:0:0:
320,192,109553,128,0,109613:0:0:0:0:
320,192,109674,128,0,109734:0:0:0:0:
448,192,109674,128,0,109734:0:0:0:0:
320,192,109794,128,0,109854:0:0:0:0:
448,192,109794,128,0,109854:0:0:0:0:
320,192,109915,128,0,109975:0:0:0:0:
448,192,109915,128,0,109975:0:0:0:0:
192,192,110005,128,0,110637:0:0:0:0:
448,192,110050,1,0,0:0:0:40:STICKHIT.wav
64,192,110396,128,0,111390:0:0:0:0:
448,192,110524,1,0,0:0:0:40:STICKHIT.wav
320,192,110637,1,0,0:0:0:0:
448,192,110698,128,0,111390:0:0:0:95:METALHIT.wav
192,192,110698,128,0,111390:0:0:0:0:
448,192,111451,1,0,0:0:0:100:KICK.wav
192,192,111451,1,0,0:0:0:0:
320,192,111451,1,0,0:0:0:0:
64,192,111451,128,0,111496:0:0:0:0:
320,192,111654,1,0,0:0:0:0:
192,192,111699,128,0,111744:0:0:0:0:
64,192,111782,1,0,0:0:0:0:
320,192,111880,128,0,111925:0:0:0:0:
64,192,111963,1,0,0:0:0:0:
320,192,112083,1,0,0:0:0:0:
64,192,112143,1,0,0:0:0:0:
448,192,112143,1,0,0:0:0:95:METALHIT.wav
320,192,112241,128,0,112287:0:0:0:0:
64,192,112324,1,0,0:0:0:0:
320,192,112422,128,0,112467:0:0:0:0:
64,192,112505,1,0,0:0:0:0:
192,192,112603,128,0,112648:0:0:0:0:
64,192,112686,1,0,0:0:0:0:
64,192,112866,1,0,0:0:0:0:
320,192,112896,1,0,0:0:0:0:
448,192,112896,1,0,0:0:0:85:KICK.wav
192,192,112896,128,0,112942:0:0:0:0:
64,192,113047,1,0,0:0:0:0:
320,192,113145,128,0,113190:0:0:0:0:
64,192,113228,1,0,0:0:0:0:
448,192,113326,128,0,113371:0:0:0:0:
64,192,113408,1,0,0:0:0:0:
448,192,113529,1,0,0:0:0:0:
320,192,113589,1,0,0:0:0:95:METALHIT.wav
192,192,113619,1,0,0:0:0:0:
448,192,113687,128,0,113732:0:0:0:0:
64,192,113770,1,0,0:0:0:0:
320,192,113868,128,0,113913:0:0:0:0:
64,192,113951,1,0,0:0:0:0:
320,192,114049,128,0,114094:0:0:0:0:
64,192,114131,1,0,0:0:0:0:
64,192,114312,1,0,0:0:0:0:
192,192,114342,128,0,114387:0:0:0:0:
448,192,114342,1,0,0:0:0:85:KICK.wav
320,192,114342,128,0,114387:0:0:0:0:
64,192,114523,1,0,0:0:0:0:
320,192,114591,128,0,114636:0:0:0:0:
448,192,114591,128,0,114636:0:0:0:0:
192,192,114658,1,0,0:0:0:0:
64,192,114658,1,0,0:0:0:85:KICK.wav
320,192,114771,128,0,114817:0:0:0:0:
448,192,114771,128,0,114817:0:0:0:0:
64,192,114854,1,0,0:0:0:0:
448,192,114975,1,0,0:0:0:0:
320,192,115035,1,0,0:0:0:95:METALHIT.wav
192,192,115110,1,0,0:0:0:0:
320,192,115133,128,0,115178:0:0:0:0:
448,192,115133,128,0,115178:0:0:0:0:
64,192,115276,1,0,0:0:0:0:
320,192,115314,128,0,115359:0:0:0:0:
448,192,115314,128,0,115359:0:0:0:0:
64,192,115457,1,0,0:0:0:0:
192,192,115494,128,0,115540:0:0:0:0:
320,192,115494,128,0,115540:0:0:0:0:
64,192,115637,1,0,0:0:0:0:
192,192,115788,128,0,115969:0:0:0:0:
448,192,115788,128,0,115969:0:0:0:0:
320,192,115788,1,0,0:0:0:85:KICK.wav
64,192,116059,1,0,0:0:0:0:
320,192,116104,128,0,116511:0:0:0:0:
448,192,116511,1,0,0:0:0:70:METALHIT.wav
448,192,116782,128,0,116872:0:0:0:0:
320,192,116985,1,0,0:0:0:0:
192,192,117053,128,0,117143:0:0:0:0:
448,192,117234,1,0,0:0:0:0:
64,192,117234,128,0,117445:0:0:0:85:KICK.wav
192,192,117234,128,0,117445:0:0:0:0:
448,192,117505,128,0,117595:0:0:0:0:
192,192,117550,1,0,0:0:0:0:
320,192,117708,1,0,0:0:0:0:
192,192,117776,128,0,117866:0:0:0:0:
320,192,117957,1,0,0:0:0:70:METALHIT.wav
64,192,118160,1,0,0:0:0:0:
320,192,118228,128,0,118318:0:0:0:0:
448,192,118318,1,0,0:0:0:0:
448,192,118408,1,0,0:0:0:0:
192,192,118499,128,0,118589:0:0:0:0:
448,192,118499,1,0,0:0:0:0:
320,192,118589,128,0,118680:0:0:0:0:
64,192,118680,128,0,118890:0:0:0:85:KICK.wav
192,192,118680,128,0,118890:0:0:0:0:
448,192,118680,1,0,0:0:0:0:
320,192,118951,128,0,119041:0:0:0:0:
192,192,118996,1,0,0:0:0:0:
448,192,119154,1,0,0:0:0:0:
64,192,119222,128,0,119312:0:0:0:0:
320,192,119402,1,0,0:0:0:35:METALHIT.wav
320,192,119674,128,0,119764:0:0:0:0:
448,192,119877,1,0,0:0:0:0:
192,192,119945,128,0,120035:0:0:0:0:
64,192,120125,128,0,120336:0:0:0:0:
448,192,120238,1,0,0:0:0:0:
320,192,120396,128,0,120487:0:0:0:0:
64,192,120668,128,0,120758:0:0:0:0:
192,192,120826,1,0,0:0:0:0:
320,192,120893,1,0,0:0:0:0:
448,192,120939,128,0,121571:0:0:0:0:
64,192,121119,128,0,121571:0:0:0:0:
320,192,121616,1,0,0:0:0:0:
64,192,121662,1,0,0:0:0:0:
448,192,121872,1,0,0:0:0:0:
320,192,121933,128,0,124523:0:0:0:0:
64,192,121978,1,0,0:0:0:0:
192,192,122204,128,0,122264:0:0:0:0:
64,192,122354,1,0,0:0:0:0:
448,192,122475,128,0,122595:0:0:0:0:
64,192,122836,128,0,122987:0:0:0:0:
64,192,124523,1,0,0:0:0:0:
448,192,124523,1,0,0:0:0:0:
192,192,124576,1,0,0:0:0:0:
448,192,124756,1,0,0:0:0:0:
64,192,124802,1,0,0:0:0:0:
320,192,124869,1,0,0:0:0:0:
64,192,125186,1,0,0:0:0:0:
448,192,125231,1,0,0:0:0:0:
320,192,125231,1,0,0:0:0:0:
192,192,125299,1,0,0:0:0:0:
64,192,125389,1,0,0:0:0:0:
192,192,125457,1,0,0:0:0:0:
448,192,125502,1,0,0:0:0:0:
320,192,125547,1,0,0:0:0:0:
64,192,125908,128,0,127354:0:0:0:0:
448,192,126571,128,0,126872:0:0:0:0:
192,192,127415,1,0,0:0:0:0:
448,192,127415,1,0,0:0:0:0:
320,192,127467,1,0,0:0:0:0:
448,192,127648,1,0,0:0:0:0:
64,192,127693,1,0,0:0:0:0:
192,192,127761,1,0,0:0:0:0:
320,192,128077,1,0,0:0:0:0:
448,192,128122,1,0,0:0:0:0:
192,192,128190,1,0,0:0:0:0:
64,192,128258,128,0,128348:0:0:0:0:
448,192,128348,1,0,0:0:0:0:
192,192,128393,1,0,0:0:0:0:
320,192,128439,1,0,0:0:0:0:
192,192,128619,128,0,128755:0:0:0:0:
448,192,128800,128,0,130306:0:0:0:0:
320,192,130306,1,0,0:0:0:0:
64,192,130306,1,0,0:0:0:0:
192,192,130359,1,0,0:0:0:0:
448,192,130540,1,0,0:0:0:0:
64,192,130585,1,0,0:0:0:0:
320,192,130652,1,0,0:0:0:0:
448,192,130969,1,0,0:0:0:0:
64,192,131014,1,0,0:0:0:0:
192,192,131014,1,0,0:0:0:0:
320,192,131082,1,0,0:0:0:0:
64,192,131149,1,0,0:0:0:0:
192,192,131217,1,0,0:0:0:0:
448,192,131285,1,0,0:0:0:0:
320,192,131330,1,0,0:0:0:0:
192,192,131466,128,0,133137:0:0:0:0:
64,192,133137,1,0,0:0:0:0:
448,192,133137,1,0,0:0:0:85:KICK.wav
320,192,133137,1,0,0:0:0:0:
64,192,133258,1,0,0:0:0:0:
192,192,133378,1,0,0:0:0:0:
320,192,133378,1,0,0:0:0:0:
64,192,133439,1,0,0:0:0:30:STICKHIT.wav
448,192,133499,1,0,0:0:0:0:
448,192,133619,1,0,0:0:0:0:
192,192,133680,1,0,0:0:0:30:STICKHIT.wav
320,192,133740,1,0,0:0:0:0:
192,192,133860,1,0,0:0:0:15:HI-HAT.wav
64,192,133860,1,0,0:0:0:0:
320,192,133921,1,0,0:0:0:30:STICKHIT.wav
64,192,133981,1,0,0:0:0:0:
448,192,134041,128,0,134162:0:0:0:0:
192,192,134101,1,0,0:0:0:0:
64,192,134162,1,0,0:0:0:30:STICKHIT.wav
320,192,134222,1,0,0:0:0:0:
320,192,134342,1,0,0:0:0:0:
192,192,134402,128,0,134523:0:0:0:0:
64,192,134583,1,0,0:0:0:15:HI-HAT.wav
448,192,134583,128,0,134643:0:0:0:0:
320,192,134643,1,0,0:0:0:30:STICKHIT.wav
64,192,134704,1,0,0:0:0:0:
320,192,134824,128,0,134884:0:0:0:0:
192,192,134824,1,0,0:0:0:0:
64,192,134884,1,0,0:0:0:30:STICKHIT.wav
448,192,134945,1,0,0:0:0:0:
192,192,135065,128,0,135125:0:0:0:0:
320,192,135065,1,0,0:0:0:0:
64,192,135125,1,0,0:0:0:30:STICKHIT.wav
448,192,135186,1,0,0:0:0:0:
320,192,135306,1,0,0:0:0:15:HI-HAT.wav
64,192,135306,128,0,135366:0:0:0:0:
448,192,135366,1,0,0:0:0:30:STICKHIT.wav
320,192,135427,1,0,0:0:0:0:
64,192,135547,1,0,0:0:0:0:
320,192,135607,1,0,0:0:0:30:STICKHIT.wav
64,192,135668,1,0,0:0:0:0:
64,192,136029,1,0,0:0:0:85:KICK.wav
320,192,136029,128,0,136089:0:0:0:0:
64,192,136149,1,0,0:0:0:0:
448,192,136270,128,0,136330:0:0:0:0:
192,192,136270,1,0,0:0:0:0:
64,192,136330,1,0,0:0:0:30:STICKHIT.wav
320,192,136390,1,0,0:0:0:0:
192,192,136511,128,0,136571:0:0:0:0:
320,192,136511,1,0,0:0:0:0:
64,192,136571,1,0,0:0:0:30:STICKHIT.wav
448,192,136631,1,0,0:0:0:0:
192,192,136752,1,0,0:0:0:15:HI-HAT.wav
64,192,136752,128,0,136812:0:0:0:0:
320,192,136812,1,0,0:0:0:30:STICKHIT.wav
448,192,136872,1,0,0:0:0:0:
448,192,136993,1,0,0:0:0:0:
64,192,137053,1,0,0:0:0:30:STICKHIT.wav
320,192,137113,1,0,0:0:0:0:
320,192,137234,1,0,0:0:0:0:
192,192,137354,1,0,0:0:0:0:
64,192,137475,1,0,0:0:0:15:HI-HAT.wav
448,192,137475,128,0,137535:0:0:0:0:
320,192,137535,1,0,0:0:0:30:STICKHIT.wav
64,192,137595,1,0,0:0:0:0:
320,192,137716,128,0,137776:0:0:0:0:
448,192,137716,1,0,0:0:0:0:
64,192,137776,1,0,0:0:0:30:STICKHIT.wav
448,192,137836,1,0,0:0:0:0:
64,192,137957,128,0,138017:0:0:0:0:
192,192,137957,1,0,0:0:0:0:
320,192,138017,1,0,0:0:0:30:STICKHIT.wav
448,192,138198,1,0,0:0:0:15:HI-HAT.wav
192,192,138198,128,0,138258:0:0:0:0:
64,192,138258,1,0,0:0:0:30:STICKHIT.wav
320,192,138408,1,0,0:0:0:0:
64,192,138469,1,0,0:0:0:30:STICKHIT.wav
320,192,138921,1,0,0:0:0:0:
448,192,138921,1,0,0:0:0:85:KICK.wav
192,192,139011,1,0,0:0:0:0:
64,192,139101,1,0,0:0:0:0:
192,192,139162,1,0,0:0:0:0:
448,192,139192,1,0,0:0:0:30:STICKHIT.wav
64,192,139342,1,0,0:0:0:0:
448,192,139440,1,0,0:0:0:30:STICKHIT.wav
64,192,139583,1,0,0:0:0:0:
320,192,139643,1,0,0:0:0:15:HI-HAT.wav
448,192,139689,1,0,0:0:0:30:STICKHIT.wav
64,192,139824,1,0,0:0:0:0:
448,192,139937,1,0,0:0:0:30:STICKHIT.wav
320,192,140050,1,0,0:0:0:0:
192,192,140095,1,0,0:0:0:0:
64,192,140246,1,0,0:0:0:0:
192,192,140321,1,0,0:0:0:0:
320,192,140366,128,0,140427:0:0:0:0:
448,192,140366,1,0,0:0:0:15:HI-HAT.wav
320,192,140547,1,0,0:0:0:0:
192,192,140607,1,0,0:0:0:30:STICKHIT.wav
448,192,140607,128,0,140668:0:0:0:0:
64,192,140788,1,0,0:0:0:0:
192,192,140848,128,0,140908:0:0:0:0:
448,192,140886,1,0,0:0:0:30:STICKHIT.wav
192,192,141029,1,0,0:0:0:0:
320,192,141089,1,0,0:0:0:15:HI-HAT.wav
64,192,141089,128,0,141149:0:0:0:0:
448,192,141149,1,0,0:0:0:30:STICKHIT.wav
64,192,141270,1,0,0:0:0:0:
448,192,141383,1,0,0:0:0:30:STICKHIT.wav
320,192,141511,1,0,0:0:0:0:
320,192,141812,1,0,0:0:0:0:
448,192,141812,1,0,0:0:0:85:KICK.wav
192,192,141902,1,0,0:0:0:0:
64,192,141993,1,0,0:0:0:0:
192,192,142053,1,0,0:0:0:0:
448,192,142083,1,0,0:0:0:40:STICKHIT.wav
64,192,142234,1,0,0:0:0:0:
448,192,142332,1,0,0:0:0:40:STICKHIT.wav
64,192,142475,1,0,0:0:0:0:
320,192,142535,1,0,0:0:0:15:HI-HAT.wav
448,192,142580,1,0,0:0:0:40:STICKHIT.wav
64,192,142716,1,0,0:0:0:0:
448,192,142829,1,0,0:0:0:40:STICKHIT.wav
320,192,142942,1,0,0:0:0:0:
64,192,143137,1,0,0:0:0:0:
192,192,143228,1,0,0:0:0:0:
320,192,143258,1,0,0:0:0:15:HI-HAT.wav
448,192,143258,128,0,144342:0:0:0:0:
320,192,143439,1,0,0:0:0:0:
192,192,143499,1,0,0:0:0:0:
64,192,143680,1,0,0:0:0:0:
64,192,143921,1,0,0:0:0:0:
64,192,144162,1,0,0:0:0:0:
64,192,144704,128,0,145065:0:0:0:50:KICK.wav
192,192,144704,128,0,145065:0:0:0:0:
320,192,144704,128,0,145065:0:0:0:0:
448,192,144704,128,0,145065:0:0:0:50:KICK.wav
192,192,145133,1,0,0:0:0:30:CLINK.wav
64,192,145186,1,0,0:0:0:0:
192,192,145336,1,0,0:0:0:0:
320,192,145427,1,0,0:0:0:0:
64,192,145427,1,0,0:0:0:0:
448,192,145427,128,0,145547:0:0:0:0:
320,192,145698,1,0,0:0:0:0:
64,192,145788,1,0,0:0:0:0:
192,192,145788,1,0,0:0:0:85:KICK.wav
320,192,145788,128,0,145969:0:0:0:0:
320,192,146059,1,0,0:0:0:0:
64,192,146149,128,0,146812:0:0:0:0:
192,192,146149,1,0,0:0:0:85:KICK.wav
448,192,146149,1,0,0:0:0:0:
320,192,146812,1,0,0:0:0:0:
64,192,146872,128,0,147535:0:0:0:0:
192,192,146872,1,0,0:0:0:100:CLAP.wav
448,192,146993,1,0,0:0:0:0:
320,192,147113,1,0,0:0:0:0:
64,192,147595,128,0,148258:0:0:0:0:
192,192,147595,1,0,0:0:0:85:KICK.wav
448,192,147595,1,0,0:0:0:0:
320,192,148047,1,0,0:0:0:0:
192,192,148047,1,0,0:0:0:30:CLINK.wav
320,192,148258,1,0,0:0:0:0:
64,192,148318,128,0,148981:0:0:0:0:
192,192,148318,1,0,0:0:0:100:CLAP.wav
448,192,148439,1,0,0:0:0:0:
192,192,148559,1,0,0:0:0:0:
320,192,148680,1,0,0:0:0:85:KICK.wav
448,192,148680,1,0,0:0:0:0:
192,192,148951,1,0,0:0:0:0:
448,192,149041,128,0,149704:0:0:0:0:
320,192,149041,1,0,0:0:0:85:KICK.wav
64,192,149041,1,0,0:0:0:0:
192,192,149312,1,0,0:0:0:0:
64,192,149463,1,0,0:0:0:30:CLINK.wav
192,192,149463,1,0,0:0:0:0:
320,192,149553,1,0,0:0:0:0:
192,192,149704,1,0,0:0:0:0:
320,192,149764,1,0,0:0:0:100:CLAP.wav
448,192,149764,128,0,150427:0:0:0:0:
64,192,149884,1,0,0:0:0:0:
320,192,150035,1,0,0:0:0:0:
64,192,150155,1,0,0:0:0:30:CLINK.wav
192,192,150186,1,0,0:0:0:0:
192,192,150487,1,0,0:0:0:85:KICK.wav
64,192,150487,128,0,151149:0:0:0:0:
448,192,150487,1,0,0:0:0:0:
320,192,150728,1,0,0:0:0:0:
448,192,150908,1,0,0:0:0:30:CLINK.wav
192,192,150908,1,0,0:0:0:0:
320,192,150969,1,0,0:0:0:0:
448,192,151149,1,0,0:0:0:0:
64,192,151210,128,0,151872:0:0:0:0:
320,192,151210,128,0,151511:0:0:0:0:
192,192,151210,1,0,0:0:0:100:CLAP.wav
192,192,151571,1,0,0:0:0:30:CLINK.wav
448,192,151571,128,0,151872:0:0:0:0:
320,192,151571,1,0,0:0:0:85:KICK.wav
320,192,151933,1,0,0:0:0:85:KICK.wav
64,192,151933,128,0,152595:0:0:0:0:
448,192,151933,1,0,0:0:0:0:
320,192,152354,1,0,0:0:0:30:CLINK.wav
192,192,152354,1,0,0:0:0:0:
448,192,152415,1,0,0:0:0:0:
320,192,152595,1,0,0:0:0:0:
64,192,152655,128,0,153318:0:0:0:0:
192,192,152655,1,0,0:0:0:100:CLAP.wav
448,192,152776,1,0,0:0:0:0:
320,192,152836,1,0,0:0:0:0:
192,192,152927,1,0,0:0:0:0:
448,192,153047,1,0,0:0:0:30:CLINK.wav
320,192,153047,1,0,0:0:0:0:
192,192,153137,1,0,0:0:0:0:
448,192,153265,1,0,0:0:0:0:
192,192,153378,1,0,0:0:0:85:KICK.wav
64,192,153378,128,0,154041:0:0:0:0:
320,192,153378,128,0,154041:0:0:0:0:
448,192,153800,1,0,0:0:0:30:CLINK.wav
64,192,154101,128,0,154764:0:0:0:0:
192,192,154101,1,0,0:0:0:100:CLAP.wav
320,192,154101,128,0,154764:0:0:0:0:
192,192,154463,1,0,0:0:0:85:KICK.wav
448,192,154463,1,0,0:0:0:0:
320,192,154824,128,0,154915:0:0:0:0:
192,192,154824,128,0,155547:0:0:0:0:
448,192,154915,128,0,155005:0:0:0:0:
64,192,155005,1,0,0:0:0:0:
320,192,155140,1,0,0:0:0:0:
64,192,155246,1,0,0:0:0:0:
448,192,155336,1,0,0:0:0:0:
320,192,155427,1,0,0:0:0:0:
64,192,155547,1,0,0:0:0:0:
320,192,155637,1,0,0:0:0:0:
192,192,155705,1,0,0:0:0:0:
448,192,155773,1,0,0:0:0:0:
192,192,155841,1,0,0:0:0:0:
320,192,155908,1,0,0:0:0:0:
448,192,155969,1,0,0:0:0:0:
64,192,155999,1,0,0:0:0:0:
192,192,156029,1,0,0:0:0:0:
320,192,156059,1,0,0:0:0:0:
448,192,156089,128,0,156270:0:0:0:0:
64,192,156270,128,0,156631:0:0:0:85:KICK.wav
192,192,156270,128,0,156631:0:0:0:0:
320,192,156360,128,0,156481:0:0:0:0:
448,192,156722,128,0,156812:0:0:0:0:
320,192,156933,128,0,157023:0:0:0:0:
64,192,156993,1,0,0:0:0:0:
192,192,157083,128,0,157354:0:0:0:0:
320,192,157354,128,0,157535:0:0:0:0:
64,192,157716,1,0,0:0:0:0:
320,192,157716,1,0,0:0:0:85:KICK.wav
448,192,157716,128,0,158378:0:0:0:0:
192,192,157942,1,0,0:0:0:0:
320,192,158047,1,0,0:0:0:0:
192,192,158137,1,0,0:0:0:30:CLINK.wav
64,192,158198,1,0,0:0:0:0:
64,192,158378,1,0,0:0:0:0:
448,192,158439,128,0,159101:0:0:0:0:
320,192,158439,1,0,0:0:0:100:CLAP.wav
192,192,158574,1,0,0:0:0:0:
64,192,158680,1,0,0:0:0:0:
192,192,158830,1,0,0:0:0:30:CLINK.wav
320,192,158890,1,0,0:0:0:0:
320,192,159162,1,0,0:0:0:85:KICK.wav
448,192,159162,128,0,159824:0:0:0:0:
64,192,159162,1,0,0:0:0:0:
192,192,159546,1,0,0:0:0:30:CLINK.wav
64,192,159583,1,0,0:0:0:0:
64,192,159824,1,0,0:0:0:0:
448,192,159884,128,0,160547:0:0:0:0:
320,192,159884,1,0,0:0:0:100:CLAP.wav
192,192,159884,1,0,0:0:0:0:
64,192,160005,1,0,0:0:0:0:
192,192,160125,1,0,0:0:0:0:
192,192,160246,1,0,0:0:0:0:
320,192,160246,128,0,160547:0:0:0:85:KICK.wav
192,192,160366,1,0,0:0:0:0:
192,192,160607,1,0,0:0:0:85:KICK.wav
64,192,160607,128,0,161270:0:0:0:0:
448,192,160607,1,0,0:0:0:0:
448,192,160833,1,0,0:0:0:0:
192,192,160969,1,0,0:0:0:0:
320,192,161029,1,0,0:0:0:30:CLINK.wav
448,192,161089,1,0,0:0:0:0:
320,192,161270,1,0,0:0:0:0:
64,192,161330,128,0,161993:0:0:0:0:
192,192,161330,1,0,0:0:0:100:CLAP.wav
448,192,161466,1,0,0:0:0:0:
192,192,161571,1,0,0:0:0:0:
320,192,161722,1,0,0:0:0:30:CLINK.wav
448,192,161782,1,0,0:0:0:0:
192,192,162053,1,0,0:0:0:85:KICK.wav
320,192,162053,128,0,162716:0:0:0:0:
64,192,162053,1,0,0:0:0:0:
64,192,162445,1,0,0:0:0:0:
448,192,162475,1,0,0:0:0:30:CLINK.wav
64,192,162716,1,0,0:0:0:0:
320,192,162776,128,0,163077:0:0:0:0:
192,192,162776,1,0,0:0:0:100:CLAP.wav
448,192,162987,1,0,0:0:0:0:
192,192,163137,1,0,0:0:0:85:KICK.wav
320,192,163137,128,0,163439:0:0:0:0:
64,192,163137,1,0,0:0:0:0:
192,192,163348,1,0,0:0:0:0:
320,192,163499,1,0,0:0:0:85:KICK.wav
448,192,163499,128,0,164162:0:0:0:0:
64,192,163499,1,0,0:0:0:0:
64,192,163710,1,0,0:0:0:0:
320,192,163860,1,0,0:0:0:0:
192,192,163921,1,0,0:0:0:30:CLINK.wav
64,192,163981,1,0,0:0:0:0:
192,192,164162,1,0,0:0:0:0:
448,192,164222,128,0,164884:0:0:0:0:
320,192,164222,1,0,0:0:0:100:CLAP.wav
192,192,164357,1,0,0:0:0:0:
64,192,164463,1,0,0:0:0:0:
192,192,164613,1,0,0:0:0:30:CLINK.wav
320,192,164674,1,0,0:0:0:0:
320,192,164945,1,0,0:0:0:85:KICK.wav
448,192,164945,128,0,165607:0:0:0:0:
64,192,164945,1,0,0:0:0:0:
192,192,165336,1,0,0:0:0:0:
64,192,165366,1,0,0:0:0:30:CLINK.wav
192,192,165607,1,0,0:0:0:0:
448,192,165668,128,0,165969:0:0:0:0:
320,192,165668,1,0,0:0:0:100:CLAP.wav
64,192,165878,1,0,0:0:0:0:
320,192,166029,1,0,0:0:0:85:KICK.wav
448,192,166029,128,0,166330:0:0:0:0:
192,192,166029,1,0,0:0:0:0:
64,192,166240,1,0,0:0:0:0:
192,192,166390,1,0,0:0:0:85:KICK.wav
64,192,166390,128,0,167053:0:0:0:0:
448,192,166390,1,0,0:0:0:0:
448,192,166601,1,0,0:0:0:0:
192,192,166752,1,0,0:0:0:0:
320,192,166812,1,0,0:0:0:30:CLINK.wav
448,192,166872,1,0,0:0:0:0:
64,192,167113,1,0,0:0:0:0:
192,192,167113,1,0,0:0:0:0:
448,192,167113,1,0,0:0:0:0:
320,192,167264,1,0,0:0:0:0:
448,192,167264,1,0,0:0:0:0:
64,192,167384,1,0,0:0:0:0:
320,192,167384,1,0,0:0:0:0:
448,192,167475,128,0,167776:0:0:0:0:
192,192,167475,1,0,0:0:0:0:
64,192,167836,128,0,168137:0:0:0:50:KICK.wav
192,192,167836,128,0,168137:0:0:0:0:
320,192,167836,128,0,168137:0:0:0:0:
448,192,167836,128,0,168137:0:0:0:50:KICK.wav
64,192,168198,128,0,168499:0:0:0:50:KICK.wav
192,192,168198,128,0,168499:0:0:0:0:
448,192,168198,128,0,168499:0:0:0:50:KICK.wav
320,192,168198,128,0,168499:0:0:0:0:
320,192,168559,1,0,0:0:0:0:
448,192,168559,1,0,0:0:0:100:CLAP.wav
192,192,168830,1,0,0:0:0:0:
192,192,168921,128,0,169192:0:0:0:0:
448,192,168921,128,0,169192:0:0:0:0:
320,192,168921,1,0,0:0:0:85:KICK.wav
64,192,169192,1,0,0:0:0:0:
320,192,169282,128,0,169689:0:0:0:0:
192,192,169282,1,0,0:0:0:0:
448,192,169282,1,0,0:0:0:85:KICK.wav
192,192,169493,1,0,0:0:0:0:
64,192,169689,1,0,0:0:0:30:CLINK.wav
320,192,169779,128,0,169915:0:0:0:0:
320,192,170005,128,0,170321:0:0:0:0:
448,192,170005,1,0,0:0:0:100:CLAP.wav
64,192,170140,1,0,0:0:0:0:
192,192,170276,1,0,0:0:0:0:
320,192,170412,128,0,170637:0:0:0:0:
64,192,170412,1,0,0:0:0:30:CLINK.wav
320,192,170728,128,0,171089:0:0:0:0:
64,192,170728,1,0,0:0:0:0:
192,192,170728,1,0,0:0:0:85:KICK.wav
320,192,171180,128,0,171360:0:0:0:0:
192,192,171180,1,0,0:0:0:30:CLINK.wav
320,192,171451,128,0,171722:0:0:0:0:
448,192,171451,1,0,0:0:0:100:CLAP.wav
192,192,171662,1,0,0:0:0:0:
320,192,171812,128,0,172083:0:0:0:0:
64,192,171812,1,0,0:0:0:0:
192,192,171812,1,0,0:0:0:85:KICK.wav
192,192,172023,1,0,0:0:0:0:
64,192,172174,128,0,172806:0:0:0:0:
320,192,172174,1,0,0:0:0:85:KICK.wav
448,192,172174,1,0,0:0:0:0:
192,192,172384,1,0,0:0:0:0:
320,192,172580,1,0,0:0:0:30:CLINK.wav
64,192,172896,128,0,173529:0:0:0:0:
192,192,172896,1,0,0:0:0:100:CLAP.wav
320,192,173032,1,0,0:0:0:0:
448,192,173168,1,0,0:0:0:0:
320,192,173303,1,0,0:0:0:30:CLINK.wav
192,192,173619,128,0,173755:0:0:0:0:
320,192,173619,1,0,0:0:0:85:KICK.wav
448,192,173619,1,0,0:0:0:0:
192,192,173845,128,0,173936:0:0:0:0:
448,192,173981,1,0,0:0:0:0:
192,192,174026,128,0,174116:0:0:0:0:
192,192,174207,128,0,174297:0:0:0:0:
448,192,174342,1,0,0:0:0:100:CLAP.wav
64,192,174342,1,0,0:0:0:0:
64,192,174463,1,0,0:0:0:0:
320,192,174553,1,0,0:0:0:0:
64,192,174583,1,0,0:0:0:0:
192,192,174674,1,0,0:0:0:0:
320,192,174704,128,0,174975:0:0:0:0:
448,192,174704,1,0,0:0:0:85:KICK.wav
64,192,174764,1,0,0:0:0:0:
320,192,175065,128,0,175472:0:0:0:0:
64,192,175065,1,0,0:0:0:85:KICK.wav
192,192,175065,1,0,0:0:0:0:
64,192,175276,1,0,0:0:0:0:
192,192,175472,1,0,0:0:0:30:CLINK.wav
320,192,175562,128,0,175698:0:0:0:0:
448,192,175652,128,0,175788:0:0:0:0:
320,192,175788,128,0,176104:0:0:0:0:
64,192,175788,1,0,0:0:0:100:CLAP.wav
192,192,175788,128,0,175924:0:0:0:0:
192,192,176029,1,0,0:0:0:0:
320,192,176195,128,0,176421:0:0:0:0:
448,192,176195,1,0,0:0:0:30:CLINK.wav
64,192,176195,128,0,176375:0:0:0:0:
192,192,176375,128,0,176511:0:0:0:0:
448,192,176511,128,0,176872:0:0:0:0:
64,192,176511,1,0,0:0:0:0:
320,192,176511,1,0,0:0:0:85:KICK.wav
192,192,176902,1,0,0:0:0:0:
448,192,176963,128,0,177143:0:0:0:0:
64,192,176963,1,0,0:0:0:30:CLINK.wav
448,192,177234,128,0,177505:0:0:0:0:
320,192,177234,1,0,0:0:0:100:CLAP.wav
64,192,177324,1,0,0:0:0:0:
192,192,177415,1,0,0:0:0:0:
192,192,177565,1,0,0:0:0:0:
448,192,177595,128,0,177866:0:0:0:85:KICK.wav
64,192,177655,128,0,177957:0:0:0:0:
192,192,177957,128,0,178589:0:0:0:0:
320,192,177957,1,0,0:0:0:85:KICK.wav
448,192,177957,1,0,0:0:0:0:
448,192,178168,1,0,0:0:0:0:
320,192,178363,1,0,0:0:0:30:CLINK.wav
192,192,178680,128,0,179312:0:0:0:0:
64,192,178680,1,0,0:0:0:100:CLAP.wav
448,192,178815,1,0,0:0:0:0:
64,192,178951,1,0,0:0:0:0:
320,192,179086,1,0,0:0:0:30:CLINK.wav
320,192,179402,1,0,0:0:0:0:
448,192,179402,1,0,0:0:0:85:KICK.wav
64,192,179493,128,0,179583:0:0:0:0:
64,192,179674,128,0,179734:0:0:0:0:
320,192,179764,1,0,0:0:0:0:
448,192,179764,1,0,0:0:0:85:KICK.wav
192,192,179824,128,0,179915:0:0:0:0:
320,192,180005,128,0,180125:0:0:0:0:
64,192,180125,1,0,0:0:0:100:CLAP.wav
192,192,180125,1,0,0:0:0:0:
320,192,180216,128,0,180396:0:0:0:0:
320,192,180487,128,0,180758:0:0:0:0:
448,192,180487,128,0,180758:0:0:0:0:
64,192,180487,128,0,180668:0:0:0:0:
192,192,180487,1,0,0:0:0:85:KICK.wav
320,192,180848,128,0,181255:0:0:0:0:
448,192,180848,128,0,181255:0:0:0:0:
64,192,180848,1,0,0:0:0:0:
192,192,180848,1,0,0:0:0:85:KICK.wav
64,192,181059,1,0,0:0:0:0:
192,192,181255,1,0,0:0:0:30:CLINK.wav
320,192,181345,128,0,181481:0:0:0:0:
448,192,181345,128,0,181481:0:0:0:0:
320,192,181571,128,0,181887:0:0:0:0:
448,192,181571,128,0,181887:0:0:0:0:
64,192,181571,1,0,0:0:0:100:CLAP.wav
192,192,181707,1,0,0:0:0:0:
64,192,181842,1,0,0:0:0:0:
320,192,181978,128,0,182204:0:0:0:0:
448,192,181978,128,0,182204:0:0:0:0:
192,192,181978,1,0,0:0:0:30:CLINK.wav
448,192,182294,128,0,182610:0:0:0:0:
320,192,182294,128,0,182610:0:0:0:0:
64,192,182294,1,0,0:0:0:0:
192,192,182294,1,0,0:0:0:85:KICK.wav
448,192,182746,128,0,182927:0:0:0:0:
320,192,182746,128,0,182927:0:0:0:0:
64,192,182746,1,0,0:0:0:30:CLINK.wav
448,192,183017,128,0,183288:0:0:0:0:
320,192,183017,128,0,183288:0:0:0:0:
192,192,183017,1,0,0:0:0:100:CLAP.wav
64,192,183198,1,0,0:0:0:0:
448,192,183378,128,0,183649:0:0:0:0:
320,192,183378,128,0,183649:0:0:0:0:
64,192,183378,1,0,0:0:0:0:
192,192,183378,1,0,0:0:0:85:KICK.wav
192,192,183559,1,0,0:0:0:0:
192,192,183740,128,0,184372:0:0:0:0:
64,192,183740,128,0,184372:0:0:0:0:
320,192,183740,1,0,0:0:0:85:KICK.wav
448,192,183740,1,0,0:0:0:0:
448,192,183951,1,0,0:0:0:0:
320,192,184146,1,0,0:0:0:30:CLINK.wav
192,192,184463,128,0,185095:0:0:0:0:
64,192,184463,128,0,185095:0:0:0:0:
448,192,184463,1,0,0:0:0:100:CLAP.wav
320,192,184598,1,0,0:0:0:0:
448,192,184734,1,0,0:0:0:0:
320,192,184869,1,0,0:0:0:30:CLINK.wav
320,192,185186,128,0,185321:0:0:0:0:
448,192,185186,1,0,0:0:0:85:KICK.wav
64,192,185186,1,0,0:0:0:0:
320,192,185412,128,0,185502:0:0:0:0:
192,192,185547,1,0,0:0:0:0:
320,192,185592,128,0,185683:0:0:0:0:
320,192,185773,128,0,185863:0:0:0:0:
64,192,185886,1,0,0:0:0:100:CLAP.wav
448,192,185886,1,0,0:0:0:0:
192,192,186089,1,0,0:0:0:0:
192,192,186270,128,0,186541:0:0:0:0:
320,192,186270,1,0,0:0:0:85:KICK.wav
448,192,186270,1,0,0:0:0:0:
64,192,186481,1,0,0:0:0:0:
192,192,186631,128,0,187038:0:0:0:0:
320,192,186631,1,0,0:0:0:85:KICK.wav
448,192,186631,1,0,0:0:0:0:
448,192,186842,1,0,0:0:0:0:
320,192,187038,1,0,0:0:0:30:CLINK.wav
192,192,187128,128,0,187264:0:0:0:0:
192,192,187354,128,0,187671:0:0:0:0:
64,192,187354,1,0,0:0:0:100:CLAP.wav
320,192,187490,1,0,0:0:0:0:
448,192,187625,1,0,0:0:0:0:
192,192,187761,128,0,187987:0:0:0:0:
320,192,187761,1,0,0:0:0:30:CLINK.wav
64,192,188077,128,0,188439:0:0:0:0:
320,192,188077,1,0,0:0:0:85:KICK.wav
448,192,188077,1,0,0:0:0:0:
64,192,188529,128,0,188710:0:0:0:0:
448,192,188529,1,0,0:0:0:30:CLINK.wav
64,192,188800,128,0,189071:0:0:0:0:
192,192,188800,1,0,0:0:0:100:CLAP.wav
320,192,188981,1,0,0:0:0:0:
64,192,189162,128,0,189433:0:0:0:0:
320,192,189162,1,0,0:0:0:85:KICK.wav
448,192,189162,1,0,0:0:0:0:
448,192,189372,1,0,0:0:0:0:
320,192,189523,128,0,190155:0:0:0:0:
192,192,189523,1,0,0:0:0:85:KICK.wav
64,192,189523,1,0,0:0:0:0:
448,192,189734,1,0,0:0:0:0:
192,192,189930,1,0,0:0:0:30:CLINK.wav
320,192,190246,128,0,190878:0:0:0:0:
448,192,190246,1,0,0:0:0:100:CLAP.wav
192,192,190381,1,0,0:0:0:0:
64,192,190517,1,0,0:0:0:0:
192,192,190652,1,0,0:0:0:30:CLINK.wav
64,192,190969,128,0,191270:0:0:0:85:KICK.wav
192,192,190969,128,0,191270:0:0:0:0:
320,192,190969,128,0,191270:0:0:0:0:
448,192,191210,128,0,191270:0:0:0:0:
64,192,191330,128,0,191631:0:0:0:85:KICK.wav
192,192,191330,128,0,191631:0:0:0:0:
448,192,191330,128,0,191631:0:0:0:0:
320,192,191451,128,0,191511:0:0:0:0:
320,192,191692,1,0,0:0:0:0:
448,192,191692,1,0,0:0:0:100:CLAP.wav
192,192,191692,128,0,191752:0:0:0:0:
192,192,192053,128,0,192324:0:0:0:0:
448,192,192053,128,0,192324:0:0:0:0:
64,192,192053,1,0,0:0:0:85:KICK.wav
320,192,192415,128,0,192821:0:0:0:0:
64,192,192415,1,0,0:0:0:85:KICK.wav
448,192,192415,128,0,192475:0:0:0:0:
192,192,192655,128,0,192716:0:0:0:0:
64,192,192896,128,0,192957:0:0:0:0:
320,192,192912,128,0,193047:0:0:0:0:
320,192,193137,128,0,193454:0:0:0:0:
448,192,193137,1,0,0:0:0:100:CLAP.wav
192,192,193137,128,0,193198:0:0:0:0:
64,192,193378,128,0,193439:0:0:0:0:
320,192,193544,128,0,193770:0:0:0:0:
448,192,193619,128,0,193680:0:0:0:0:
320,192,193860,128,0,194222:0:0:0:0:
64,192,193860,1,0,0:0:0:85:KICK.wav
192,192,193860,128,0,193921:0:0:0:0:
448,192,194101,128,0,194162:0:0:0:0:
320,192,194312,128,0,194493:0:0:0:0:
64,192,194342,128,0,194402:0:0:0:0:
320,192,194583,128,0,194854:0:0:0:0:
192,192,194583,128,0,194643:0:0:0:0:
448,192,194583,1,0,0:0:0:100:CLAP.wav
64,192,194824,128,0,194884:0:0:0:0:
320,192,194945,128,0,195216:0:0:0:0:
192,192,194945,1,0,0:0:0:85:KICK.wav
64,192,194945,1,0,0:0:0:0:
448,192,195065,128,0,195125:0:0:0:0:
64,192,195306,128,0,195939:0:0:0:0:
448,192,195306,1,0,0:0:0:85:KICK.wav
320,192,195306,128,0,195366:0:0:0:0:
192,192,195547,128,0,195607:0:0:0:0:
448,192,195788,128,0,195848:0:0:0:0:
64,192,196029,128,0,196662:0:0:0:0:
192,192,196029,1,0,0:0:0:100:CLAP.wav
320,192,196029,128,0,196089:0:0:0:0:
192,192,196270,128,0,196330:0:0:0:0:
448,192,196511,128,0,196571:0:0:0:0:
192,192,196752,128,0,196887:0:0:0:0:
320,192,196752,1,0,0:0:0:85:KICK.wav
448,192,196752,1,0,0:0:0:0:
192,192,196978,128,0,197068:0:0:0:0:
192,192,197158,128,0,197249:0:0:0:0:
192,192,197339,128,0,197430:0:0:0:0:
448,192,197475,1,0,0:0:0:100:CLAP.wav
64,192,197475,1,0,0:0:0:0:
320,192,197836,128,0,198107:0:0:0:0:
64,192,197836,1,0,0:0:0:0:
192,192,197836,1,0,0:0:0:85:KICK.wav
320,192,198198,128,0,198604:0:0:0:0:
64,192,198198,1,0,0:0:0:0:
192,192,198198,1,0,0:0:0:85:KICK.wav
64,192,198439,128,0,198499:0:0:0:0:
192,192,198680,128,0,198740:0:0:0:0:
320,192,198695,128,0,198830:0:0:0:0:
320,192,198921,128,0,199237:0:0:0:0:
64,192,198921,1,0,0:0:0:100:CLAP.wav
448,192,198921,128,0,198981:0:0:0:0:
192,192,199162,128,0,199222:0:0:0:0:
320,192,199327,128,0,199553:0:0:0:0:
64,192,199402,128,0,199463:0:0:0:0:
448,192,199643,128,0,200005:0:0:0:0:
64,192,199643,1,0,0:0:0:85:KICK.wav
192,192,199643,128,0,199704:0:0:0:0:
320,192,199884,128,0,199945:0:0:0:0:
448,192,200095,128,0,200276:0:0:0:0:
192,192,200125,128,0,200186:0:0:0:0:
448,192,200366,128,0,200637:0:0:0:0:
64,192,200366,128,0,200427:0:0:0:0:
192,192,200366,1,0,0:0:0:100:CLAP.wav
320,192,200547,128,0,200607:0:0:0:0:
448,192,200728,128,0,200999:0:0:0:0:
320,192,200728,1,0,0:0:0:85:KICK.wav
64,192,200728,128,0,200848:0:0:0:0:
192,192,200848,128,0,200908:0:0:0:0:
192,192,201089,128,0,201722:0:0:0:0:
320,192,201089,1,0,0:0:0:85:KICK.wav
448,192,201089,128,0,201149:0:0:0:0:
64,192,201330,128,0,201390:0:0:0:0:
320,192,201571,128,0,201631:0:0:0:0:
192,192,201812,128,0,202445:0:0:0:0:
448,192,201812,1,0,0:0:0:100:CLAP.wav
64,192,202535,1,0,0:0:0:0:
192,192,202535,1,0,0:0:0:85:KICK.wav
320,192,202686,128,0,202746:0:0:0:0:
320,192,202806,128,0,202866:0:0:0:0:
320,192,202927,128,0,202987:0:0:0:0:
320,192,203047,128,0,203107:0:0:0:0:
320,192,203168,128,0,203228:0:0:0:0:
448,192,203258,1,0,0:0:0:0:
64,192,203258,1,0,0:0:0:100:CLAP.wav
320,192,203619,128,0,203890:0:0:0:0:
448,192,203619,128,0,203890:0:0:0:0:
192,192,203619,1,0,0:0:0:85:KICK.wav
64,192,203619,1,0,0:0:0:0:
320,192,203981,128,0,204387:0:0:0:0:
448,192,203981,128,0,204387:0:0:0:0:
192,192,203981,1,0,0:0:0:85:KICK.wav
64,192,203981,128,0,204041:0:0:0:0:
192,192,204222,128,0,204282:0:0:0:0:
192,192,204463,128,0,204523:0:0:0:0:
320,192,204478,128,0,204613:0:0:0:0:
448,192,204478,128,0,204613:0:0:0:0:
320,192,204704,128,0,205020:0:0:0:0:
448,192,204704,128,0,205020:0:0:0:0:
64,192,204704,128,0,204764:0:0:0:100:CLAP.wav
320,192,205110,128,0,205336:0:0:0:0:
448,192,205110,128,0,205336:0:0:0:0:
448,192,205427,128,0,205788:0:0:0:0:
320,192,205427,128,0,205788:0:0:0:0:
192,192,205427,1,0,0:0:0:85:KICK.wav
64,192,205427,128,0,205487:0:0:0:0:
192,192,205668,128,0,205728:0:0:0:0:
448,192,205878,128,0,206059:0:0:0:0:
320,192,205878,128,0,206059:0:0:0:0:
192,192,205908,128,0,205969:0:0:0:0:
448,192,206149,128,0,206421:0:0:0:0:
320,192,206149,128,0,206421:0:0:0:0:
64,192,206149,128,0,206210:0:0:0:100:CLAP.wav
448,192,206511,128,0,206782:0:0:0:0:
320,192,206511,128,0,206782:0:0:0:0:
64,192,206511,1,0,0:0:0:0:
192,192,206511,1,0,0:0:0:85:KICK.wav
192,192,206872,128,0,207505:0:0:0:0:
64,192,206872,128,0,207505:0:0:0:0:
320,192,206872,1,0,0:0:0:85:KICK.wav
448,192,206872,128,0,206933:0:0:0:0:
320,192,207113,128,0,207174:0:0:0:0:
448,192,207354,128,0,207415:0:0:0:0:
192,192,207595,128,0,208228:0:0:0:0:
64,192,207595,128,0,208228:0:0:0:0:
320,192,207595,128,0,207655:0:0:0:100:CLAP.wav
320,192,208318,128,0,208454:0:0:0:0:
448,192,208318,1,0,0:0:0:0:
64,192,208318,1,0,0:0:0:85:KICK.wav
320,192,208544,128,0,208634:0:0:0:0:
320,192,208725,128,0,208815:0:0:0:0:
320,192,208905,128,0,208996:0:0:0:0:
448,192,209041,1,0,0:0:0:0:
64,192,209041,1,0,0:0:0:100:CLAP.wav
448,192,209402,128,0,209674:0:0:0:0:
192,192,209402,1,0,0:0:0:0:
64,192,209402,1,0,0:0:0:85:KICK.wav
320,192,209402,128,0,209674:0:0:0:0:
64,192,209764,1,0,0:0:0:85:KICK.wav
192,192,209764,1,0,0:0:0:0:
448,192,209975,1,0,0:0:0:0:
192,192,210005,128,0,210065:0:0:0:0:
320,192,210065,1,0,0:0:0:0:
448,192,210155,1,0,0:0:0:0:
320,192,210246,1,0,0:0:0:0:
64,192,210246,128,0,210306:0:0:0:0:
448,192,210336,1,0,0:0:0:0:
320,192,210427,1,0,0:0:0:0:
192,192,210487,1,0,0:0:0:100:CLAP.wav
448,192,210487,128,0,210547:0:0:0:0:
64,192,210607,1,0,0:0:0:0:
192,192,210698,1,0,0:0:0:0:
320,192,210728,128,0,210788:0:0:0:0:
64,192,210788,1,0,0:0:0:0:
192,192,210908,1,0,0:0:0:0:
64,192,210969,1,0,0:0:0:0:
448,192,210969,128,0,211029:0:0:0:0:
192,192,211059,1,0,0:0:0:0:
64,192,211149,1,0,0:0:0:0:
448,192,211210,1,0,0:0:0:85:KICK.wav
192,192,211210,128,0,211270:0:0:0:0:
320,192,211421,1,0,0:0:0:0:
64,192,211451,128,0,211511:0:0:0:0:
448,192,211511,1,0,0:0:0:0:
320,192,211692,1,0,0:0:0:0:
192,192,211692,128,0,211752:0:0:0:0:
448,192,211782,1,0,0:0:0:0:
320,192,211872,1,0,0:0:0:0:
64,192,211933,1,0,0:0:0:100:CLAP.wav
448,192,211933,128,0,211993:0:0:0:0:
192,192,212143,1,0,0:0:0:0:
320,192,212174,128,0,212234:0:0:0:0:
64,192,212234,1,0,0:0:0:0:
192,192,212294,1,0,0:0:0:85:KICK.wav
448,192,212294,1,0,0:0:0:0:
320,192,212415,128,0,212475:0:0:0:0:
64,192,212505,1,0,0:0:0:0:
192,192,212595,1,0,0:0:0:0:
64,192,212655,128,0,213288:0:0:0:85:KICK.wav
320,192,212655,128,0,213288:0:0:0:0:
448,192,212655,128,0,212716:0:0:0:0:
448,192,213137,128,0,213198:0:0:0:0:
320,192,213378,128,0,214101:0:0:0:0:
448,192,213378,1,0,0:0:0:100:CLAP.wav
64,192,213378,128,0,214101:0:0:0:0:
192,192,213378,1,0,0:0:0:0:
448,192,214101,128,0,215186:0:0:0:0:
64,192,214493,128,0,215186:0:0:0:0:
192,192,215186,1,0,0:0:0:0:
320,192,215186,128,0,215908:0:0:0:0:
448,192,215547,128,0,216029:0:0:0:0:
64,192,215547,1,0,0:0:0:0:
192,192,215788,1,0,0:0:0:0:
64,192,216029,128,0,216993:0:0:0:0:
320,192,216029,1,0,0:0:0:0:
192,192,216270,1,0,0:0:0:0:
192,192,216993,1,0,0:0:0:0:
320,192,216993,128,0,218439:0:0:0:0:
64,192,217234,1,0,0:0:0:0:
448,192,217475,1,0,0:0:0:0:
192,192,217716,1,0,0:0:0:0:
448,192,218439,1,0,0:0:0:0:
64,192,218439,128,0,219884:0:0:0:0:
192,192,218439,1,0,0:0:0:0:
320,192,218680,1,0,0:0:0:0:
448,192,218921,128,0,219523:0:0:0:0:
320,192,218921,1,0,0:0:0:0:
192,192,219162,1,0,0:0:0:0:
320,192,219523,1,0,0:0:0:0:
192,192,219884,128,0,220728:0:0:0:0:
320,192,219884,1,0,0:0:0:0:
448,192,219884,1,0,0:0:0:0:
64,192,220728,1,0,0:0:0:0:
320,192,220969,128,0,222053:0:0:0:0:
192,192,220969,1,0,0:0:0:0:
448,192,220969,1,0,0:0:0:0:
192,192,221451,128,0,222776:0:0:0:0:
64,192,221571,1,0,0:0:0:0:
448,192,222053,1,0,0:0:0:0:
64,192,222776,1,0,0:0:0:0:
320,192,222776,1,0,0:0:0:0:
448,192,222776,128,0,223228:0:0:0:0:
192,192,223017,1,0,0:0:0:0:
64,192,223258,1,0,0:0:0:0:
448,192,223318,128,0,223649:0:0:0:0:
192,192,223318,1,0,0:0:0:0:
320,192,223499,1,0,0:0:0:0:
448,192,223740,128,0,224131:0:0:0:0:
192,192,223740,1,0,0:0:0:0:
192,192,224222,1,0,0:0:0:0:
320,192,224222,128,0,224945:0:0:0:0:
448,192,224704,1,0,0:0:0:0:
64,192,224945,128,0,225668:0:0:0:0:
192,192,225668,128,0,226390:0:0:0:0:
320,192,225668,1,0,0:0:0:0:
64,192,225848,1,0,0:0:0:0:
320,192,226029,1,0,0:0:0:0:
448,192,226210,1,0,0:0:0:0:
64,192,226390,1,0,0:0:0:0:
192,192,226571,1,0,0:0:0:0:
64,192,226752,1,0,0:0:0:0:
448,192,226752,1,0,0:0:0:0:
320,192,226752,128,0,227836:0:0:0:0:
192,192,226933,1,0,0:0:0:0:
448,192,227113,1,0,0:0:0:0:
64,192,227294,1,0,0:0:0:0:
448,192,227354,1,0,0:0:0:0:
192,192,227475,1,0,0:0:0:0:
448,192,227655,1,0,0:0:0:0:
64,192,227836,1,0,0:0:0:0:
192,192,228017,1,0,0:0:0:0:
320,192,228198,1,0,0:0:0:0:
448,192,228378,1,0,0:0:0:0:
64,192,228559,1,0,0:0:0:0:
320,192,228559,1,0,0:0:0:0:
192,192,228740,1,0,0:0:0:0:
448,192,228800,1,0,0:0:0:0:
320,192,228921,1,0,0:0:0:0:
192,192,229041,1,0,0:0:0:0:
448,192,229101,1,0,0:0:0:0:
64,192,229282,1,0,0:0:0:0:
320,192,229282,1,0,0:0:0:0:
192,192,229463,1,0,0:0:0:0:
320,192,229643,1,0,0:0:0:0:
448,192,229824,1,0,0:0:0:0:
448,192,230005,128,0,230728:0:0:0:0:
192,192,230005,1,0,0:0:0:0:
64,192,230005,1,0,0:0:0:0:
320,192,230186,1,0,0:0:0:0:
192,192,230246,1,0,0:0:0:0:
64,192,230366,1,0,0:0:0:0:
320,192,230487,1,0,0:0:0:0:
192,192,230547,1,0,0:0:0:0:
64,192,230728,128,0,231451:0:0:0:0:
320,192,230728,1,0,0:0:0:0:
192,192,230908,1,0,0:0:0:0:
320,192,231089,1,0,0:0:0:0:
448,192,231270,1,0,0:0:0:0:
192,192,231451,128,0,232174:0:0:0:0:
320,192,231451,1,0,0:0:0:0:
64,192,231631,1,0,0:0:0:0:
320,192,231812,1,0,0:0:0:0:
448,192,231993,1,0,0:0:0:0:
64,192,232174,1,0,0:0:0:0:
192,192,232354,1,0,0:0:0:0:
64,192,232535,1,0,0:0:0:0:
320,192,232535,128,0,233619:0:0:0:0:
448,192,232716,1,0,0:0:0:0:
192,192,232896,1,0,0:0:0:0:
64,192,233077,1,0,0:0:0:0:
448,192,233137,1,0,0:0:0:0:
192,192,233258,1,0,0:0:0:0:
64,192,233378,1,0,0:0:0:0:
448,192,233439,1,0,0:0:0:0:
192,192,233619,1,0,0:0:0:0:
64,192,233800,1,0,0:0:0:0:
320,192,233981,1,0,0:0:0:0:
448,192,234162,1,0,0:0:0:0:
448,192,234342,128,0,235065:0:0:0:0:
192,192,234342,1,0,0:0:0:0:
64,192,234523,1,0,0:0:0:0:
192,192,234704,1,0,0:0:0:0:
320,192,234884,1,0,0:0:0:0:
64,192,235065,1,0,0:0:0:0:
192,192,235246,1,0,0:0:0:0:
64,192,235427,1,0,0:0:0:0:
320,192,235427,128,0,237113:0:0:0:0:
448,192,235607,1,0,0:0:0:0:
64,192,235788,1,0,0:0:0:0:
192,192,235969,1,0,0:0:0:0:
64,192,236149,128,0,237234:0:0:0:0:
448,192,236149,1,0,0:0:0:0:
192,192,236330,1,0,0:0:0:0:
448,192,236511,128,0,237234:0:0:0:0:
320,192,237234,1,0,0:0:0:0:
192,192,237234,128,0,238228:0:0:0:0:
64,192,238318,128,0,241481:0:0:0:0:
192,192,238318,1,0,0:0:0:0:
64,192,241571,1,0,0:0:0:0:
320,192,241571,1,0,0:0:0:0:
448,192,241571,128,0,243017:0:0:0:0:
192,192,243017,128,0,244011:0:0:0:0:
320,192,243017,1,0,0:0:0:0:
192,192,244101,1,0,0:0:0:0:
64,192,244101,128,0,247264:0:0:0:0:
192,192,245186,128,0,245487:0:0:0:0:
320,192,245487,128,0,245607:0:0:0:0:
192,192,245607,128,0,245908:0:0:0:0:
64,192,247354,1,0,0:0:0:0:
192,192,247354,1,0,0:0:0:0:
448,192,247354,128,0,248800:0:0:0:0:
64,192,248077,128,0,249523:0:0:0:0:
320,192,248800,1,0,0:0:0:0:
192,192,248800,128,0,249884:0:0:0:0:
320,192,249455,1,0,0:0:0:0:
448,192,249523,128,0,254583:0:0:0:0:
320,192,249884,1,0,0:0:0:0:
64,192,249884,128,0,254583:0:0:0:0:
320,192,250901,1,0,0:0:0:0:
192,192,250969,128,0,251270:0:0:0:0:
320,192,251270,128,0,251390:0:0:0:0:
192,192,251390,128,0,251692:0:0:0:0:
320,192,252347,1,0,0:0:0:0:
320,192,253137,128,0,254493:0:0:0:0:
192,192,253793,1,0,0:0:0:0:
320,192,254583,1,0,0:0:0:85:KICK.wav
192,192,254583,128,0,255577:0:0:0:0:
448,192,255238,1,0,0:0:0:0:
192,192,255668,1,0,0:0:0:0:
64,192,255668,128,0,260276:0:0:0:0:
448,192,256684,1,0,0:0:0:0:
192,192,256752,128,0,257053:0:0:0:0:
320,192,257053,128,0,257174:0:0:0:0:
192,192,257174,128,0,257475:0:0:0:0:
320,192,257475,1,0,0:0:0:85:KICK.wav
448,192,257475,128,0,260366:0:0:0:0:
192,192,259101,128,0,259282:0:0:0:0:
320,192,259463,128,0,260276:0:0:0:0:
64,192,260366,1,0,0:0:0:85:KICK.wav
192,192,260366,1,0,0:0:0:0:
320,192,260366,1,0,0:0:0:0:
320,192,260607,1,0,0:0:0:0:
448,192,260728,1,0,0:0:0:15:HI-HAT.wav
320,192,261029,1,0,0:0:0:60:CLAP.wav
448,192,261029,1,0,0:0:0:0:
192,192,261210,1,0,0:0:0:0:
64,192,261451,1,0,0:0:0:85:KICK.wav
448,192,261451,1,0,0:0:0:15:HI-HAT.wav
192,192,261451,128,0,262415:0:0:0:0:
320,192,261812,1,0,0:0:0:0:
448,192,261812,1,0,0:0:0:85:KICK.wav
320,192,262053,1,0,0:0:0:0:
448,192,262174,1,0,0:0:0:15:HI-HAT.wav
448,192,262415,1,0,0:0:0:15:HI-HAT.wav
192,192,262535,1,0,0:0:0:60:CLAP.wav
64,192,262535,128,0,265427:0:0:0:0:
320,192,262535,1,0,0:0:0:0:
448,192,262896,1,0,0:0:0:15:HI-HAT.wav
192,192,263258,1,0,0:0:0:85:KICK.wav
320,192,263258,1,0,0:0:0:0:
320,192,263499,1,0,0:0:0:0:
448,192,263619,1,0,0:0:0:15:HI-HAT.wav
320,192,263921,1,0,0:0:0:60:CLAP.wav
448,192,263921,1,0,0:0:0:0:
192,192,264101,1,0,0:0:0:0:
192,192,264342,1,0,0:0:0:85:KICK.wav
448,192,264342,1,0,0:0:0:15:HI-HAT.wav
320,192,264704,1,0,0:0:0:0:
448,192,264704,1,0,0:0:0:85:KICK.wav
320,192,264945,1,0,0:0:0:0:
448,192,265065,1,0,0:0:0:15:HI-HAT.wav
448,192,265306,1,0,0:0:0:15:HI-HAT.wav
192,192,265427,1,0,0:0:0:60:CLAP.wav
320,192,265427,128,0,266149:0:0:0:0:
448,192,265788,1,0,0:0:0:15:HI-HAT.wav
192,192,266149,1,0,0:0:0:85:KICK.wav
64,192,266149,128,0,266812:0:0:0:0:
320,192,266210,1,0,0:0:0:0:
448,192,266262,1,0,0:0:0:0:
192,192,266308,1,0,0:0:0:0:
320,192,266390,1,0,0:0:0:0:
448,192,266511,1,0,0:0:0:15:HI-HAT.wav
320,192,266812,1,0,0:0:0:60:CLAP.wav
448,192,266812,1,0,0:0:0:0:
192,192,266993,1,0,0:0:0:0:
64,192,267234,1,0,0:0:0:0:
192,192,267234,1,0,0:0:0:85:KICK.wav
448,192,267234,1,0,0:0:0:15:HI-HAT.wav
192,192,267595,1,0,0:0:0:85:KICK.wav
64,192,267595,128,0,268921:0:0:0:0:
448,192,267595,1,0,0:0:0:0:
320,192,267836,1,0,0:0:0:0:
448,192,267957,1,0,0:0:0:15:HI-HAT.wav
448,192,268258,1,0,0:0:0:0:
320,192,268258,1,0,0:0:0:60:CLAP.wav
192,192,268439,1,0,0:0:0:0:
448,192,268680,1,0,0:0:0:15:HI-HAT.wav
192,192,269041,128,0,269704:0:0:0:0:
64,192,269041,1,0,0:0:0:85:KICK.wav
320,192,269154,1,0,0:0:0:0:
448,192,269199,1,0,0:0:0:0:
320,192,269282,1,0,0:0:0:0:
64,192,269312,1,0,0:0:0:0:
448,192,269402,1,0,0:0:0:15:HI-HAT.wav
448,192,269704,1,0,0:0:0:0:
320,192,269704,1,0,0:0:0:60:CLAP.wav
192,192,269884,1,0,0:0:0:0:
64,192,270125,1,0,0:0:0:85:KICK.wav
192,192,270125,1,0,0:0:0:0:
448,192,270125,1,0,0:0:0:15:HI-HAT.wav
64,192,270487,1,0,0:0:0:85:KICK.wav
192,192,270487,1,0,0:0:0:0:
448,192,270487,128,0,270728:0:0:0:0:
320,192,270728,1,0,0:0:0:0:
64,192,270728,128,0,271149:0:0:0:0:
448,192,270848,1,0,0:0:0:15:HI-HAT.wav
320,192,270984,1,0,0:0:0:0:
448,192,271149,1,0,0:0:0:0:
192,192,271149,1,0,0:0:0:60:CLAP.wav
320,192,271149,128,0,271933:0:0:0:0:
64,192,271232,1,0,0:0:0:0:
448,192,271571,1,0,0:0:0:15:HI-HAT.wav
192,192,271933,128,0,272896:0:0:0:0:
64,192,271933,1,0,0:0:0:85:KICK.wav
448,192,271993,1,0,0:0:0:0:
320,192,272023,1,0,0:0:0:0:
64,192,272068,1,0,0:0:0:0:
320,192,272174,1,0,0:0:0:0:
448,192,272294,1,0,0:0:0:15:HI-HAT.wav
320,192,272595,1,0,0:0:0:60:CLAP.wav
448,192,272595,1,0,0:0:0:0:
64,192,272776,1,0,0:0:0:0:
192,192,273017,1,0,0:0:0:85:KICK.wav
448,192,273017,1,0,0:0:0:15:HI-HAT.wav
64,192,273017,128,0,275186:0:0:0:0:
320,192,273107,1,0,0:0:0:0:
320,192,273378,1,0,0:0:0:0:
320,192,273619,1,0,0:0:0:0:
448,192,273740,1,0,0:0:0:15:HI-HAT.wav
448,192,273981,1,0,0:0:0:15:HI-HAT.wav
320,192,274101,1,0,0:0:0:60:CLAP.wav
192,192,274101,1,0,0:0:0:0:
448,192,274463,1,0,0:0:0:15:HI-HAT.wav
192,192,274824,1,0,0:0:0:85:KICK.wav
320,192,274824,1,0,0:0:0:0:
192,192,275065,1,0,0:0:0:0:
448,192,275186,1,0,0:0:0:15:HI-HAT.wav
320,192,275186,128,0,275306:0:0:0:0:
64,192,275306,128,0,276270:0:0:0:0:
192,192,275487,1,0,0:0:0:60:CLAP.wav
448,192,275487,1,0,0:0:0:0:
192,192,275668,1,0,0:0:0:0:
320,192,275908,1,0,0:0:0:85:KICK.wav
448,192,275908,1,0,0:0:0:15:HI-HAT.wav
192,192,276270,128,0,277354:0:0:0:0:
448,192,276270,1,0,0:0:0:85:KICK.wav
320,192,276315,1,0,0:0:0:0:
64,192,276360,1,0,0:0:0:0:
448,192,276421,1,0,0:0:0:0:
320,192,276511,1,0,0:0:0:0:
64,192,276631,1,0,0:0:0:10:HI-HAT.wav
448,192,276872,1,0,0:0:0:10:HI-HAT.wav
64,192,276993,1,0,0:0:0:0:
320,192,276993,1,0,0:0:0:60:CLAP.wav
448,192,277038,1,0,0:0:0:0:
320,192,277354,1,0,0:0:0:10:HI-HAT.wav
448,192,277354,128,0,277716:0:0:0:0:
64,192,277716,1,0,0:0:0:85:KICK.wav
192,192,277716,128,0,278680:0:0:0:0:
320,192,277716,1,0,0:0:0:0:
448,192,277829,1,0,0:0:0:0:
320,192,277957,1,0,0:0:0:0:
64,192,277987,1,0,0:0:0:0:
448,192,278077,1,0,0:0:0:10:HI-HAT.wav
320,192,278378,1,0,0:0:0:60:CLAP.wav
448,192,278378,1,0,0:0:0:0:
320,192,278559,1,0,0:0:0:0:
192,192,278800,1,0,0:0:0:10:HI-HAT.wav
64,192,278800,128,0,280246:0:0:0:85:KICK.wav
320,192,278845,1,0,0:0:0:0:
448,192,278890,1,0,0:0:0:0:
192,192,279162,1,0,0:0:0:85:KICK.wav
320,192,279402,1,0,0:0:0:0:
448,192,279523,1,0,0:0:0:10:HI-HAT.wav
448,192,279824,1,0,0:0:0:0:
320,192,279824,1,0,0:0:0:60:CLAP.wav
192,192,280005,1,0,0:0:0:0:
320,192,280246,1,0,0:0:0:10:HI-HAT.wav
448,192,280246,128,0,280607:0:0:0:0:
192,192,280607,1,0,0:0:0:85:KICK.wav
64,192,280607,128,0,282053:0:0:0:0:
320,192,280607,1,0,0:0:0:0:
320,192,280848,1,0,0:0:0:0:
448,192,280969,1,0,0:0:0:10:HI-HAT.wav
448,192,281270,1,0,0:0:0:0:
320,192,281270,1,0,0:0:0:60:CLAP.wav
192,192,281451,1,0,0:0:0:0:
192,192,281692,1,0,0:0:0:85:KICK.wav
448,192,281692,1,0,0:0:0:10:HI-HAT.wav
448,192,282053,1,0,0:0:0:0:
320,192,282053,1,0,0:0:0:85:KICK.wav
192,192,282053,128,0,283137:0:0:0:0:
320,192,282294,1,0,0:0:0:0:
448,192,282415,1,0,0:0:0:10:HI-HAT.wav
448,192,282716,1,0,0:0:0:60:CLAP.wav
64,192,282716,1,0,0:0:0:0:
64,192,282957,1,0,0:0:0:0:
320,192,283137,1,0,0:0:0:15:HI-HAT.wav
448,192,283137,128,0,283499:0:0:0:0:
64,192,283137,1,0,0:0:0:0:
64,192,283318,1,0,0:0:0:0:
320,192,283499,1,0,0:0:0:0:
192,192,283499,1,0,0:0:0:0:
64,192,283499,1,0,0:0:0:85:KICK.wav
192,192,283680,1,0,0:0:0:0:
448,192,283740,128,0,283800:0:0:0:0:
192,192,283860,1,0,0:0:0:0:
320,192,283981,128,0,284041:0:0:0:0:
192,192,284041,1,0,0:0:0:0:
448,192,284162,1,0,0:0:0:60:CLAP.wav
64,192,284222,128,0,284282:0:0:0:0:
192,192,284402,1,0,0:0:0:0:
320,192,284583,1,0,0:0:0:85:KICK.wav
192,192,284583,1,0,0:0:0:0:
448,192,284583,128,0,285306:0:0:0:0:
192,192,284764,1,0,0:0:0:0:
64,192,284945,1,0,0:0:0:85:KICK.wav
320,192,284945,128,0,285005:0:0:0:0:
320,192,285125,1,0,0:0:0:0:
192,192,285186,128,0,285246:0:0:0:0:
320,192,285306,1,0,0:0:0:0:
64,192,285427,128,0,285487:0:0:0:0:
320,192,285487,1,0,0:0:0:0:
448,192,285607,1,0,0:0:0:60:CLAP.wav
192,192,285668,128,0,285728:0:0:0:0:
320,192,285848,1,0,0:0:0:0:
448,192,285908,128,0,285969:0:0:0:0:
320,192,286029,1,0,0:0:0:0:
64,192,286149,128,0,286210:0:0:0:0:
320,192,286210,1,0,0:0:0:0:
448,192,286390,1,0,0:0:0:0:
320,192,286390,128,0,286451:0:0:0:0:
64,192,286390,1,0,0:0:0:85:KICK.wav
64,192,286631,1,0,0:0:0:0:
192,192,286631,128,0,286692:0:0:0:0:
64,192,286812,1,0,0:0:0:0:
320,192,286872,128,0,286933:0:0:0:0:
64,192,286993,1,0,0:0:0:0:
192,192,287053,1,0,0:0:0:60:CLAP.wav
448,192,287113,128,0,287174:0:0:0:0:
64,192,287174,1,0,0:0:0:0:
64,192,287324,1,0,0:0:0:0:
320,192,287354,128,0,287415:0:0:0:0:
192,192,287475,1,0,0:0:0:0:
64,192,287475,1,0,0:0:0:85:KICK.wav
448,192,287595,128,0,287655:0:0:0:0:
320,192,287716,1,0,0:0:0:0:
64,192,287836,1,0,0:0:0:85:KICK.wav
192,192,287836,128,0,287896:0:0:0:0:
448,192,287836,1,0,0:0:0:0:
320,192,288047,1,0,0:0:0:0:
64,192,288077,128,0,288137:0:0:0:0:
320,192,288228,1,0,0:0:0:0:
448,192,288318,128,0,288378:0:0:0:0:
320,192,288408,1,0,0:0:0:0:
448,192,288559,128,0,289282:0:0:0:60:CLAP.wav
64,192,288559,128,0,288619:0:0:0:0:
320,192,288740,1,0,0:0:0:0:
192,192,288800,128,0,288860:0:0:0:0:
320,192,288921,1,0,0:0:0:0:
64,192,289041,128,0,289101:0:0:0:0:
320,192,289101,1,0,0:0:0:0:
320,192,289282,1,0,0:0:0:0:
64,192,289282,1,0,0:0:0:85:KICK.wav
192,192,289463,1,0,0:0:0:0:
192,192,289643,1,0,0:0:0:0:
192,192,289824,1,0,0:0:0:0:
448,192,289945,1,0,0:0:0:60:CLAP.wav
192,192,290186,1,0,0:0:0:0:
192,192,290366,1,0,0:0:0:0:
64,192,290366,1,0,0:0:0:85:KICK.wav
192,192,290547,1,0,0:0:0:0:
320,192,290728,1,0,0:0:0:0:
448,192,290728,1,0,0:0:0:85:KICK.wav
64,192,290908,1,0,0:0:0:0:
320,192,290969,128,0,291029:0:0:0:0:
64,192,291089,1,0,0:0:0:0:
192,192,291210,128,0,291270:0:0:0:0:
64,192,291270,1,0,0:0:0:0:
448,192,291390,1,0,0:0:0:60:CLAP.wav
320,192,291451,128,0,291511:0:0:0:0:
64,192,291631,1,0,0:0:0:0:
448,192,291692,128,0,291752:0:0:0:0:
64,192,291812,1,0,0:0:0:0:
320,192,291933,128,0,291993:0:0:0:0:
64,192,291993,1,0,0:0:0:0:
320,192,292174,1,0,0:0:0:85:KICK.wav
448,192,292174,128,0,292234:0:0:0:0:
192,192,292174,1,0,0:0:0:0:
448,192,292415,1,0,0:0:0:0:
64,192,292415,128,0,292475:0:0:0:0:
448,192,292595,1,0,0:0:0:0:
320,192,292655,128,0,292716:0:0:0:0:
448,192,292776,1,0,0:0:0:0:
64,192,292836,1,0,0:0:0:60:CLAP.wav
192,192,292896,128,0,292957:0:0:0:0:
448,192,292957,1,0,0:0:0:0:
448,192,293137,1,0,0:0:0:0:
320,192,293137,128,0,293198:0:0:0:0:
64,192,293258,1,0,0:0:0:85:KICK.wav
192,192,293258,1,0,0:0:0:0:
448,192,293378,128,0,293439:0:0:0:0:
320,192,293469,1,0,0:0:0:0:
64,192,293619,1,0,0:0:0:85:KICK.wav
192,192,293619,128,0,293680:0:0:0:0:
448,192,293619,1,0,0:0:0:0:
320,192,293830,1,0,0:0:0:0:
64,192,293860,128,0,293921:0:0:0:0:
320,192,294011,1,0,0:0:0:0:
192,192,294101,128,0,294162:0:0:0:0:
320,192,294192,1,0,0:0:0:0:
448,192,294282,1,0,0:0:0:60:CLAP.wav
64,192,294402,128,0,295065:0:0:0:0:
320,192,294523,1,0,0:0:0:0:
320,192,294704,1,0,0:0:0:0:
320,192,294884,1,0,0:0:0:0:
320,192,295065,1,0,0:0:0:0:
448,192,295065,1,0,0:0:0:85:KICK.wav
192,192,295246,1,0,0:0:0:0:
192,192,295427,1,0,0:0:0:0:
192,192,295607,1,0,0:0:0:0:
448,192,295728,1,0,0:0:0:60:CLAP.wav
192,192,295969,1,0,0:0:0:0:
192,192,296149,1,0,0:0:0:0:
64,192,296149,1,0,0:0:0:85:KICK.wav
192,192,296330,1,0,0:0:0:0:
192,192,296511,1,0,0:0:0:85:KICK.wav
64,192,296511,128,0,296571:0:0:0:0:
320,192,296511,1,0,0:0:0:0:
448,192,296692,1,0,0:0:0:0:
192,192,296752,128,0,296812:0:0:0:0:
448,192,296872,1,0,0:0:0:0:
320,192,296993,128,0,297053:0:0:0:0:
448,192,297053,1,0,0:0:0:0:
64,192,297174,1,0,0:0:0:60:CLAP.wav
192,192,297234,128,0,297294:0:0:0:0:
448,192,297415,1,0,0:0:0:0:
448,192,297595,1,0,0:0:0:0:
448,192,297776,1,0,0:0:0:0:
64,192,297957,1,0,0:0:0:85:KICK.wav
320,192,297957,128,0,298017:0:0:0:0:
192,192,297957,1,0,0:0:0:0:
64,192,298198,1,0,0:0:0:0:
192,192,298198,128,0,298258:0:0:0:0:
64,192,298378,1,0,0:0:0:0:
448,192,298439,128,0,298499:0:0:0:0:
64,192,298559,1,0,0:0:0:0:
448,192,298619,1,0,0:0:0:60:CLAP.wav
320,192,298680,128,0,298740:0:0:0:0:
192,192,298740,1,0,0:0:0:0:
64,192,298890,1,0,0:0:0:0:
64,192,299041,1,0,0:0:0:85:KICK.wav
192,192,299041,1,0,0:0:0:0:
64,192,299282,1,0,0:0:0:0:
192,192,299402,1,0,0:0:0:85:KICK.wav
448,192,299402,128,0,299463:0:0:0:0:
320,192,299402,128,0,300848:0:0:0:0:
448,192,299613,1,0,0:0:0:0:
448,192,299794,1,0,0:0:0:0:
448,192,299975,1,0,0:0:0:0:
192,192,300125,1,0,0:0:0:60:CLAP.wav
448,192,300306,1,0,0:0:0:0:
448,192,300487,1,0,0:0:0:0:
448,192,300668,1,0,0:0:0:0:
192,192,300848,1,0,0:0:0:0:
64,192,300848,1,0,0:0:0:85:KICK.wav
192,192,301029,1,0,0:0:0:0:
192,192,301210,1,0,0:0:0:0:
192,192,301390,1,0,0:0:0:0:
448,192,301511,1,0,0:0:0:60:CLAP.wav
64,192,301511,1,0,0:0:0:0:
192,192,301752,1,0,0:0:0:0:
192,192,301933,1,0,0:0:0:0:
64,192,301933,1,0,0:0:0:85:KICK.wav
192,192,302113,1,0,0:0:0:0:
192,192,302294,1,0,0:0:0:85:KICK.wav
64,192,302294,128,0,302354:0:0:0:0:
448,192,302294,1,0,0:0:0:0:
320,192,302475,1,0,0:0:0:0:
192,192,302535,128,0,302595:0:0:0:0:
320,192,302655,1,0,0:0:0:0:
448,192,302776,128,0,302836:0:0:0:0:
320,192,302836,1,0,0:0:0:0:
64,192,302957,1,0,0:0:0:60:CLAP.wav
192,192,303017,128,0,303077:0:0:0:0:
320,192,303198,1,0,0:0:0:0:
448,192,303258,128,0,303318:0:0:0:0:
320,192,303378,1,0,0:0:0:0:
320,192,303559,1,0,0:0:0:0:
64,192,303740,128,0,303800:0:0:0:0:
320,192,303740,1,0,0:0:0:85:KICK.wav
448,192,303740,1,0,0:0:0:0:
64,192,303981,1,0,0:0:0:0:
320,192,303981,128,0,304041:0:0:0:0:
64,192,304162,1,0,0:0:0:0:
448,192,304222,128,0,304282:0:0:0:0:
64,192,304342,1,0,0:0:0:0:
448,192,304402,1,0,0:0:0:60:CLAP.wav
320,192,304463,128,0,304523:0:0:0:0:
192,192,304523,1,0,0:0:0:0:
64,192,304674,1,0,0:0:0:0:
448,192,304824,1,0,0:0:0:0:
64,192,304824,1,0,0:0:0:0:
192,192,305065,1,0,0:0:0:0:
64,192,305186,128,0,305246:0:0:0:0:
192,192,305427,128,0,305487:0:0:0:0:
448,192,305427,1,0,0:0:0:0:
448,192,305607,1,0,0:0:0:0:
320,192,305668,128,0,305728:0:0:0:0:
448,192,305788,1,0,0:0:0:0:
192,192,305908,128,0,305969:0:0:0:0:
320,192,306089,1,0,0:0:0:0:
64,192,306270,1,0,0:0:0:0:
64,192,306451,1,0,0:0:0:0:
320,192,306631,1,0,0:0:0:0:
192,192,306631,128,0,307354:0:0:0:0:
320,192,307445,1,0,0:0:0:0:
192,192,307445,128,0,307625:0:0:0:0:
320,192,307716,1,0,0:0:0:0:
192,192,307716,128,0,307806:0:0:0:0:
320,192,307896,1,0,0:0:0:0:
192,192,307896,128,0,307987:0:0:0:0:
192,192,308077,1,0,0:0:0:0:
64,192,308077,128,0,310878:0:0:0:0:
448,192,308077,1,0,0:0:0:0:
320,192,308439,1,0,0:0:0:0:
192,192,308770,1,0,0:0:0:0:
448,192,309041,1,0,0:0:0:0:
320,192,309282,1,0,0:0:0:0:
448,192,309500,1,0,0:0:0:0:
320,192,309734,1,0,0:0:0:0:
192,192,309975,1,0,0:0:0:0:
320,192,310155,1,0,0:0:0:0:
448,192,310336,1,0,0:0:0:0:
320,192,310607,1,0,0:0:0:0:
448,192,310758,1,0,0:0:0:0:
448,192,310969,128,0,312324:0:0:0:0:
320,192,310969,1,0,0:0:0:0:
192,192,310969,1,0,0:0:0:0:
192,192,311330,1,0,0:0:0:0:
64,192,311662,1,0,0:0:0:0:
320,192,311933,1,0,0:0:0:0:
192,192,312083,1,0,0:0:0:0:
320,192,312294,1,0,0:0:0:0:
192,192,312415,128,0,313408:0:0:0:0:
448,192,312415,1,0,0:0:0:0:
192,192,313499,1,0,0:0:0:0:
64,192,313499,128,0,316662:0:0:0:0:
320,192,314101,1,0,0:0:0:0:
192,192,314342,1,0,0:0:0:0:
320,192,314583,1,0,0:0:0:0:
448,192,314824,1,0,0:0:0:0:
320,192,315065,1,0,0:0:0:0:
448,192,315306,1,0,0:0:0:0:
192,192,315547,1,0,0:0:0:0:
448,192,315788,1,0,0:0:0:0:
320,192,316029,1,0,0:0:0:0:
448,192,316255,1,0,0:0:0:0:
320,192,316511,1,0,0:0:0:0:
320,192,316752,1,0,0:0:0:0:
448,192,316752,128,0,318107:0:0:0:0:
192,192,316752,1,0,0:0:0:0:
64,192,316993,1,0,0:0:0:0:
192,192,317234,1,0,0:0:0:0:
192,192,318198,128,0,319734:0:0:0:0:
320,192,318198,1,0,0:0:0:0:
320,192,318529,1,0,0:0:0:0:
448,192,318680,1,0,0:0:0:0:
64,192,319402,1,0,0:0:0:0:
192,192,319824,1,0,0:0:0:0:
64,192,319824,128,0,322264:0:0:0:0:
320,192,320005,1,0,0:0:0:0:
448,192,320140,128,0,322264:0:0:0:0:
192,192,322354,1,0,0:0:0:0:
448,192,322354,128,0,323890:0:0:0:0:
320,192,322445,1,0,0:0:0:0:
64,192,322693,1,0,0:0:0:0:
320,192,323740,1,0,0:0:0:0:
448,192,323981,1,0,0:0:0:0:
192,192,323981,128,0,326059:0:0:0:0:
64,192,324041,1,0,0:0:0:0:
320,192,324101,1,0,0:0:0:0:
448,192,324131,1,0,0:0:0:0:
448,192,325306,1,0,0:0:0:0:
64,192,326149,128,0,328589:0:0:0:0:
448,192,326149,1,0,0:0:0:0:
192,192,326240,1,0,0:0:0:0:
320,192,326240,1,0,0:0:0:0:
192,192,328077,1,0,0:0:0:0:
320,192,328589,1,0,0:0:0:0:
192,192,328657,1,0,0:0:0:0:
64,192,328710,1,0,0:0:0:0:
448,192,328710,128,0,333469:0:0:0:0:
320,192,328830,1,0,0:0:0:0:
64,192,330396,128,0,338439:0:0:0:0:
192,192,331692,128,0,334192:0:0:0:0:
320,192,332384,128,0,336993:0:0:0:0:
448,192,333582,1,0,0:0:0:0:
192,192,334305,1,0,0:0:0:0:
