osu file format v14

[General]
AudioFilename: audio.mp3
AudioLeadIn: 0
PreviewTime: 84993
Countdown: 0
SampleSet: Soft
StackLeniency: 0.6
Mode: 0
LetterboxInBreaks: 0
WidescreenStoryboard: 0

[Editor]
Bookmarks: 202644,223977,277323,293323
DistanceSpacing: 0.7
BeatDivisor: 6
GridSize: 16
TimelineZoom: 4.399998

[Metadata]
Title:Crafted In Ice
TitleUnicode:Crafted In Ice
Artist:Ekcle
ArtistUnicode:Ekcle
Creator:DeviousPanda
Version:Multifaceted
Source:
Tags:featured artist fa osu instrumental electronic breakcore yoja nozuchi censoled paradogi knightc0re knightcore
BeatmapID:3843161
BeatmapSetID:1868244

[Difficulty]
HPDrainRate:4.6
CircleSize:4.2
OverallDifficulty:9.7
ApproachRate:9.9
SliderMultiplier:2.8
SliderTickRate:1

[Events]
//Background and Video events
0,0,"ice.png",0,0
//Break Periods
//Storyboard Layer 0 (Background)
//Storyboard Layer 1 (Fail)
//Storyboard Layer 2 (Pass)
//Storyboard Layer 3 (Foreground)
//Storyboard Layer 4 (Overlay)
//Storyboard Sound Samples

[TimingPoints]
21577,333.333333333333,4,2,1,20,1,0
42910,-1000,4,2,1,20,0,0
45577,-833.333333333333,4,2,1,20,0,0
48243,-714.285714285714,4,2,1,20,0,0
50910,-625,4,2,1,20,0,0
53576,-1000,4,2,1,20,0,0
64243,-43.4782608695652,4,2,1,80,0,0
64578,-133.333333333333,4,2,1,50,0,0
65076,-100,4,2,1,50,0,0
65326,-50,4,2,1,50,0,0
65576,-66.6666666666667,4,2,1,50,0,0
65993,-100,4,2,1,50,0,0
66660,-50,4,2,1,50,0,0
66910,-200,4,2,1,50,0,0
67076,-100,4,2,1,50,0,0
67743,-200,4,2,1,50,0,0
67993,-50,4,2,1,50,0,0
68243,-100,4,2,1,50,0,0
68410,-66.6666666666667,4,2,1,50,0,0
68660,-100,4,2,1,50,0,0
69243,-50,4,2,1,50,0,0
69576,-66.6666666666667,4,2,1,50,0,0
69910,-200,4,2,1,50,0,0
70076,-100,4,2,1,50,0,0
70243,-50,4,2,1,50,0,0
70910,-66.6666666666667,4,2,1,50,0,0
71160,-100,4,2,1,50,0,0
71743,-166.666666666667,4,2,1,50,0,0
71993,-100,4,2,1,50,0,0
72243,-50,4,2,1,50,0,0
72576,-166.666666666667,4,2,1,50,0,0
73243,-50,4,2,1,50,0,0
73576,-100,4,2,1,50,0,0
73743,-76.9230769230769,4,2,1,50,0,0
73993,-50,4,2,1,50,0,0
74132,-100,4,2,1,50,0,0
74410,-166.666666666667,4,2,1,50,0,0
74576,-40,4,2,1,50,0,0
74910,-100,4,2,1,50,0,0
75326,-50,4,2,1,50,0,0
75910,-166.666666666667,4,2,1,50,0,0
76243,-100,4,2,1,50,0,0
76410,-66.6666666666667,4,2,1,50,0,0
76799,-100,4,2,1,50,0,0
77326,-50,4,2,1,50,0,0
77576,-166.666666666667,4,2,1,50,0,0
77743,-66.6666666666667,4,2,1,50,0,0
78076,-166.666666666667,4,2,1,50,0,0
78576,-50,4,2,1,50,0,0
78910,-166.666666666667,4,2,1,50,0,0
79076,-66.6666666666667,4,2,1,50,0,0
79465,-100,4,2,1,50,0,0
79910,-45.4545454545455,4,2,1,50,0,0
80410,-100,4,2,1,50,0,0
80660,-50,4,2,1,50,0,0
80910,-66.6666666666667,4,2,1,50,0,0
81326,-50,4,2,1,50,0,0
81576,-166.666666666667,4,2,1,50,0,0
81743,-100,4,2,1,50,0,0
81993,-50,4,2,1,50,0,0
82132,-166.666666666667,4,2,1,50,0,0
83076,-50,4,2,1,50,0,0
83743,-166.666666666667,4,2,1,50,0,0
83993,-125,4,2,1,50,0,0
84160,-166.666666666667,4,2,1,50,0,0
84410,-66.6666666666667,4,2,1,50,0,0
84910,-166.666666666667,4,2,1,50,0,0
85326,-100,4,2,1,50,0,0
86243,-100,4,2,1,60,0,0
86410,-125,4,2,1,60,0,0
86660,-50,4,2,1,60,0,0
86910,-166.666666666667,4,2,1,60,0,0
87076,-66.6666666666667,4,2,1,60,0,0
87465,-100,4,2,1,60,0,0
87576,-166.666666666667,4,2,1,60,0,0
87743,-100,4,2,1,60,0,0
87993,-50,4,2,1,60,0,0
88243,-71.4285714285714,4,2,1,60,0,0
88410,-50,4,2,1,60,0,0
88910,-100,4,2,1,60,0,0
89076,-166.666666666667,4,2,1,60,0,0
89243,-50,4,2,1,60,0,0
89576,-250.000000000001,4,2,1,60,0,0
89743,-66.6666666666667,4,2,1,60,0,0
90076,-71.4285714285714,4,2,1,60,0,0
90410,-100,4,2,1,60,0,0
90576,-50,4,2,1,60,0,0
90910,-166.666666666667,4,2,1,60,0,0
91076,-250,4,2,1,60,0,0
91243,-50,4,2,1,60,0,0
91576,-100,4,2,1,60,0,0
91743,-71.4285714285714,4,2,1,60,0,0
91910,-45.4545454545455,4,2,1,60,0,0
92243,-166.666666666667,4,2,1,60,0,0
92410,-250,4,2,1,60,0,0
92576,-50,4,2,1,60,0,0
92799,-166.666666666667,4,2,1,60,0,0
92910,-71.4285714285714,4,2,1,60,0,0
93076,-100,4,2,1,60,0,0
93243,-50,4,2,1,60,0,0
93910,-100,4,2,1,60,0,0
94076,-166.666666666667,4,2,1,60,0,0
94243,-45.4545454545455,4,2,1,60,0,0
94410,-250,4,2,1,60,0,0
94576,-50,4,2,1,60,0,0
94910,-166.666666666667,4,2,1,60,0,0
95076,-100,4,2,1,60,0,0
95243,-71.4285714285714,4,2,1,60,0,0
95326,-83.3333333333333,4,2,1,60,0,0
95410,-100,4,2,1,60,0,0
95493,-125,4,2,1,60,0,0
96243,-125,4,2,1,50,0,0
96910,-50,4,2,1,60,0,0
97326,-62.5,4,2,1,60,0,0
97493,-125,4,2,1,60,0,0
97743,-66.6666666666667,4,2,1,60,0,0
98132,-100,4,2,1,60,0,0
98410,-66.6666666666667,4,2,1,60,0,0
98660,-50,4,2,1,60,0,0
98910,-166.666666666667,4,2,1,60,0,0
99076,-50,4,2,1,60,0,0
99326,-166.666666666667,4,2,1,60,0,0
99493,-50,4,2,1,60,0,0
99993,-66.6666666666667,4,2,1,60,0,0
100243,-50,4,2,1,60,0,0
100910,-66.6666666666667,4,2,1,60,0,0
101076,-100,4,2,1,60,0,0
101243,-50,4,2,1,60,0,0
101577,-100,4,2,1,60,0,0
101910,-100,4,2,2,60,0,0
101993,-100,4,2,1,60,0,0
102160,-100,4,2,2,60,0,0
102243,-66.6666666666667,4,2,1,60,0,0
102743,-100,4,2,2,60,0,0
102910,-40,4,2,1,60,0,0
103076,-100,4,2,2,60,0,0
103160,-100,4,2,1,60,0,0
103326,-50,4,2,2,60,0,0
103410,-100,4,2,1,60,0,0
103576,-100,4,2,2,60,0,0
103743,-100,4,2,1,60,0,0
104160,-100,4,2,2,60,0,0
104243,-50,4,2,1,60,0,0
104576,-100,4,2,2,60,0,0
104660,-125,4,2,1,60,0,0
105243,-66.6666666666667,4,2,1,60,0,0
105576,-100,4,2,1,60,0,0
105743,-125,4,2,2,60,0,0
106076,-45.4545454545455,4,2,2,60,0,0
106410,-100,4,2,2,60,0,0
106493,-100,4,2,1,60,0,0
106576,-58.8235294117647,4,2,1,60,0,0
106910,-125,4,2,1,60,0,0
107035,-100,4,2,1,60,0,0
107160,-62.5,4,2,1,60,0,0
107410,-166.666666666667,4,2,1,60,0,0
107576,-50,4,2,2,70,0,1
107910,-250,4,2,2,70,0,1
108076,-166.666666666667,4,2,1,70,0,1
108576,-250,4,2,2,70,0,1
108660,-125,4,2,1,70,0,1
108826,-250,4,2,2,70,0,1
108910,-125,4,2,1,70,0,1
109243,-250,4,2,1,70,0,1
109410,-50,4,2,2,70,0,1
109743,-250,4,2,2,70,0,1
109827,-125,4,2,1,70,0,1
109993,-250,4,2,2,70,0,1
110076,-100,4,2,1,70,0,1
110243,-50,4,2,1,70,0,1
110576,-250,4,2,1,70,0,1
110826,-166.666666666667,4,2,2,70,0,1
111076,-166.666666666667,4,2,1,70,0,1
111243,-166.666666666667,4,2,2,70,0,1
111326,-166.666666666667,4,2,1,70,0,1
111576,-50,4,2,1,70,0,1
111743,-166.666666666667,4,2,2,70,0,1
111826,-250.000000000001,4,2,1,70,0,1
112160,-166.666666666667,4,2,2,70,0,1
112243,-166.666666666667,4,2,1,70,0,1
112493,-166.666666666667,4,2,2,70,0,1
112576,-166.666666666667,4,2,1,70,0,1
112660,-166.666666666667,4,2,2,70,0,1
112743,-166.666666666667,4,2,1,70,0,1
112910,-50,4,2,1,70,0,1
113160,-250,4,2,2,70,0,1
113576,-166.666666666667,4,2,1,70,0,1
113910,-166.666666666667,4,2,2,70,0,1
113993,-166.666666666667,4,2,1,70,0,1
114160,-166.666666666667,4,2,2,70,0,1
114243,-125,4,2,1,70,0,1
114576,-250,4,2,1,70,0,1
114743,-125,4,2,2,70,0,1
115160,-125,4,2,1,70,0,1
115326,-125,4,2,2,70,0,1
115410,-166.666666666667,4,2,2,70,0,1
115660,-125,4,2,2,70,0,1
115826,-166.666666666667,4,2,1,70,0,1
116160,-250.000000000001,4,2,2,70,0,1
116410,-250.000000000001,4,2,1,70,0,1
116493,-166.666666666667,4,2,2,70,0,1
116910,-83.3333333333333,4,2,2,70,0,1
117576,-333.333333333333,4,2,2,50,0,1
118076,-45.4545454545455,4,2,2,70,0,1
118243,-50,4,2,2,70,0,1
118576,-250,4,2,2,70,0,1
118826,-166.666666666667,4,2,1,70,0,1
119243,-166.666666666667,4,2,2,70,0,1
119410,-166.666666666667,4,2,1,70,0,1
119493,-125,4,2,2,70,0,1
119743,-250,4,2,1,70,0,1
120076,-166.666666666667,4,2,2,70,0,1
120743,-125,4,2,2,70,0,1
121160,-166.666666666667,4,2,2,70,0,1
121743,-250.000000000001,4,2,1,70,0,1
121993,-250.000000000001,4,2,2,70,0,1
122243,-50,4,2,2,70,0,1
122410,-250.000000000001,4,2,1,70,0,1
122743,-166.666666666667,4,2,2,70,0,1
123076,-250.000000000001,4,2,1,70,0,1
123326,-166.666666666667,4,2,2,70,0,1
123576,-50,4,2,2,70,0,1
123910,-250,4,2,2,70,0,1
124243,-166.666666666667,4,2,2,70,0,1
124493,-166.666666666667,4,2,1,70,0,1
124576,-125,4,2,2,70,0,1
125076,-250,4,2,1,70,0,1
125160,-250,4,2,2,70,0,1
125576,-166.666666666667,4,2,2,70,0,1
125826,-166.666666666667,4,2,1,70,0,1
125993,-125,4,2,2,70,0,1
126493,-166.666666666667,4,2,1,70,0,1
126826,-125,4,2,2,70,0,1
127076,-100,4,2,1,70,0,1
127160,-100,4,2,2,70,0,1
127576,-50,4,2,2,70,0,1
127910,-250,4,2,2,70,0,1
128243,-166.666666666667,4,2,2,70,0,0
128743,-45.4545454545455,4,2,2,70,0,0
128910,-166.666666666667,4,2,2,70,0,0
129317,-45.4545454545455,4,2,2,70,0,0
129576,-100,4,2,1,80,0,1
129910,-166.666666666667,4,2,1,80,0,1
130243,-100,4,2,1,80,0,1
130576,-125,4,2,1,80,0,1
130799,-125,4,2,1,80,0,1
131799,-100,4,2,1,80,0,1
131910,-83.3333333333333,4,2,1,80,0,1
132021,-100,4,2,1,80,0,1
132132,-125,4,2,1,80,0,1
133243,-166.666666666667,4,2,1,80,0,1
133576,-100,4,2,1,80,0,1
135576,-71.4285714285714,4,2,1,80,0,1
135910,-166.666666666667,4,2,1,80,0,1
136243,-100,4,2,1,80,0,1
136576,-166.666666666667,4,2,1,80,0,1
137132,-100,4,2,1,80,0,1
137576,-83.3333333333333,4,2,1,80,0,1
138243,-125,4,2,1,80,0,1
138576,-62.5,4,2,1,80,0,1
138910,-50,4,2,1,80,0,1
139410,-333.333333333333,4,2,1,80,0,1
140243,-100,4,2,1,80,0,1
140576,-166.666666666667,4,2,1,80,0,1
141132,-100,4,2,1,80,0,1
143243,-83.3333333333333,4,2,1,80,0,1
143799,-100,4,2,1,80,0,1
146576,-83.3333333333333,4,2,1,80,0,1
146910,-125,4,2,1,80,0,1
147576,-100,4,2,1,80,0,1
148243,-100,4,2,1,50,0,0
149576,-125,4,2,1,50,0,0
152910,-125,4,2,2,50,0,0
153021,-125,4,2,1,50,0,0
153243,-125,4,2,2,50,0,0
153354,-125,4,2,1,50,0,0
154576,-125,4,2,2,50,0,0
154687,-125,4,2,1,50,0,0
154910,-100,4,2,1,50,0,0
156910,-166.666666666667,4,2,1,50,0,0
157299,-55.5555555555556,4,2,1,50,0,0
157576,-125,4,2,1,50,0,0
158243,-125,4,2,2,50,0,0
158354,-125,4,2,1,50,0,0
158576,-125,4,2,2,50,0,0
158687,-125,4,2,1,50,0,0
159243,-55.5555555555556,4,2,1,50,0,0
159510,-100,4,2,1,50,0,0
160910,-62.5,4,2,1,50,0,0
161576,-100,4,2,1,50,0,0
162243,-62.5,4,2,1,50,0,0
162576,-100,4,2,1,50,0,0
167576,-125,4,2,1,50,0,0
167910,-55.5555555555556,4,2,1,50,0,0
168465,-100,4,2,1,50,0,0
169910,-55.5555555555556,4,2,1,50,0,0
170243,-250,4,2,1,50,0,0
170576,-100,4,2,1,50,0,0
170910,-83.3333333333333,4,2,1,50,0,0
171132,-100,4,2,1,50,0,0
175799,-125,4,2,1,50,0,0
175910,-100,4,2,1,50,0,0
176243,326.086956521739,4,2,1,50,1,0
178851,309.278350515464,4,2,1,50,1,0
179469,-71.4285714285714,4,2,1,50,0,0
179675,-100,4,2,1,50,0,0
180706,-76.9230769230769,4,2,1,50,0,0
181321,2000,4,2,1,50,1,0
181321,-166.666666666667,4,2,1,50,0,0
182071,-166.666666666667,4,2,1,5,0,0
182321,1875,4,2,1,50,1,0
182321,-166.666666666667,4,2,1,50,0,0
183024,-166.666666666667,4,2,1,5,0,0
183258,1764.70588235294,4,2,1,50,1,0
183258,-166.666666666667,4,2,1,50,0,0
183919,-166.666666666667,4,2,1,5,0,0
184140,1500,4,2,1,50,1,0
184140,-222.222222222222,4,2,1,50,0,0
184890,-166.666666666667,4,2,1,5,0,0
185640,1463.41463414634,4,2,1,50,1,0
185640,-166.666666666667,4,2,1,50,0,0
186188,-166.666666666667,4,2,1,5,0,0
186378,1363.63636363636,4,2,1,50,1,0
186378,-166.666666666667,4,2,1,50,0,0
186889,-166.666666666667,4,2,1,5,0,0
187059,1250,4,2,1,50,1,0
187059,-166.666666666667,4,2,1,50,0,0
187527,-166.666666666667,4,2,1,5,0,0
187684,1176.47058823529,4,2,1,50,1,0
187684,-166.666666666667,4,2,1,50,0,0
188125,-166.666666666667,4,2,1,5,0,0
188272,1132.07547169811,4,2,1,50,1,0
188272,-166.666666666667,4,2,1,50,0,0
188696,-166.666666666667,4,2,1,5,0,0
188838,1111.11111111111,4,2,1,50,1,0
188838,-166.666666666667,4,2,1,50,0,0
189254,-166.666666666667,4,2,1,5,0,0
189393,1034.48275862069,4,2,1,50,1,0
189393,-222.222222222222,4,2,1,50,0,0
189910,-166.666666666667,4,2,1,5,0,0
190427,1000,4,2,1,50,1,0
190427,-166.666666666667,4,2,1,50,0,0
190802,-166.666666666667,4,2,1,5,0,0
190927,937.5,4,2,1,50,1,0
190927,-166.666666666667,4,2,1,50,0,0
191278,-166.666666666667,4,2,1,5,0,0
191395,909.090909090909,4,2,1,50,1,0
191395,-166.666666666667,4,2,1,50,0,0
191735,-166.666666666667,4,2,1,5,0,0
191849,869.565217391304,4,2,1,50,1,0
191849,-166.666666666667,4,2,1,50,0,0
192175,-166.666666666667,4,2,1,5,0,0
192283,821.917808219178,4,2,1,50,1,0
192283,-166.666666666667,4,2,1,50,0,0
192591,-166.666666666667,4,2,1,5,0,0
192693,810.810810810811,4,2,1,50,1,0
192693,-166.666666666667,4,2,1,50,0,0
192997,-166.666666666667,4,2,1,5,0,0
193098,779.220779220779,4,2,1,50,1,0
193098,-166.666666666667,4,2,1,50,0,0
193390,-166.666666666667,4,2,1,5,0,0
193487,750,4,2,1,50,1,0
193487,-166.666666666667,4,2,1,50,0,0
193768,-166.666666666667,4,2,1,5,0,0
193862,722.89156626506,4,2,1,50,1,0
193862,-166.666666666667,4,2,1,50,0,0
194133,-166.666666666667,4,2,1,5,0,0
194223,714.285714285714,4,2,1,50,1,0
194223,-166.666666666667,4,2,1,50,0,0
194490,-166.666666666667,4,2,1,5,0,0
194580,705.882352941176,4,2,1,50,1,0
194580,-166.666666666667,4,2,1,50,0,0
194844,-166.666666666667,4,2,1,5,0,0
194932,681.818181818182,4,2,1,50,1,0
194932,-166.666666666667,4,2,1,50,0,0
195187,-166.666666666667,4,2,1,5,0,0
195272,666.666666666667,4,2,1,50,1,0
195272,-111.111111111111,4,2,1,50,0,0
195438,-166.666666666667,4,2,1,5,0,0
195605,652.173913043478,4,2,1,50,1,0
195605,-111.111111111111,4,2,1,50,0,0
195768,-166.666666666667,4,2,1,5,0,0
195931,625,4,2,1,50,1,0
195931,-111.111111111111,4,2,1,50,0,0
196087,-166.666666666667,4,2,1,5,0,0
196243,588.235294117647,4,2,1,50,1,0
196243,-111.111111111111,4,2,1,50,0,0
196390,-166.666666666667,4,2,1,5,0,0
196537,582.52427184466,4,2,1,50,1,0
196537,-111.111111111111,4,2,1,50,0,0
196682,-166.666666666667,4,2,1,5,0,0
196828,576.923076923077,4,2,1,50,1,0
196828,-111.111111111111,4,2,1,50,0,0
196972,-166.666666666667,4,2,1,5,0,0
197116,571.428571428571,4,2,1,50,1,0
197116,-111.111111111111,4,2,1,50,0,0
197258,-166.666666666667,4,2,1,5,0,0
197401,566.037735849057,4,2,1,50,1,0
197401,-111.111111111111,4,2,1,50,0,0
197542,-166.666666666667,4,2,1,5,0,0
197684,560.747663551402,4,2,1,50,1,0
197684,-111.111111111111,4,2,1,50,0,0
197824,-166.666666666667,4,2,1,5,0,0
197964,530.973451327434,4,2,1,50,1,0
197964,-111.111111111111,4,2,1,50,0,0
198096,-166.666666666667,4,2,1,5,0,0
198229,526.315789473684,4,2,1,50,1,0
198229,-111.111111111111,4,2,1,50,0,0
198360,-166.666666666667,4,2,1,5,0,0
198492,512.820512820513,4,2,1,50,1,0
198492,-111.111111111111,4,2,1,50,0,0
198620,-166.666666666667,4,2,1,5,0,0
198748,500,4,2,1,50,1,0
198748,-111.111111111111,4,2,1,50,0,0
198873,-166.666666666667,4,2,1,5,0,0
198998,483.870967741935,4,2,1,50,1,0
198998,-111.111111111111,4,2,1,50,0,0
199118,-166.666666666667,4,2,1,5,0,0
199239,472.44094488189,4,2,1,50,1,0
199239,-111.111111111111,4,2,1,50,0,0
199357,-166.666666666667,4,2,1,5,0,0
199475,468.75,4,2,1,50,1,0
199475,-111.111111111111,4,2,1,50,0,0
199592,-166.666666666667,4,2,1,5,0,0
199709,465.116279069767,4,2,1,50,1,0
199709,-111.111111111111,4,2,1,50,0,0
199825,-166.666666666667,4,2,1,5,0,0
199941,458.015267175573,4,2,1,50,1,0
199941,-111.111111111111,4,2,1,50,0,0
200055,-166.666666666667,4,2,1,5,0,0
200170,454.545454545455,4,2,1,50,1,0
200170,-111.111111111111,4,2,1,50,0,0
200283,-166.666666666667,4,2,1,5,0,0
200397,447.761194029851,4,2,1,50,1,0
200397,-111.111111111111,4,2,1,50,0,0
200508,-166.666666666667,4,2,1,5,0,0
200620,444.444444444444,4,2,1,50,1,0
200620,-111.111111111111,4,2,1,50,0,0
200731,-166.666666666667,4,2,1,5,0,0
200842,437.956204379562,4,2,1,50,1,0
200842,-111.111111111111,4,2,1,50,0,0
200951,-166.666666666667,4,2,1,5,0,0
201060,431.654676258993,4,2,1,50,1,0
201060,-111.111111111111,4,2,1,50,0,0
201167,-166.666666666667,4,2,1,5,0,0
201275,425.531914893617,4,2,1,50,1,0
201275,-111.111111111111,4,2,1,50,0,0
201381,-166.666666666667,4,2,1,5,0,0
201487,384.615384615385,4,2,1,50,1,0
201487,-333.333333333332,4,2,1,50,0,0
202644,333.333333333333,4,2,1,30,1,0
202644,-500,4,2,1,30,0,0
205310,-555.555555555556,4,2,1,25,0,0
207977,-625,4,2,1,20,0,0
210644,-714.285714285714,4,2,1,15,0,0
213310,-833.333333333333,4,2,1,10,0,0
215977,-1000,4,2,1,5,0,0
223977,-107.52688172043,4,2,1,60,0,0
224643,-90.0900900900901,4,2,1,60,0,0
225310,-64.1025641025641,4,2,1,60,0,0
225977,-29.4117647058824,4,2,1,60,0,0
226310,-100,4,2,1,60,0,0
226643,-107.52688172043,4,2,1,60,0,0
227309,-90.0900900900901,4,2,1,60,0,0
227976,-64.1025641025641,4,2,1,60,0,0
228643,-100,4,2,1,60,0,0
229977,-87.719298245614,4,2,1,60,0,0
231310,-50,4,2,1,60,0,0
231643,-100,4,2,1,60,0,0
231977,-62.5,4,2,1,60,0,0
232393,-62.5,4,2,2,60,0,0
232476,-62.5,4,2,1,60,0,0
232560,-62.5,4,2,2,60,0,0
232643,-125,4,2,1,60,0,0
232810,-125,4,2,2,60,0,0
233143,-125,4,2,1,60,0,0
233227,-125,4,2,2,60,0,0
234310,-125,4,2,1,60,0,0
234477,-125,4,2,2,60,0,0
234643,-166.666666666667,4,2,2,70,0,1
234810,-166.666666666667,4,2,1,70,0,1
236810,-166.666666666667,4,2,2,70,0,1
236977,-166.666666666667,4,2,1,70,0,1
239310,-111.111111111111,4,2,1,70,0,1
239643,-50,4,2,1,70,0,1
240643,-166.666666666667,4,2,1,70,0,1
242143,-166.666666666667,4,2,2,70,0,1
242310,-166.666666666667,4,2,1,70,0,1
242643,-100,4,2,1,50,0,0
243227,-100,4,2,2,50,0,0
243477,-100,4,2,1,50,0,0
244143,-100,4,2,2,50,0,0
244393,-100,4,2,1,50,0,0
244560,-100,4,2,2,50,0,0
245310,-41.6666666666667,4,2,2,70,0,1
245643,-62.5,4,2,2,70,0,1
245977,-166.666666666667,4,2,1,70,0,1
247477,-166.666666666667,4,2,2,70,0,1
247644,-166.666666666667,4,2,1,70,0,1
249977,-111.111111111111,4,2,1,70,0,1
250310,-40,4,2,1,70,0,1
250810,-166.666666666667,4,2,1,70,0,1
252810,-166.666666666667,4,2,2,70,0,1
252977,-166.666666666667,4,2,1,70,0,1
253310,-100,4,2,1,50,0,0
255977,-166.666666666667,4,2,1,50,0,0
258310,-100,4,2,1,50,0,0
258643,-166.666666666667,4,2,1,50,0,0
266310,-500.000000000003,4,2,1,50,0,0
266643,-200,4,2,1,50,0,0
274643,-500,4,2,1,50,0,0
277393,-100,4,2,1,10,0,0
293310,-100,4,2,1,5,0,0

[Colours]
Combo1 : 252,190,239
Combo2 : 147,255,255
Combo3 : 88,213,222
Combo4 : 74,255,165
Combo5 : 222,174,251
Combo6 : 251,117,102
Combo7 : 252,171,185
Combo8 : 249,202,138

[HitObjects]
259,260,42910,6,0,P|354:262|377:159,1,217,6|0,0:0|0:0,0:0:0:0:
224,108,45577,6,0,P|129:172|179:287,1,260.400006357422,6|0,0:0|0:0,0:0:0:0:
359,240,48243,102,0,P|403:113|277:40,1,303.800003708496,6|0,0:0|0:0,0:0:0:0:
135,194,50910,6,0,P|178:340|344:323,1,347.2,6|0,0:0|0:0,0:0:0:0:
0,0,53576,102,0,P|42:85|46:206,1,217,6|0,0:0|0:0,0:0:0:0:
466,384,56243,6,0,P|466:276|512:178,1,217,6|0,0:0|0:0,0:0:0:0:
256,192,58910,101,6,0:0:0:0:
256,192,58993,12,0,64076,0:0:0:0:
271,203,64243,22,2,B|127:155|298:61|66:-12|136:92|31:36,2,322.000006141663,8|0|0,1:3|3:0|3:0,0:1:0:0:
222,69,64743,101,0,1:0:0:0:
232,82,64826,1,0,3:0:0:0:
240,94,64910,2,0,L|218:162,1,52.5000020027161,8|0,3:2|3:0,0:0:0:0:
271,203,65076,2,0,B|242:180|242:180|157:206,1,105,0|0,3:0|0:0,0:0:0:0:
31,125,65243,101,0,1:0:0:0:
29,117,65326,2,0,B|25:94|25:94|86:39|86:39|106:47|106:47|124:129|124:129|106:142|106:142|48:121,1,280,8|8,3:2|0:0,0:0:0:0:
0,220,65576,6,0,B|29:243|29:243|114:217,1,105,0|0,1:0|3:0,0:0:0:0:
177,200,65743,102,0,B|179:213|179:213|134:253|134:253|120:247|120:247|107:188|107:188|120:178|120:178|162:193,1,210.000008010865,8|8,3:3|3:2,0:0:0:0:
151,278,65993,5,8,0:0:0:0:
161,292,66076,1,0,1:0:0:0:
154,299,66132,2,0,L|126:306,2,23.3333333333333,8|8|8,0:0|0:0|0:0,0:0:0:0:
94,223,66243,101,8,3:2:0:0:
72,235,66326,1,0,3:2:0:0:
86,253,66410,2,0,L|151:278,1,70,8|0,3:2|3:0,0:0:0:0:
309,339,66576,5,0,1:0:0:0:
304,345,66660,2,0,B|325:365|325:365|346:357|346:357|368:251|368:251|348:233|348:233|263:284,1,280,8|8,3:2|0:0,0:0:0:0:
206,370,66910,102,0,L|222:328,1,35,0|0,1:0|0:0,0:0:0:0:
260,279,67076,6,0,B|241:296|241:296|222:289|222:289|202:194|202:194|220:178|220:178|296:224,1,210,4|8,3:3|0:0,0:0:0:0:
319,146,67410,101,0,1:0:0:0:
305,110,67493,1,0,3:0:0:0:
291,74,67576,1,8,3:2:0:0:
297,68,67743,6,0,L|349:85,1,35,8|0,3:2|0:0,0:0:0:0:
464,210,67910,101,0,1:0:0:0:
461,217,67993,2,0,B|419:231|419:231|400:217|400:217|406:168|406:168|388:153|388:153|239:206|239:206,1,280,8|8,3:2|3:2,0:0:0:0:
229,281,68243,6,0,B|243:312|243:312|235:265,1,70,0|0,1:0|0:0,0:0:0:0:
155,275,68410,102,0,B|187:285|187:285|202:275|202:275|197:237|197:237|211:225|211:225|327:266|327:266,1,210.000008010865,8|8,3:3|3:2,0:0:0:0:
393,260,68660,5,8,0:0:0:0:
409,283,68743,1,0,1:0:0:0:
400,292,68799,2,0,L|366:300,2,23.3333333333333,8|8|8,0:2|0:0|0:0,0:0:0:0:
342,191,68910,101,8,3:2:0:0:
342,191,69076,1,8,0:0:0:0:
350,382,69243,6,2,B|362:302|362:302|344:285|344:285|302:294|302:294|283:276|283:276|306:124|306:124|330:111|330:111|344:24,1,420,0|0,1:0|0:0,0:1:0:0:
512,62,69576,102,0,B|504:33|504:33|421:2,1,105.000004005432,0|0,1:0|0:0,0:0:0:0:
430,13,69743,2,0,B|408:35|408:35|422:123,1,105.000004005432,8|0,3:2|0:0,0:0:0:0:
426,111,69910,2,0,L|456:122,1,17.5,8|8,0:0|0:0,0:0:0:0:
508,66,70076,6,0,L|419:92,1,70,0|0,1:0|0:0,0:0:0:0:
233,156,70243,102,0,B|239:183|239:183|304:206|304:206|326:187|326:187|315:120|315:120|287:110|287:110|242:146,1,280,0|8,1:0|3:2,0:0:0:0:
479,367,70576,5,0,1:0:0:0:
485,363,70660,2,0,B|499:301|499:301|483:286|483:286|395:307|395:307|378:290|378:290|400:202,1,280,8|8,3:2|0:0,0:0:0:0:
471,265,70910,102,0,B|482:214|482:214|467:199|467:199|408:214|408:214|386:297,1,210.000008010865,0|8,1:0|3:2,0:0:0:0:
478,269,71160,2,0,L|521:259,2,35,8|8|8,0:0|3:2|3:2,0:0:0:0:
341,356,71326,5,8,3:2:0:0:
322,338,71410,1,0,1:0:0:0:
314,344,71465,2,0,L|276:335,2,23.3333333333333,8|8|8,0:2|0:0|0:0,0:0:0:0:
415,366,71576,101,8,3:2:0:0:
433,384,71660,1,0,1:0:0:0:
452,377,71743,2,0,L|439:329,1,41.9999987182618,8|0,3:2|3:0,0:0:0:0:
382,122,71910,5,0,1:0:0:0:
375,144,71993,2,0,L|395:211,1,70,8|0,3:2|3:0,0:0:0:0:
483,273,72160,101,8,3:2:0:0:
488,277,72243,2,2,B|500:240|500:240|483:223|483:223|352:262|352:262|344:290|344:290|224:325|224:325|207:307|207:307|222:268,1,420,4|0,1:3|0:0,0:1:0:0:
285,228,72576,6,0,L|332:242,1,41.9999987182618,8|8,3:2|0:2,0:0:0:0:
441,336,72743,101,0,1:0:0:0:
409,325,72826,1,8,3:2:0:0:
379,317,72910,1,8,0:0:0:0:
379,317,73076,5,8,3:2:0:0:
191,191,73243,101,0,1:0:0:0:
186,198,73326,2,0,B|146:214|146:214|124:205|124:205|105:117|105:117|123:95|123:95|226:130,1,280,8|8,3:2|3:2,0:0:0:0:
302,174,73576,6,0,L|283:91,1,70,0|0,1:0|0:0,0:0:0:0:
288,31,73743,2,0,L|307:119,1,90.9999958343508,8|0,3:2|0:0,0:0:0:0:
370,231,73910,101,8,3:2:0:0:
374,236,73993,2,0,B|439:258|439:258|452:242|452:242|438:178|438:178,1,140,8|0,3:2|1:2,0:0:0:0:
405,130,74132,2,0,L|382:137,2,23.3333333333333,8|8|8,0:0|0:0|0:0,0:0:0:0:
483,84,74243,5,8,3:2:0:0:
475,73,74326,1,0,3:0:0:0:
466,64,74410,2,0,L|417:49,1,41.9999987182618,8|0,3:2|3:0,0:0:0:0:
288,31,74576,102,2,B|262:11|262:11|234:21|234:21|221:102|221:102|242:125|242:125|480:48|480:48|503:65|503:65|493:121|493:121|452:136|452:136|435:227|435:227,1,612.5,0|0,1:0|0:0,0:1:0:0:
503,250,74910,5,0,1:0:0:0:
503,250,75076,1,8,3:2:0:0:
359,353,75243,101,8,3:2:0:0:
352,355,75326,2,0,B|326:322|326:322|330:304|330:304|385:280|385:280|404:297|404:297,1,140,8|0,0:0|1:0,0:0:0:0:
370,185,75493,5,8,3:2:0:0:
363,187,75576,2,0,B|337:220|337:220|341:238|341:238|451:281|451:281|467:271|467:271|440:187|440:187,1,280,8|0,0:0|1:0,0:0:0:0:
503,335,75910,101,0,1:0:0:0:
506,340,75993,2,0,L|495:390,1,41.9999987182618,8|0,3:2|3:0,0:0:0:0:
462,120,76160,5,8,3:2:0:0:
457,124,76243,2,0,L|441:199,1,70,0|0,1:0|3:0,0:0:0:0:
319,263,76410,102,0,B|277:248|277:248|264:258|264:258|277:317|277:317|291:323|291:323|336:283|336:283|334:270,1,210.000008010865,8|8,3:3|3:2,0:0:0:0:
380,360,76660,5,8,3:2:0:0:
364,374,76743,1,0,1:0:0:0:
374,382,76799,2,0,L|413:370,2,23.3333333333333,8|8|8,0:0|0:0|0:0,0:0:0:0:
462,339,76910,101,8,3:2:0:0:
488,356,76993,1,0,3:0:0:0:
506,340,77076,2,0,L|487:256,1,70,8|0,0:0|3:0,0:0:0:0:
380,106,77243,5,0,1:0:0:0:
379,98,77326,2,0,B|337:84|337:84|318:98|318:98|324:147|324:147|306:162|306:162|157:109|157:109,1,280,8|8,3:2|0:2,0:0:0:0:
235,215,77576,102,0,L|222:169,1,41.9999987182618,0|0,1:0|0:2,3:2:0:0:
268,49,77743,6,0,B|234:60|234:60|219:49|219:49|224:10|224:10|210:-1|210:-1|92:40|92:40,1,210.000008010865,4|8,3:3|0:2,0:0:0:0:
60,83,77993,1,8,0:0:0:0:
65,89,78076,2,0,L|107:106,1,41.9999987182618,0|0,1:0|3:2,0:0:0:0:
314,190,78243,101,8,3:2:0:0:
314,190,78410,1,8,0:0:0:0:
90,183,78576,5,0,1:0:0:0:
96,186,78660,2,0,B|97:208|97:208|41:254|41:254|14:244|14:244|2:171|2:171|24:153|24:153|84:176,1,280,8|8,3:2|0:0,0:0:0:0:
235,215,78910,102,0,L|159:234,1,41.9999987182618,0|0,1:0|0:0,0:0:0:0:
68,226,79076,6,0,B|29:239|29:239|12:226|12:226|26:169|26:169|46:163|46:163|86:200|86:200|84:216,1,210.000008010865,4|8,3:0|0:0,0:0:0:0:
97,313,79326,101,8,3:2:0:0:
73,338,79410,1,0,1:0:0:0:
64,331,79465,2,0,L|55:305,2,23.3333333333333,8|8|8,0:0|0:0|0:0,0:0:0:0:
177,305,79576,5,8,3:2:0:0:
212,293,79660,1,0,3:0:0:0:
237,318,79743,2,0,P|244:356|220:401,1,70,8|0,3:2|3:0,0:0:0:0:
0,384,79910,6,2,P|73:239|354:188,1,462.000014099122,0|0,1:0|0:0,0:1:0:0:
347,185,80243,1,6,1:2:0:0:
17,194,80410,86,0,L|87:214,1,70,8|0,3:2|0:0,0:0:0:0:
217,201,80576,5,8,3:2:0:0:
220,207,80660,2,0,B|239:211|239:211|287:128|287:128|264:109|264:109|124:150,1,280,8|8,0:0|3:2,0:0:0:0:
71,111,80910,2,0,B|62:92|62:92|105:9|105:9|146:13|146:13|162:79,1,210.000008010865,8|8,3:2|0:0,0:0:0:0:
337,260,81243,101,0,1:0:0:0:
334,267,81326,2,0,B|403:297|403:297|434:282|434:282|414:183|414:183|384:172|384:172|303:222|303:222|298:250|298:250|332:265,1,280,8|8,3:2|0:0,0:0:0:0:
449,231,81576,6,0,L|516:209,1,41.9999987182618,0|0,1:0|0:0,0:0:0:0:
288,163,81743,102,0,L|353:192,1,70,8|0,3:2|0:0,0:0:0:0:
428,375,81910,5,8,3:2:0:0:
433,376,81993,2,0,B|432:382|445:314|445:314|424:303|424:303|376:325,1,140,8|0,3:2|1:0,0:0:0:0:
367,320,82132,2,0,L|373:339,2,13.9999995727539,8|8|8,0:0|0:0|0:0,0:0:0:0:
336,245,82243,101,8,3:2:0:0:
344,218,82326,1,0,3:0:0:0:
352,192,82410,2,0,L|407:171,1,41.9999987182618,8|0,3:2|3:0,0:0:0:0:
492,146,82576,5,8,3:2:0:0:
496,135,82660,1,8,0:0:0:0:
418,27,82826,101,8,0:0:0:0:
423,30,82910,2,0,L|439:95,1,41.9999987182618,0|8,1:0|0:0,0:0:0:0:
512,24,83076,6,2,B|457:12|457:12|433:27|433:27|444:77|444:77|417:94|417:94|287:55,1,280,8|8,3:0|3:2,0:1:0:0:
236,70,83326,101,8,3:2:0:0:
231,74,83410,2,0,B|220:75|220:75|191:41|191:41|198:23|198:23|271:9,1,140,0|8,1:0|3:2,0:0:0:0:
338,107,83576,5,8,3:2:0:0:
330,104,83660,1,0,3:0:0:0:
322,102,83743,2,0,L|302:35,1,41.9999987182618,8|0,3:2|3:0,0:0:0:0:
353,6,83910,101,0,1:0:0:0:
358,0,83993,2,0,L|436:19,1,56,8|0,3:2|3:0,0:0:0:0:
422,87,84160,6,0,L|411:103,3,13.9999995727539,8|0|0|0,3:2|3:0|3:0|1:0,0:0:0:0:
452,190,84410,101,0,3:2:0:0:
447,183,84493,2,0,B|388:167|388:167|371:184|371:184|377:224|377:224|359:240|359:240|222:200,1,262.500010013581,0|0,1:0|3:0,0:0:0:0:
248,202,84743,2,0,B|272:180|272:180|343:201|343:201|348:231|348:231|306:267,1,157.500006008148,0|0,1:0|0:0,0:0:0:0:
258,288,84910,6,0,L|222:296,1,20.9999993591309,8|0,3:2|0:0,0:0:0:0:
453,346,85326,6,2,P|443:309|301:251,1,175,2|0,0:0|0:0,0:0:0:0:
238,293,85576,101,0,1:0:0:0:
238,293,85910,2,0,L|255:355,1,35,8|0,0:0|0:0,0:0:0:0:
244,218,86076,1,4,1:3:0:0:
332,338,86243,6,0,P|364:332|389:303,1,70,2|0,3:2|3:0,0:0:0:0:
463,334,86410,2,0,P|472:301|463:278,1,56,2|0,3:2|3:0,0:0:0:0:
378,190,86576,101,0,1:0:0:0:
381,185,86660,2,0,B|369:164|369:164|280:147|280:147|261:163|261:163|288:250|288:250|314:258|314:258|348:232,1,280,8|8,3:2|3:2,0:0:0:0:
512,227,86910,6,0,P|492:207|473:204,1,41.9999987182618,2|0,1:2|3:0,0:0:0:0:
382,93,87076,102,0,B|372:109|372:109|299:123|299:123|284:110|284:110|306:39|306:39|327:32|327:32,1,210.000008010865,8|8,3:3|3:2,0:0:0:0:
502,135,87326,5,8,3:2:0:0:
481,121,87410,1,0,1:0:0:0:
468,122,87465,2,0,P|456:127|447:138,2,23.3333333333333,10|8|8,0:0|0:0|0:0,0:0:0:0:
381,185,87576,102,0,P|351:172|340:160,1,41.9999987182618,10|0,3:2|3:0,0:0:0:0:
273,191,87743,2,0,P|265:160|283:118,1,70,10|0,3:2|3:0,0:0:0:0:
428,24,87910,5,0,1:0:0:0:
433,19,87993,2,0,B|455:30|455:30|469:97|469:97|452:117|452:117|392:100|392:100|369:116|369:116|382:189,1,280,8|8,3:2|3:2,0:0:0:0:
205,82,88243,102,0,P|222:57|305:47,1,97.9999970092775,2|0,1:2|3:0,0:0:0:0:
449,135,88410,6,0,B|460:195|460:195|444:206|444:206|387:191,1,140,4|0,3:0|3:0,0:0:0:0:
273,191,88576,101,8,3:2:0:0:
270,186,88660,2,0,B|205:168|205:168|186:181|186:181|200:246|200:246|184:260|184:260|69:232,1,280,8|8,3:2|3:2,0:0:0:0:
120,108,88910,6,0,P|91:128|84:178,1,70,10|0,3:2|3:0,0:0:0:0:
1,171,89076,2,0,P|6:195|32:219,1,41.9999987182618,10|0,3:2|3:0,0:0:0:0:
160,361,89243,101,0,1:0:0:0:
163,367,89326,2,0,B|191:375|191:375|246:329|246:329|241:306|241:306|148:283|148:283|131:299|131:299|149:342,1,280,8|8,3:2|3:2,0:0:0:0:
0,281,89576,6,0,P|17:283|39:275,1,28,10|0,3:2|3:0,0:0:0:0:
205,168,89743,102,0,B|237:159|237:159|298:210|298:210|292:235|292:235|188:261|188:261|170:242|170:242|189:195,1,315.000012016297,8|8,3:0|3:2,0:0:0:0:
320,34,90076,5,0,1:0:0:0:
341,22,90160,1,8,3:2:0:0:
363,30,90243,2,0,P|380:66|332:150,1,97.9999970092774,10|0,3:2|3:0,0:0:0:0:
436,162,90410,2,0,P|409:192|374:199,1,70,10|0,3:2|3:0,0:0:0:0:
240,382,90576,102,2,P|310:221|514:97,1,420,2|0,3:2|0:0,0:1:0:0:
370,271,90910,6,0,P|344:265|328:248,1,41.9999987182618,6|0,1:2|3:0,0:0:0:0:
265,272,91076,2,0,P|259:254|264:239,1,28,10|0,3:2|3:0,0:0:0:0:
206,19,91243,101,8,3:2:0:0:
198,15,91326,2,0,B|116:39|116:39|108:60|108:60|158:129|158:129|152:150|152:150|41:181,1,280,8|8,0:2|3:2,0:0:0:0:
175,380,91576,6,0,P|212:361|219:308,1,70,10|0,3:2|3:0,0:0:0:0:
300,353,91743,2,0,P|302:311|251:268,1,97.9999970092774,10|0,3:2|3:0,0:0:0:0:
86,163,91910,101,0,1:0:0:0:
83,158,91993,2,0,B|63:138|63:138|76:96|76:96|224:54|224:54|247:79|247:79|234:136,1,308.000009399414,8|8,3:2|3:2,0:0:0:0:
155,310,92243,6,0,P|133:310|113:297,1,41.9999987182618,10|0,1:2|3:0,0:0:0:0:
160,240,92410,2,0,P|152:227|150:215,1,28,10|0,3:2|3:0,0:0:0:0:
308,214,92576,101,8,3:2:0:0:
314,213,92660,2,0,B|339:245|339:245|331:272|331:272|280:284|280:284|255:263,1,140,8|0,3:2|1:0,0:0:0:0:
230,212,92799,2,0,P|233:202|243:196,2,13.9999995727539,10|8|8,3:2|0:0|0:0,0:0:0:0:
236,126,92910,6,0,P|279:102|293:36,1,97.9999970092775,10|0,3:2|3:0,0:0:0:0:
372,69,93076,2,0,P|370:34|342:1,1,70,10|0,3:2|3:0,0:0:0:0:
69,54,93243,101,0,1:0:0:0:
61,51,93326,2,0,B|34:47|34:47|-8:95|-8:95|0:129|0:129|33:142,1,140,8|0,3:2|3:0,0:0:0:0:
227,125,93493,5,8,3:2:0:0:
236,126,93576,2,0,B|252:105|252:105|231:43|231:43|198:34|198:34|170:56,1,140,0|0,1:0|3:0,0:0:0:0:
64,241,93743,102,0,B|73:265|73:265|137:278|137:278|162:253|162:253|156:219,1,140,4|0,3:0|3:0,0:0:0:0:
187,43,93910,6,0,P|160:78|162:117,1,70,10|8,3:2|3:2,0:0:0:0:
90,132,94076,2,0,P|98:152|116:161,1,41.9999987182618,10|8,3:2|3:2,0:0:0:0:
236,206,94243,102,0,B|275:219|275:219|283:250|283:250|245:276|245:276|251:304|251:304|338:337,1,231.000007049561,8|0,3:2|3:0,0:0:0:0:
338,331,94410,6,0,P|343:317|341:304,1,28,10|0,3:2|3:0,0:0:0:0:
185,77,94576,101,0,1:0:0:0:
181,69,94660,2,0,B|187:50|187:50|278:29|278:29|293:43|293:43|269:120|269:120|248:125|248:125|206:94,1,280,8|8,3:2|3:2,0:0:0:0:
400,264,94910,6,0,P|385:246|366:238,1,41.9999987182618,10|0,3:2|3:0,0:0:0:0:
381,167,95076,2,0,P|341:167|311:192,1,70,10|0,3:2|3:0,0:0:0:0:
236,206,95243,102,0,P|226:232|208:247,1,48.9999985046387,10|0,3:2|3:0,0:0:0:0:
208,208,95326,2,0,P|186:226|162:229,1,41.9999987182618,8|0,3:2|3:0,0:0:0:0:
197,196,95410,2,0,P|173:200|154:193,1,35,2|0,1:2|3:0,0:0:0:0:
196,186,95493,2,0,P|173:178|160:162,1,28,10|0,3:2|3:0,0:0:0:0:
213,99,95576,5,0,3:0:0:0:
270,384,96243,101,0,1:0:0:0:
269,384,96410,1,8,3:2:0:0:
328,337,96576,102,0,L|368:347,2,28,8|0|8,3:2|3:0|3:2,0:0:0:0:
157,238,96743,5,0,1:0:0:0:
150,240,96826,1,8,3:2:0:0:
143,241,96910,2,0,B|125:249|125:249|115:317|115:317|135:334|135:334|207:317|207:317|212:280,1,210,8|0,3:2|0:0,0:0:0:0:
231,169,97076,101,8,3:2:0:0:
236,163,97160,2,0,B|237:146|237:146|193:111|193:111|172:118|172:118|155:177|155:177|179:196,1,140,8|0,3:2|1:0,0:0:0:0:
275,263,97326,6,0,B|284:269|284:269|322:254|322:254|325:239|325:239|295:207|295:207|274:215,1,112,8|0,3:2|3:0,0:0:0:0:
89,189,97493,101,8,3:2:0:0:
83,185,97576,2,0,L|13:203,1,56,0|0,1:0|3:0,0:0:0:0:
335,147,97743,6,0,L|460:119,1,105.000004005432,8|0,3:3|3:0,0:0:0:0:
283,53,97910,101,8,3:2:0:0:
279,47,97993,2,0,B|218:30|218:30|205:40|205:40|210:69,1,105.000004005432,8|0,3:2|1:0,0:0:0:0:
215,70,98132,2,0,L|225:109,2,23.3333333333333,8|8|8,0:0|0:0|0:0,0:0:0:0:
159,161,98243,5,8,3:2:0:0:
161,154,98326,1,8,0:2:0:0:
164,147,98410,2,0,B|224:130|224:130|235:144|235:144|229:168,1,105.000004005432,8|0,3:2|3:0,0:0:0:0:
253,275,98576,101,0,1:0:0:0:
262,271,98660,2,0,B|284:200|284:200|273:183|273:183|205:201|205:201|195:186|195:186|226:76,1,280,8|8,3:2|3:2,0:0:0:0:
376,136,98910,6,0,L|328:149,1,41.9999987182618,0|0,1:0|3:0,0:0:0:0:
145,264,99076,102,0,B|133:303|133:303|144:320|144:320|215:299|215:299|249:186|249:186|222:163,1,280,4|8,3:0|3:2,0:0:0:0:
221,170,99326,2,0,L|186:179,2,20.9999993591309,8|8|0,3:2|0:0|1:0,0:0:0:0:
425,205,99493,5,0,1:0:0:0:
431,206,99576,2,0,B|448:221|448:221|427:299|427:299|405:304|405:304|348:248|348:248|356:223|356:223|417:208,1,280,8|8,3:2|3:2,0:0:0:0:
421,254,99910,101,0,1:0:0:0:
421,249,99993,2,0,B|406:234|406:234|397:236|397:236|389:264|389:264|395:270|395:270|424:263|424:263|426:255,1,105.000004005432,8|0,3:2|3:2,0:0:0:0:
386,15,100160,5,8,3:2:0:0:
383,11,100243,2,0,B|345:2|345:2|328:21|328:21|348:93|348:93|329:117|329:117|205:89,1,280,0|8,1:2|3:2,0:0:0:0:
145,86,100493,101,0,3:0:0:0:
139,88,100576,1,8,3:2:0:0:
134,90,100660,2,0,B|112:68|112:68|122:49|122:49|213:20,1,140,8|0,3:2|1:0,0:0:0:0:
295,123,100826,5,8,3:2:0:0:
295,129,100910,2,0,B|271:145|271:145|252:140|252:140|220:92,1,105.000004005432,8|0,3:2|3:0,0:0:0:0:
276,11,101076,102,0,B|306:18|306:18|309:33|309:33|286:56,1,70,8|0,3:2|3:0,0:0:0:0:
216,169,101243,6,2,B|171:209|171:209|189:297|189:297|216:308|216:308|258:278|258:278|216:71,1,420,0|0,1:0|0:0,0:1:0:0:
220,92,101576,1,6,1:2:0:0:
81,18,101743,21,8,3:2:0:0:
41,0,101826,1,8,3:2:0:0:
18,32,101910,2,0,L|35:86,1,35,8|0,0:2|0:0,0:0:0:0:
81,114,101993,85,8,3:2:0:0:
46,134,102076,1,0,1:0:0:0:
58,164,102160,2,0,L|45:218,1,35,8|0,0:0|0:0,0:0:0:0:
0,252,102243,22,0,B|-12:269|-12:269|9:338|9:338|28:344|28:344|76:289|76:289|68:259|68:259,1,210.000008010865,8|8,3:2|3:2,0:0:0:0:
141,226,102493,85,0,3:0:0:0:
177,236,102576,1,0,1:0:0:0:
184,275,102660,1,8,3:2:0:0:
132,328,102743,22,0,L|75:339,1,35,8|0,0:0|0:0,0:0:0:0:
126,337,102826,2,0,L|69:348,1,35,8|0,3:2|0:0,0:0:0:0:
70,266,102910,86,0,B|114:257|114:257|129:268|129:268|104:352|104:352|119:366|119:366|244:339,1,262.5,0|0,1:0|0:0,0:0:0:0:
215,366,103076,22,0,L|231:321,1,35,8|0,3:2|0:0,0:0:0:0:
250,250,103160,85,0,3:2:0:0:
255,248,103243,1,8,3:2:0:0:
260,246,103326,2,0,B|271:289|271:289|249:302|249:302|180:274,1,140,8|0,0:0|1:0,0:0:0:0:
180,269,103465,2,0,L|172:243,2,23.3333333333333,8|8|8,3:2|0:0|0:0,0:0:0:0:
298,316,103576,22,0,L|332:307,1,35,8|0,0:0|0:0,0:0:0:0:
307,323,103660,2,0,L|341:314,1,35,8|0,3:2|0:0,0:0:0:0:
410,344,103743,85,8,3:2:0:0:
437,326,103826,1,0,3:0:0:0:
430,290,103910,1,0,1:0:0:0:
371,240,103993,21,8,3:2:0:0:
358,202,104076,1,0,3:0:0:0:
392,181,104160,2,0,L|426:192,1,35,8|0,0:0|0:0,0:0:0:0:
501,164,104243,86,0,B|522:157|522:157|542:67|542:67|520:44|520:44|436:74|436:74|429:98|429:98|446:115,1,280,6|8,1:2|3:2,0:0:0:0:
442,111,104493,1,8,3:2:0:0:
438,39,104576,22,0,L|387:57,1,35,8|0,3:2|0:0,0:0:0:0:
350,109,104660,85,8,3:2:0:0:
330,77,104743,1,4,1:3:0:0:
300,85,104826,1,0,3:0:0:0:
296,71,104910,2,0,B|302:43|302:43|349:24,1,56,8|0,3:2|3:0,0:0:0:0:
289,174,105076,21,8,3:2:0:0:
285,165,105160,1,0,3:0:0:0:
282,157,105243,2,0,B|236:143|236:143|210:161|210:161|234:241|234:241|207:262|207:262|84:222,1,315.000012016297,6|0,1:2|3:0,1:0:0:0:
18,81,105576,86,0,L|42:129,1,35,8|0,1:0|0:0,0:0:0:0:
29,73,105660,2,0,L|39:127,1,35,8|0,0:1|0:0,0:0:0:0:
117,132,105743,22,0,L|131:91,1,28,8|0,3:2|0:0,0:0:0:0:
134,138,105826,2,0,L|130:94,1,28,8|0,0:0|0:0,0:0:0:0:
159,32,105910,85,8,0:0:0:0:
189,16,105993,1,8,0:1:0:0:
176,0,106076,2,0,B|151:-7|151:-7|97:29|97:29|101:56|101:56|240:99,1,231.000007049561,4|0,3:0|0:0,0:0:0:0:
282,157,106243,22,0,B|323:146|323:146|331:119|331:119|298:86|298:86|307:63|307:63|413:31,1,231.000007049561,8|0,3:1|0:0,0:0:0:0:
433,115,106410,86,0,L|419:166,1,35,8|0,3:2|0:0,0:0:0:0:
424,119,106493,2,0,L|410:170,1,35,8|0,3:2|0:0,0:0:0:0:
498,237,106576,6,2,B|391:167|539:166|295:1|378:244|182:67,1,357.000006809235,8|0,1:3|0:0,0:1:0:0:
307,63,106910,102,0,P|340:85|350:107,1,56,0|0,1:0|0:0,0:0:0:0:
331,270,107035,6,0,P|355:237|359:203,1,70,8|0,3:0|0:0,0:0:0:0:
471,49,107160,102,0,P|364:136|331:270,1,280,4|0,3:0|0:0,0:0:0:0:
456,149,107410,6,0,P|432:155|411:152,1,41.9999987182618,0|0,1:0|0:0,0:0:0:0:
234,21,107576,6,2,P|322:2|333:115,1,210,14|0,3:1|0:0,0:1:0:0:
341,101,107743,101,0,3:2:0:0:
270,117,107826,1,8,0:0:0:0:
201,132,107910,2,0,L|166:140,1,28,0|0,1:0|3:0,0:0:0:0:
321,172,108076,5,8,3:2:0:0:
204,136,108160,1,8,3:2:0:0:
87,100,108243,2,0,L|45:88,1,41.9999987182618,4|0,1:3|3:0,0:0:0:0:
239,205,108410,101,0,3:0:0:0:
207,140,108493,1,8,3:2:0:0:
181,71,108576,1,8,3:2:0:0:
198,144,108660,1,0,3:0:0:0:
220,210,108743,1,0,1:0:0:0:
236,281,108826,1,8,3:2:0:0:
251,350,108910,2,0,L|315:370,1,56,8|0,0:1|3:0,0:1:0:0:
422,299,109076,5,8,3:2:0:0:
453,234,109160,1,8,3:2:0:0:
387,203,109243,2,0,L|349:210,1,28,0|0,1:0|3:0,0:0:0:0:
236,281,109410,101,8,0:0:0:0:
141,199,109493,1,8,3:2:0:0:
271,159,109576,2,0,B|320:170|320:170|328:200|328:200|298:236|298:236|306:266|306:266|431:302,1,280,8|8,1:3|3:2,0:0:0:0:
440,380,109826,5,0,3:0:0:0:
508,353,109910,1,0,3:0:0:0:
438,371,109993,1,8,3:2:0:0:
369,384,110076,2,0,B|346:356|346:356|364:306,1,70,0|0,1:0|3:0,0:0:0:0:
399,212,110243,102,0,B|457:228|457:228|476:205|476:205|439:73,1,210,8|0,3:1|0:0,0:0:0:0:
440,92,110410,5,0,3:0:0:0:
371,70,110493,1,8,3:2:0:0:
302,49,110576,2,0,L|270:40,1,28,0|0,1:0|3:0,0:0:0:0:
492,28,110743,101,8,3:2:0:0:
375,74,110826,1,8,3:2:0:0:
258,120,110910,2,0,L|212:135,1,41.9999987182618,0|0,1:0|3:0,0:0:0:0:
13,203,111076,5,8,3:2:0:0:
88,222,111160,1,0,3:0:0:0:
159,245,111243,1,8,3:2:0:0:
100,298,111326,1,8,3:2:0:0:
36,344,111410,2,0,L|51:298,1,41.9999987182618,0|0,1:0|3:0,0:0:0:0:
162,242,111576,102,0,B|205:232|205:232|216:209|216:209|196:179|196:179|208:155|208:155|288:141,1,210.000008010865,8|0,3:1|0:0,0:0:0:0:
289,145,111743,5,8,3:2:0:0:
306,216,111826,1,8,3:2:0:0:
323,291,111910,2,0,L|331:323,1,28,0|0,1:0|3:0,0:0:0:0:
363,98,112076,101,8,3:2:0:0:
309,220,112160,1,8,3:2:0:0:
251,334,112243,2,0,L|229:381,1,41.9999987182618,6|0,1:2|3:0,0:0:0:0:
88,222,112410,5,8,3:2:0:0:
66,147,112494,1,8,3:2:0:0:
51,74,112577,1,8,3:2:0:0:
126,99,112660,1,8,3:2:0:0:
198,131,112743,2,0,L|150:141,1,41.9999987182618,0|0,1:0|3:0,0:0:0:0:
55,368,112910,102,0,B|64:328|64:328|87:320|87:320|109:340|109:340|134:330|134:330|158:244,1,210,8|0,3:1|0:0,0:0:0:0:
162,242,113076,5,8,3:2:0:0:
234,224,113160,1,8,3:2:0:0:
302,207,113243,2,0,L|332:199,1,28,0|0,1:0|3:0,0:0:0:0:
368,265,113410,101,8,0:2:0:0:
237,226,113492,1,8,3:2:0:0:
103,188,113576,2,0,L|60:175,1,41.9999987182618,0|0,1:0|3:0,0:0:0:0:
231,146,113743,5,0,3:0:0:0:
264,81,113826,1,8,3:2:0:0:
293,15,113910,1,8,3:2:0:0:
273,86,113993,1,0,3:0:0:0:
261,158,114076,1,0,1:0:0:0:
240,229,114159,1,8,3:2:0:0:
224,300,114243,2,0,L|240:368,1,56,8|0,3:1|3:0,0:0:0:0:
379,283,114410,101,0,3:0:0:0:
419,223,114493,1,8,3:2:0:0:
355,190,114576,2,0,L|315:205,1,28,0|0,1:0|3:0,0:0:0:0:
162,242,114743,5,8,3:2:0:0:
60,173,114826,1,8,0:2:0:0:
173,113,114910,2,0,L|151:184,1,56,0|0,1:0|3:0,0:0:0:0:
115,384,115076,101,8,3:2:0:0:
188,371,115160,1,8,3:2:0:0:
257,351,115243,1,0,3:0:0:0:
213,293,115326,1,8,3:2:0:0:
162,242,115410,2,0,L|175:296,1,41.9999987182618,0|0,1:0|3:0,0:0:0:0:
360,358,115576,5,8,3:1:0:0:
379,283,115660,2,0,L|396:211,1,56,8|0,3:2|3:0,0:0:0:0:
306,158,115826,101,8,3:2:0:0:
351,317,115910,2,0,L|364:376,1,41.9999987182618,0|0,1:0|3:0,0:0:0:0:
389,226,116076,5,8,3:2:0:0:
406,157,116160,1,8,3:2:0:0:
424,88,116243,2,0,L|434:52,1,28,0|0,1:0|3:0,0:0:0:0:
310,227,116410,101,8,3:2:0:0:
245,257,116493,1,8,3:2:0:0:
315,239,116576,1,0,3:0:0:0:
386,223,116660,1,8,3:2:0:0:
456,208,116743,2,0,L|506:194,1,41.9999987182618,0|0,1:0|3:0,0:0:0:0:
349,72,116910,102,0,P|309:67|290:46,1,47.9999985351563,8|0,3:1|0:0,0:0:0:0:
265,56,117005,6,0,P|299:36|327:42,1,47.9999985351563,8|0,3:3|0:0,0:0:0:0:
340,20,117100,102,0,P|323:56|298:67,1,47.9999985351563,4|0,3:0|0:0,0:0:0:0:
300,94,117196,6,0,P|292:54|305:30,1,47.9999985351563,4|0,3:0|0:0,0:0:0:0:
289,10,117291,102,0,P|318:37|383:223,1,239.999992675781,12|0,3:0|0:0,0:0:0:0:
320,262,117576,6,0,L|293:253,1,16.7999994873047,4|0,3:3|0:0,0:0:0:0:
320,262,117710,102,4,L|293:253,1,16.7999994873047,12|0,3:3|0:0,0:0:0:0:
320,262,117843,6,0,L|293:253,1,16.7999994873047,4|0,3:3|0:0,0:0:0:0:
320,262,117976,102,0,L|293:253,1,16.7999994873047,4|0,3:3|0:0,0:0:0:0:
238,299,118076,6,0,B|229:277|229:277|239:267|239:267|305:286|305:286|310:302|310:302|383:324|383:324|392:314|392:314|386:293,1,231.000007049561,4|0,1:3|0:0,1:0:0:0:
300,94,118243,6,2,P|209:92|209:195,1,210,6|0,1:0|0:0,0:1:0:0:
209,188,118410,101,0,3:0:0:0:
280,172,118493,1,8,3:2:0:0:
351,156,118576,2,0,L|389:145,1,28,0|0,1:0|3:0,0:0:0:0:
158,137,118743,5,8,3:2:0:0:
282,176,118826,1,8,3:2:0:0:
408,214,118910,2,0,L|451:225,1,41.9999987182618,0|0,1:0|3:0,0:0:0:0:
239,39,119076,101,0,3:0:0:0:
262,108,119160,1,8,3:2:0:0:
285,179,119243,1,8,3:2:0:0:
311,247,119326,1,0,3:0:0:0:
333,317,119410,1,0,1:0:0:0:
260,308,119493,1,8,0:0:0:0:
189,292,119576,2,0,L|225:231,1,56,8|0,3:1|0:0,0:0:0:0:
335,128,119743,5,8,3:2:0:0:
265,111,119826,1,8,3:2:0:0:
195,93,119910,2,0,L|162:83,1,28,0|0,1:0|3:0,0:0:0:0:
139,151,120076,101,8,0:0:0:0:
268,114,120160,1,8,3:2:0:0:
398,76,120243,2,0,L|442:65,1,41.9999987182618,0|0,1:0|3:0,0:0:0:0:
265,193,120410,5,8,3:2:0:0:
227,259,120493,1,8,0:0:0:0:
252,187,120576,1,0,3:0:0:0:
271,117,120660,1,8,3:2:0:0:
295,47,120743,2,0,L|312:-9,1,56,0|0,1:0|3:0,0:0:0:0:
396,79,120910,101,8,3:1:0:0:
274,120,120993,2,0,L|196:144,1,56,8|0,3:2|3:0,0:0:0:0:
460,179,121160,5,8,3:2:0:0:
388,156,121243,2,0,L|336:140,1,41.9999987182618,0|0,1:0|3:0,0:0:0:0:
168,84,121410,101,0,3:0:0:0:
56,137,121493,1,8,3:2:0:0:
160,201,121576,2,0,L|148:141,1,41.9999987182618,0|0,1:0|3:0,0:0:0:0:
287,51,121743,5,0,3:2:0:0:
277,123,121826,1,8,3:2:0:0:
267,196,121910,1,8,3:2:0:0:
257,269,121993,1,8,3:2:0:0:
252,343,122076,2,0,L|289:333,1,28,0|0,1:0|3:0,0:0:0:0:
450,277,122243,102,0,B|419:268|419:268|412:250|412:250|443:218|443:218|436:200|436:200|345:175,1,210,8|0,3:1|0:0,0:0:0:0:
340,177,122410,5,0,3:0:0:0:
270,199,122493,1,8,3:2:0:0:
197,220,122576,2,0,L|164:231,1,28,0|0,1:0|3:0,0:0:0:0:
136,167,122743,101,8,0:0:0:0:
273,202,122826,1,8,3:2:0:0:
407,232,122910,2,0,L|453:246,1,41.9999987182618,4|0,1:2|3:0,0:0:0:0:
309,59,123076,5,8,3:2:0:0:
295,131,123160,1,0,3:0:0:0:
277,205,123243,1,8,3:2:0:0:
351,186,123326,1,8,3:2:0:0:
423,166,123410,2,0,L|397:116,1,41.9999987182618,0|0,1:0|3:0,0:0:0:0:
265,0,123576,102,0,B|216:8|216:8|207:29|207:29|227:61|227:61|217:81|217:81|124:101,1,210,8|0,3:1|0:0,0:0:0:0:
134,94,123743,5,0,3:0:0:0:
86,148,123826,1,8,3:2:0:0:
139,199,123910,2,0,L|178:208,1,28,0|0,1:0|0:0,0:0:0:0:
298,134,124076,101,8,3:2:0:0:
404,232,124160,1,8,0:0:0:0:
302,314,124243,2,0,L|287:269,1,41.9999987182618,0|0,1:0|0:0,0:0:0:0:
191,51,124410,5,0,3:0:0:0:
121,27,124493,1,8,3:2:0:0:
51,4,124576,1,8,3:2:0:0:
66,76,124660,1,8,0:0:0:0:
83,145,124743,1,0,1:0:0:0:
11,128,124826,1,8,3:2:0:0:
27,200,124910,2,0,L|41:257,1,56,8|0,3:1|0:0,0:0:0:0:
218,256,125076,101,8,3:2:0:0:
234,185,125160,1,8,0:0:0:0:
252,114,125243,2,0,L|261:80,1,28,0|0,1:0|3:0,0:0:0:0:
194,54,125410,5,8,3:2:0:0:
231,182,125493,1,8,3:2:0:0:
270,311,125576,2,0,L|285:359,1,41.9999987182618,0|0,1:0|3:0,0:0:0:0:
151,166,125743,101,8,3:2:0:0:
87,127,125826,1,8,3:2:0:0:
155,154,125910,1,0,3:0:0:0:
228,179,125993,1,8,3:2:0:0:
300,209,126076,2,0,L|363:231,1,56,0|0,1:0|3:0,0:0:0:0:
267,308,126243,5,8,3:1:0:0:
225,176,126326,2,0,L|206:109,1,56,8|0,3:2|3:0,0:0:0:0:
164,356,126493,101,8,3:2:0:0:
190,290,126576,2,0,L|210:232,1,41.9999987182618,0|0,1:0|0:0,0:0:0:0:
291,0,126743,5,8,3:2:0:0:
179,48,126826,1,8,3:2:0:0:
287,120,126910,2,0,L|352:99,1,56,0|0,1:0|3:0,0:0:0:0:
450,120,127076,101,8,3:2:0:0:
476,190,127160,1,8,0:0:0:0:
497,260,127243,1,0,3:0:0:0:
424,247,127326,1,8,3:2:0:0:
353,226,127410,2,0,L|397:162,1,70,0|0,1:0|3:0,0:0:0:0:
512,56,127576,6,0,B|531:24|531:24|512:-3|512:-3|371:41,1,210,8|0,3:1|0:0,0:1:0:0:
373,36,127743,101,0,3:0:0:0:
337,99,127826,1,8,3:2:0:0:
278,51,127910,2,0,L|272:21,1,28,0|0,1:0|3:0,0:0:0:0:
197,31,128076,5,0,3:2:0:0:
158,18,128160,1,8,3:2:0:0:
143,50,128243,2,0,L|149:83,1,20.9999993591309,0|0,1:0|0:0,0:0:0:0:
150,54,128326,2,0,L|156:87,1,20.9999993591309,4|0,3:0|0:0,0:0:0:0:
204,121,128410,102,0,L|195:161,1,27.9999991455078,12|0,3:0|0:0,0:0:0:0:
184,137,128521,2,0,L|175:177,1,27.9999991455078,8|0,3:0|0:0,0:0:0:0:
167,150,128632,2,0,L|158:190,1,27.9999991455078,8|0,3:0|0:0,0:0:0:0:
85,213,128743,6,0,B|76:235|76:235|86:245|86:245|152:226|152:226|157:210|157:210|230:188|230:188|239:198|239:198|233:219,1,231.000007049561,8|0,3:1|0:0,0:0:0:0:
154,260,128910,102,0,L|172:264,1,18.6666660970052,4|0,3:0|0:0,0:0:0:0:
156,262,128984,2,0,L|174:266,1,18.6666660970052,4|0,3:0|0:0,0:0:0:0:
158,264,129058,2,0,L|176:268,1,18.6666660970052,12|0,3:0|0:0,0:0:0:0:
160,266,129132,2,0,L|178:270,1,18.6666660970052,8|0,3:0|3:0,0:0:0:0:
271,283,129280,5,0,3:2:0:0:
271,283,129317,2,0,B|286:322|286:322|269:339|269:339|152:306|152:306|143:277|143:277|13:238|13:238|-2:256|-2:256|8:293,1,410.666679199219,4|0,1:3|0:0,1:0:0:0:
45,354,129576,6,0,L|97:340,1,46.6666666666667,6|0,1:0|0:0,0:0:0:0:
216,384,129688,2,0,L|177:345,1,46.6666666666667,2|0,3:0|0:0,0:0:0:0:
148,199,129799,2,0,L|134:251,1,46.6666666666667,0|0,1:0|0:0,0:0:0:0:
75,367,129910,6,0,L|104:337,1,27.9999991455078,2|0,3:2|0:0,0:0:0:0:
210,352,130022,2,0,L|169:341,1,27.9999991455078,2|0,3:0|0:0,0:0:0:0:
132,241,130132,2,0,L|142:281,1,27.9999991455078,8|0,3:2|0:0,0:0:0:0:
272,283,130243,102,0,L|341:268,1,46.6666666666667,8|0,3:1|0:0,0:0:0:0:
445,240,130354,1,2,3:0:0:0:
296,172,130465,1,8,3:2:0:0:
422,124,130576,6,0,L|403:180,1,37.3333333333333,0|0,1:0|0:0,0:0:0:0:
459,340,130688,101,2,3:0:0:0:
459,340,130743,1,0,3:3:0:0:
459,340,130799,2,0,L|423:297,1,37.3333333333333,8|0,3:2|0:0,0:0:0:0:
252,87,130910,5,6,1:2:0:0:
407,162,131021,1,2,3:0:0:0:
320,270,131132,1,8,3:2:0:0:
442,237,131243,101,2,3:2:0:0:
299,175,131354,1,2,3:0:0:0:
380,62,131465,1,8,3:2:0:0:
404,165,131576,6,0,P|379:172|355:188,1,37.3333333333333,8|0,3:1|0:0,0:0:0:0:
218,284,131688,101,2,3:0:0:0:
218,284,131743,1,0,3:0:0:0:
218,284,131799,2,0,P|229:254|232:213,1,46.6666666666667,8|0,3:2|0:0,0:0:0:0:
208,54,131910,6,0,P|225:75|249:90,1,55.9999982910157,0|0,1:0|0:0,0:0:0:0:
251,164,132021,2,0,P|272:172|295:172,1,46.6666666666667,2|0,3:0|0:0,0:0:0:0:
391,72,132132,101,8,3:2:0:0:
391,72,132188,1,8,3:2:0:0:
391,72,132243,1,6,1:2:0:0:
372,174,132354,1,2,3:0:0:0:
353,276,132465,1,8,3:2:0:0:
512,106,132576,5,2,3:2:0:0:
375,177,132687,1,2,3:0:0:0:
234,242,132798,1,8,3:2:0:0:
512,221,132910,102,0,L|449:201,1,37.3333333333333,8|0,3:1|0:0,0:0:0:0:
262,147,133021,1,2,3:0:0:0:
262,147,133076,1,0,3:0:0:0:
262,147,133132,1,8,3:2:0:0:
431,262,133243,6,0,L|408:233,1,27.9999991455078,0|0,1:0|0:0,0:0:0:0:
313,86,133354,2,0,L|328:109,1,27.9999991455078,2|0,3:0|0:0,0:0:0:0:
424,267,133465,2,0,L|406:235,1,27.9999991455078,8|0,3:2|0:0,0:0:0:0:
375,177,133576,102,0,P|346:187|331:206,1,46.6666666666667,6|0,1:2|0:0,0:0:0:0:
301,264,133688,2,0,P|305:234|297:211,1,46.6666666666667,2|0,3:0|0:0,0:0:0:0:
264,149,133799,2,0,P|281:165|303:173,1,46.6666666666667,8|0,3:2|0:0,0:0:0:0:
405,135,133910,6,0,L|376:171,1,46.6666666666667,2|0,3:2|0:0,0:0:0:0:
214,140,134021,2,0,L|260:150,1,46.6666666666667,2|0,3:0|0:0,0:0:0:0:
318,313,134132,2,0,L|304:268,1,46.6666666666667,8|0,3:2|0:0,0:0:0:0:
242,70,134243,101,8,3:1:0:0:
124,10,134354,1,2,3:0:0:0:
124,10,134410,1,0,3:0:0:0:
123,10,134465,2,0,P|120:36|140:76,1,46.6666666666667,8|0,3:2|0:0,0:0:0:0:
238,74,134576,5,0,1:0:0:0:
87,176,134688,1,2,3:0:0:0:
87,176,134743,1,0,3:0:0:0:
87,176,134799,2,0,P|94:148|93:121,1,46.6666666666667,8|0,3:2|0:0,0:0:0:0:
35,67,134910,101,6,1:2:0:0:
181,139,135021,1,2,3:0:0:0:
59,251,135132,1,8,3:2:0:0:
154,230,135243,5,2,3:2:0:0:
11,157,135354,1,2,3:0:0:0:
125,56,135465,1,8,3:2:0:0:
101,137,135576,101,0,3:2:0:0:
101,137,135632,2,0,P|166:95|240:225,1,261.333325358073,8|0,3:0|3:0,0:0:0:0:
161,237,135910,5,0,3:0:0:0:
161,237,135965,2,0,L|123:226,4,27.9999991455078,4|0|0|0|0,3:0|3:0|3:0|3:0|3:0,0:0:0:0:
214,319,136243,102,0,L|271:303,1,46.6666666666667,6|0,1:2|0:0,0:0:0:0:
328,199,136354,2,0,L|313:256,1,46.6666666666667,2|0,3:0|0:0,0:0:0:0:
374,357,136465,2,0,L|331:315,1,46.6666666666667,8|0,3:2|0:0,0:0:0:0:
230,294,136576,6,0,L|274:305,1,27.9999991455078,2|0,3:2|0:0,0:0:0:0:
337,230,136687,2,0,L|305:262,1,27.9999991455078,2|0,3:0|0:0,0:0:0:0:
343,354,136798,2,0,L|330:309,1,27.9999991455078,8|0,3:2|0:0,0:0:0:0:
294,66,136910,101,8,3:1:0:0:
196,139,137021,1,2,3:0:0:0:
196,139,137076,1,0,3:0:0:0:
196,139,137132,2,0,L|250:156,1,46.6666666666667,8|0,3:2|0:0,0:0:0:0:
398,138,137243,6,0,L|340:122,1,46.6666666666667,0|0,1:0|0:0,0:0:0:0:
216,41,137354,1,2,3:0:0:0:
325,196,137465,1,8,3:2:0:0:
374,52,137576,102,0,P|372:26|352:-8,1,55.9999982910157,6|0,1:0|0:0,0:0:0:0:
321,192,137688,6,0,P|307:214|303:253,1,55.9999982910157,2|0,3:0|0:0,0:0:0:0:
464,100,137799,102,0,P|488:90|514:60,1,55.9999982910157,10|0,3:2|0:0,0:0:0:0:
276,91,137910,6,0,P|250:84|212:93,1,55.9999982910157,2|0,3:2|0:0,0:0:0:0:
441,227,138021,102,0,P|457:246|494:262,1,55.9999982910157,2|0,3:0|0:0,0:0:0:0:
381,133,138132,5,10,3:2:0:0:
381,133,138188,1,10,3:2:0:0:
381,133,138243,2,0,L|391:180,1,32,8|0,3:1|0:0,0:0:0:0:
437,224,138338,2,0,L|427:177,1,32,8|0,3:0|0:0,0:0:0:0:
461,97,138434,2,0,L|467:128,1,32,4|0,3:0|0:0,0:0:0:0:
488,264,138576,102,0,P|479:195|336:197,1,224,6|0,1:2|0:0,0:0:0:0:
347,181,138799,1,2,3:0:0:0:
315,286,138910,6,2,P|475:308|448:147,1,373.333333333333,6|0,1:2|0:0,0:1:0:0:
311,205,139188,102,2,P|305:293|384:347,1,186.666666666667,8|8,3:0|3:0,0:1:0:0:
407,250,139354,5,4,3:0:0:0:
407,250,139410,2,0,L|412:218,1,27.9999991455078,0|0,1:0|0:0,0:0:0:0:
451,31,139576,101,8,3:1:0:0:
451,31,139688,1,0,3:0:0:0:
451,31,139799,1,0,3:0:0:0:
376,92,139910,5,0,3:0:0:0:
376,92,140021,1,0,3:0:0:0:
376,92,140132,1,0,3:0:0:0:
452,149,140243,102,0,L|511:165,1,46.6666666666667,6|0,1:2|0:0,0:0:0:0:
366,235,140354,2,0,L|425:219,1,46.6666666666667,2|0,3:0|0:0,0:0:0:0:
251,61,140465,2,0,L|310:77,1,46.6666666666667,0|0,1:0|0:0,0:0:0:0:
476,139,140576,6,0,L|449:146,1,27.9999991455078,2|0,3:2|0:0,0:0:0:0:
441,225,140688,2,0,L|414:219,1,27.9999991455078,2|0,3:0|0:0,0:0:0:0:
363,165,140799,2,0,L|335:171,1,27.9999991455078,8|0,3:2|0:0,0:0:0:0:
243,227,140909,101,8,3:1:0:0:
302,347,141021,1,2,3:0:0:0:
302,347,141076,1,0,3:0:0:0:
302,347,141132,2,0,L|319:293,1,46.6666666666667,8|0,3:2|0:0,0:0:0:0:
339,174,141243,5,0,1:0:0:0:
228,300,141354,1,2,3:0:0:0:
384,348,141465,1,8,3:2:0:0:
240,224,141576,102,0,L|179:238,1,46.6666666666667,6|0,1:2|0:0,0:0:0:0:
64,272,141688,1,2,3:0:0:0:
64,272,141743,1,0,3:0:0:0:
64,272,141799,2,0,L|125:256,1,46.6666666666667,8|0,3:2|0:0,0:0:0:0:
288,238,141910,6,0,L|219:221,1,46.6666666666667,2|0,3:2|0:0,0:0:0:0:
83,185,142021,1,2,3:0:0:0:
83,185,142076,1,0,3:0:0:0:
83,185,142132,2,0,L|25:167,1,46.6666666666667,8|0,3:2|0:0,0:0:0:0:
138,332,142243,101,8,3:1:0:0:
208,156,142354,1,2,3:0:0:0:
141,336,142465,1,8,3:2:0:0:
157,212,142576,5,0,1:0:0:0:
199,293,142687,1,2,3:0:0:0:
160,210,142798,1,8,3:2:0:0:
277,213,142910,102,0,P|306:210|343:192,1,46.6666666666667,6|0,1:2|0:0,0:0:0:0:
375,254,143021,2,0,P|360:283|365:323,1,46.6666666666667,2|0,3:0|0:0,0:0:0:0:
290,318,143132,2,0,P|275:295|234:271,1,46.6666666666667,8|0,3:2|0:0,0:0:0:0:
377,160,143243,6,0,P|395:181|451:211,1,55.9999982910157,2|0,3:2|0:0,0:0:0:0:
373,365,143354,2,0,P|344:370|300:401,1,55.9999982910157,2|0,3:0|0:0,0:0:0:0:
191,255,143465,2,0,P|203:224|199:165,1,55.9999982910157,8|0,3:2|0:0,0:0:0:0:
311,92,143576,101,8,3:1:0:0:
195,26,143688,1,2,3:0:0:0:
195,26,143743,1,0,3:0:0:0:
195,26,143799,2,0,L|216:90,1,46.6666666666667,8|0,3:2|0:0,0:0:0:0:
319,201,143910,5,0,1:0:0:0:
387,170,144021,1,2,3:0:0:0:
387,170,144076,1,0,3:0:0:0:
387,170,144132,2,0,L|405:102,1,46.6666666666667,8|0,3:2|0:0,0:0:0:0:
368,30,144243,101,6,1:2:0:0:
213,74,144354,1,2,3:0:0:0:
55,114,144465,1,8,3:2:0:0:
332,110,144576,5,2,3:2:0:0:
216,77,144687,1,2,3:0:0:0:
99,47,144798,1,8,3:2:0:0:
190,153,144910,102,0,P|211:212|207:249,1,93.3333333333333,8|2,3:1|3:0,0:0:0:0:
208,241,145076,1,0,3:0:0:0:
208,241,145132,1,8,3:2:0:0:
163,324,145243,6,0,L|119:339,1,46.6666666666667,0|0,1:0|0:0,0:0:0:0:
253,336,145354,2,0,L|288:366,1,46.6666666666667,2|0,3:0|0:0,0:0:0:0:
218,251,145465,2,0,L|226:205,1,46.6666666666667,8|0,3:2|0:0,0:0:0:0:
218,80,145576,101,6,1:2:0:0:
348,31,145688,1,2,3:0:0:0:
412,145,145799,1,8,3:2:0:0:
436,58,145910,5,2,3:2:0:0:
304,145,146022,1,2,3:0:0:0:
247,1,146133,1,8,3:2:0:0:
345,34,146243,102,0,P|355:66|354:96,1,46.6666666666667,8|0,3:1|0:0,0:0:0:0:
314,155,146354,1,2,3:0:0:0:
314,155,146409,1,0,3:0:0:0:
314,155,146465,1,8,3:2:0:0:
451,182,146576,6,0,P|422:152|375:145,1,55.9999982910157,2|0,1:2|0:0,0:0:0:0:
246,105,146688,1,2,3:0:0:0:
246,105,146744,1,0,3:0:0:0:
246,105,146799,1,8,3:2:0:0:
368,246,146910,102,0,L|429:232,1,37.3333333333333,6|0,1:2|0:0,0:0:0:0:
472,282,147021,2,0,L|411:268,1,37.3333333333333,2|0,3:0|0:0,0:0:0:0:
348,333,147132,2,0,L|409:319,1,37.3333333333333,8|0,3:2|0:0,0:0:0:0:
455,186,147243,5,2,3:2:0:0:
301,277,147354,1,2,3:0:0:0:
452,354,147465,1,8,3:2:0:0:
459,189,147576,102,0,P|473:143|456:89,1,93.3333333333333,8|2,3:1|3:0,0:0:0:0:
462,100,147743,1,0,3:0:0:0:
462,100,147799,1,8,3:2:0:0:
417,36,147910,6,0,L|347:49,1,46.6666666666667,0|0,1:0|0:0,0:0:0:0:
312,122,148021,102,0,L|266:130,1,46.6666666666667,2|0,3:0|0:0,0:0:0:0:
175,234,148132,6,0,L|105:247,1,46.6666666666667,8|0,3:2|0:0,0:0:0:0:
129,242,148243,101,8,1:1:0:0:
344,367,149576,38,0,B|354:332|354:332|329:295,1,74.6666666666667,6|0,1:2|3:0,0:0:0:0:
253,164,149799,102,0,L|267:243,1,74.6666666666667,2|8,3:2|0:2,0:0:0:0:
222,384,150021,6,0,B|200:352|200:352|210:317,1,74.6666666666667,10|2,3:2|3:2,0:0:0:0:
215,316,150188,1,0,3:0:0:0:
219,313,150243,2,0,L|273:324,1,37.3333333333333,4|0,3:2|0:0,0:0:0:0:
335,297,150354,102,0,B|413:283|377:231|468:219,2,149.333333333333,10|2|2,3:2|0:0|0:0,0:0:0:0:
486,310,150910,6,0,L|405:285,1,74.6666666666667,0|0,1:2|0:0,0:0:0:0:
277,351,151132,2,0,L|339:293,1,74.6666666666667,0|8,3:2|3:2,0:0:0:0:
357,220,151354,2,0,L|341:148,1,74.6666666666667,2|0,3:2|3:0,0:0:0:0:
341,148,151521,1,0,3:0:0:0:
341,148,151576,1,8,3:2:0:0:
449,182,151688,102,0,P|332:198|279:353,1,298.666666666667,2|0,3:2|0:0,1:0:0:0:
354,384,152243,1,2,1:2:0:0:
354,384,152299,1,2,3:2:0:0:
354,384,152354,2,0,L|398:369,1,37.3333333333333,2|0,3:0|0:0,0:0:0:0:
471,384,152465,6,0,B|486:350|486:350|460:304,1,74.6666666666667,8|0,3:2|3:0,0:0:0:0:
404,290,152688,1,2,3:2:0:0:
404,290,152744,1,2,3:2:0:0:
403,290,152799,2,0,L|346:275,1,37.3333333333333,0|0,3:0|0:0,0:0:0:0:
414,186,152910,101,8,3:2:0:0:
337,210,153021,1,10,3:2:0:0:
265,232,153132,1,10,3:2:0:0:
465,248,153243,5,8,3:2:0:0:
335,214,153354,1,10,3:2:0:0:
212,184,153465,1,10,3:2:0:0:
411,183,153576,102,0,B|425:148|425:148|411:110,2,74.6666666666667,2|2|2,3:0|3:0|3:0,0:0:0:0:
268,235,153910,2,0,B|260:254|260:254|269:285,1,37.3333333333333,0|0,1:0|0:0,0:0:0:0:
326,332,154021,5,2,3:2:0:0:
326,332,154076,1,0,3:0:0:0:
326,332,154132,1,2,3:2:0:0:
388,284,154243,102,0,L|446:296,1,37.3333333333333,8|0,3:2|0:0,0:0:0:0:
393,279,154354,2,0,L|451:291,1,37.3333333333333,8|0,3:2|0:0,0:0:0:0:
397,293,154465,2,0,L|455:305,1,37.3333333333333,2|0,3:2|0:0,0:0:0:0:
227,359,154576,6,0,L|190:366,1,37.3333333333333,8|0,3:2|0:0,0:0:0:0:
243,343,154687,2,0,L|206:350,1,37.3333333333333,2|0,3:2|0:0,0:0:0:0:
251,351,154799,2,0,L|214:358,1,37.3333333333333,8|0,3:2|0:0,0:0:0:0:
335,214,154910,102,0,P|343:170|299:127,1,93.3333333333333,6|0,1:2|3:0,0:0:0:0:
180,243,155132,2,0,P|214:271|273:255,1,93.3333333333333,2|0,3:2|3:0,0:0:0:0:
233,95,155299,1,2,3:2:0:0:
233,95,155354,2,0,P|190:110|175:169,1,93.3333333333333,10|0,3:2|3:0,0:0:0:0:
329,288,155521,5,2,3:2:0:0:
362,310,155576,2,0,L|420:295,1,46.6666666666667,8|0,0:1|0:0,0:0:0:0:
410,101,155799,101,8,3:2:0:0:
318,130,155910,1,0,3:0:0:0:
293,38,156021,1,10,3:2:0:0:
387,13,156132,1,8,3:2:0:0:
493,115,156243,6,0,P|514:165|498:228,1,93.3333333333333,6|0,1:2|0:0,0:0:0:0:
350,333,156465,2,0,P|294:326|248:280,1,93.3333333333333,8|0,3:2|3:0,0:0:0:0:
230,101,156688,2,0,P|263:56|326:39,1,93.3333333333333,8|8,3:2|3:2,0:0:0:0:
357,132,156854,101,8,3:2:0:0:
357,132,156910,2,0,L|364:165,6,27.9999991455078,8|0|0|0|0|0|0,3:1|3:0|3:0|3:0|3:0|3:0|3:0,3:0:0:0:
325,245,157299,6,0,B|433:223|433:223|443:197|443:197|373:111|373:111|336:118|336:118|300:217|300:217|322:245,1,419.999987182618,8|2,3:0|3:2,1:1:0:0:
421,331,157688,101,2,3:2:0:0:
492,342,157799,1,8,3:2:0:0:
419,327,157910,2,0,L|364:315,1,37.3333333333333,0|0,1:0|0:0,0:0:0:0:
303,353,158021,5,8,3:2:0:0:
295,355,158076,1,2,3:2:0:0:
287,357,158132,2,0,B|277:339|277:339|290:312,1,37.3333333333333,2|0,3:2|0:0,0:0:0:0:
328,248,158243,102,0,L|383:237,1,37.3333333333333,8|0,3:2|0:0,0:0:0:0:
442,258,158354,1,8,3:2:0:0:
442,258,158410,1,0,3:0:0:0:
442,258,158465,1,2,3:2:0:0:
289,244,158576,6,0,L|344:255,1,37.3333333333333,8|0,3:2|0:0,0:0:0:0:
411,180,158688,1,8,3:2:0:0:
411,180,158743,1,0,3:0:0:0:
411,180,158798,1,2,3:2:0:0:
234,181,158910,101,8,3:1:0:0:
157,161,159005,1,2,3:2:0:0:
80,142,159100,1,2,3:2:0:0:
137,242,159243,6,0,P|263:204|226:23,1,335.999989746094,2|0,3:0|3:0,0:0:0:0:
306,158,159576,101,2,0:3:0:0:
396,130,159687,1,2,0:3:0:0:
481,96,159798,1,2,0:3:0:0:
265,97,159909,5,2,0:3:0:0:
392,134,160020,1,2,0:3:0:0:
512,172,160132,1,2,0:3:0:0:
447,298,160243,102,0,L|426:186,1,93.3333333333333,6|0,1:2|0:0,0:0:0:0:
310,162,160465,6,0,B|292:207|292:207|332:245,1,93.3333333333333,2|0,3:2|3:2,0:0:0:0:
500,176,160632,1,2,3:2:0:0:
500,176,160688,2,0,B|517:130|517:130|477:92,1,93.3333333333333,10|2,3:2|3:0,0:0:0:0:
376,36,160910,102,0,L|330:388,1,298.666666666667,8|0,3:1|3:0,0:0:0:0:
396,270,161243,5,8,3:2:0:0:
328,241,161354,1,2,3:2:0:0:
257,215,161465,1,8,3:2:0:0:
192,275,161576,102,0,B|177:323|177:323|210:361,1,93.3333333333333,6|0,1:2|0:0,0:0:0:0:
457,221,161799,2,0,B|469:175|469:175|439:135,1,93.3333333333333,2|0,3:2|3:0,0:0:0:0:
318,237,161965,5,0,3:0:0:0:
318,237,162021,2,0,L|335:334,1,93.3333333333333,8|0,3:2|3:0,0:0:0:0:
485,365,162243,102,0,B|526:334|526:334|513:286|513:286|310:238,1,298.666666666667,8|0,3:1|3:0,1:1:0:0:
261,177,162576,6,0,B|237:138|237:138|274:86,1,93.3333333333333,8|0,3:2|3:0,0:0:0:0:
265,98,162743,1,2,3:2:0:0:
265,98,162799,2,0,L|331:84,1,46.6666666666667,8|0,3:2|0:0,0:0:0:0:
365,150,162910,101,0,1:0:0:0:
227,268,163132,5,2,3:2:0:0:
153,243,163243,1,2,3:2:0:0:
80,215,163354,2,0,B|45:250|45:250|71:315,1,93.3333333333333,8|0,3:2|3:0,0:0:0:0:
124,331,163521,1,2,3:2:0:0:
131,334,163576,2,0,L|183:320,1,46.6666666666667,8|0,3:1|0:0,0:0:0:0:
224,271,163688,2,0,L|211:316,1,46.6666666666667,2|0,3:2|0:0,0:0:0:0:
234,383,163799,2,0,L|200:350,1,46.6666666666667,2|0,3:2|0:0,0:0:0:0:
156,240,163910,101,8,3:2:0:0:
250,217,164021,1,0,3:0:0:0:
342,196,164132,1,2,3:2:0:0:
189,162,164243,6,0,B|163:124|163:124|191:74,2,93.3333333333333,0|8|0,1:0|3:2|3:0,0:0:0:0:
312,273,164576,2,0,B|325:292|325:292|310:327,1,46.6666666666667,8|0,3:2|0:0,0:0:0:0:
254,356,164688,1,2,3:2:0:0:
254,356,164743,1,0,3:2:0:0:
254,356,164799,1,8,3:2:0:0:
345,199,164910,102,0,L|399:210,1,46.6666666666667,8|0,3:1|0:0,0:0:0:0:
359,195,165021,2,0,L|413:206,1,46.6666666666667,2|0,3:2|0:0,0:0:0:0:
349,182,165132,2,0,L|403:193,1,46.6666666666667,2|0,3:2|0:0,0:0:0:0:
220,263,165243,6,0,L|166:274,1,46.6666666666667,10|0,3:2|0:0,0:0:0:0:
204,256,165354,2,0,L|150:267,1,46.6666666666667,2|0,3:2|0:0,0:0:0:0:
211,249,165465,2,0,L|157:260,1,46.6666666666667,10|0,3:2|0:0,0:0:0:0:
318,316,165576,102,0,P|363:323|400:364,1,93.3333333333333,6|0,1:2|0:0,0:0:0:0:
504,287,165799,2,0,P|487:243|504:191,1,93.3333333333333,8|0,3:2|3:0,0:0:0:0:
385,140,166021,2,0,P|355:175|302:187,1,93.3333333333333,8|0,3:2|3:0,0:0:0:0:
405,254,166188,5,2,3:2:0:0:
405,254,166243,1,8,3:1:0:0:
264,98,166465,101,2,3:2:0:0:
237,5,166576,1,8,3:2:0:0:
146,31,166688,1,2,3:0:0:0:
168,123,166799,1,8,3:2:0:0:
97,228,166910,6,0,P|47:193|51:147,1,93.3333333333333,6|0,1:2|0:0,0:0:0:0:
261,101,167132,2,0,P|263:136|237:166,1,46.6666666666667,8|0,3:2|3:0,0:0:0:0:
274,157,167243,2,0,P|244:176|205:168,1,46.6666666666667,2|0,1:2|3:0,0:0:0:0:
62,41,167354,2,0,P|117:15|155:41,1,93.3333333333333,10|2,3:2|3:0,0:0:0:0:
165,126,167576,102,0,L|154:187,5,37.3333333333333,8|0|0|0|0|0,3:1|3:0|3:0|3:0|3:0|3:0,0:0:0:0:
196,247,167910,6,0,B|88:225|88:225|78:199|78:199|148:113|148:113|185:120|185:120|221:219|221:219|203:241,1,419.999987182618,8|2,3:0|3:2,1:1:0:0:
162,166,168243,101,0,1:0:0:0:
307,301,168465,6,0,B|327:262|327:262|294:191,1,93.3333333333333,2|8,3:2|3:2,0:0:0:0:
125,268,168688,2,0,B|103:309|103:309|140:372,1,93.3333333333333,0|8,3:2|3:2,0:0:0:0:
196,374,168854,1,2,3:2:0:0:
200,369,168910,2,0,L|211:286,1,46.6666666666667,8|0,3:1|0:0,0:0:0:0:
303,220,169021,101,8,3:2:0:0:
201,244,169132,1,2,3:2:0:0:
90,198,169243,2,0,L|65:87,1,93.3333333333333,8|0,3:2|3:0,0:0:0:0:
69,106,169410,1,0,3:0:0:0:
69,106,169465,1,10,3:2:0:0:
181,154,169576,6,0,L|234:165,1,40,0|0,1:0|0:0,0:0:0:0:
189,149,169672,2,0,L|242:160,1,40,2|0,3:0|0:0,0:0:0:0:
196,144,169767,2,0,L|249:155,1,40,2|0,3:0|0:0,0:0:0:0:
80,116,169910,102,2,B|135:119|173:88|155:32|148:0|223:-37|287:-45|338:3|358:78|287:110|199:98|168:47|205:44,1,419.999987182618,2|0,3:0|0:0,0:1:0:0:
199,43,170243,2,0,L|246:33,2,37.3333333333333,8|0|0,3:1|3:0|3:0,0:0:0:0:
31,45,170576,6,0,L|103:33,1,46.6666666666667,2|0,3:0|0:0,0:0:0:0:
157,130,170688,102,0,L|229:118,1,46.6666666666667,2|0,3:0|0:0,0:0:0:0:
239,39,170799,6,0,L|311:27,1,46.6666666666667,2|0,3:0|0:0,0:0:0:0:
352,63,170910,102,0,L|208:35,1,111.999996582031,6|8,1:2|3:2,0:0:0:0:
384,172,171132,2,0,L|263:148,1,93.3333333333333,2|8,3:2|3:2,0:0:0:0:
92,171,171354,6,0,B|69:132|69:132|104:84,1,93.3333333333333,8|2,3:2|3:2,0:0:0:0:
161,134,171521,1,2,3:2:0:0:
161,134,171576,2,0,L|173:193,1,46.6666666666667,8|0,3:1|0:0,0:0:0:0:
234,222,171688,1,2,3:2:0:0:
126,293,171799,1,8,3:2:0:0:
208,365,171910,102,0,L|194:289,1,46.6666666666667,2|0,1:2|0:0,0:0:0:0:
129,290,172021,1,8,3:2:0:0:
231,225,172132,1,2,3:2:0:0:
164,137,172243,6,0,B|180:40,2,93.3333333333333,2|0|8,1:2|3:2|3:2,0:2:0:0:
132,293,172576,2,0,B|124:338,2,46.6666666666667,2|0|8,3:2|3:0|3:2,0:2:0:0:
97,174,172799,101,8,3:2:0:0:
274,308,172910,2,0,B|333:240|333:240|287:148,1,186.666666666667,8|0,3:1|3:0,0:0:0:0:
183,48,173243,5,2,3:2:0:0:
192,123,173354,1,8,3:2:0:0:
201,200,173465,1,2,3:2:0:0:
129,296,173576,102,0,B|93:262|93:262|110:220,1,93.3333333333333,6|10,1:2|3:2,0:0:0:0:
19,155,173743,1,2,3:2:0:0:
19,155,173799,2,0,B|65:141|65:141|93:176,1,93.3333333333333,2|8,3:2|3:2,0:0:0:0:
208,207,173965,5,2,3:2:0:0:
208,207,174021,2,0,L|272:186,1,46.6666666666667,8|0,3:2|0:0,0:0:0:0:
287,157,174132,2,0,L|346:170,1,46.6666666666667,2|0,3:2|0:0,0:0:0:0:
376,244,174243,101,8,3:1:0:0:
449,220,174354,1,8,3:2:0:0:
428,149,174465,1,2,3:2:0:0:
329,170,174576,101,8,3:2:0:0:
359,261,174688,1,2,1:2:0:0:
448,235,174799,1,2,3:2:0:0:
442,77,174910,6,0,L|460:10,1,46.6666666666667,0|0,1:0|0:0,0:0:0:0:
432,69,175021,2,0,L|450:2,1,46.6666666666667,8|0,3:2|0:0,0:0:0:0:
414,79,175132,2,0,L|432:12,1,46.6666666666667,2|0,3:2|0:0,0:0:0:0:
302,171,175243,6,0,L|289:125,1,46.6666666666667,8|0,3:2|0:0,0:0:0:0:
315,162,175354,2,0,L|302:116,1,46.6666666666667,2|0,3:3|0:0,0:0:0:0:
326,173,175465,2,0,L|313:127,1,46.6666666666667,8|0,3:2|0:0,0:0:0:0:
497,254,175576,102,0,B|523:217|523:217|491:148,1,93.3333333333333,8|2,3:1|3:2,0:0:0:0:
435,156,175743,1,2,3:2:0:0:
435,156,175799,2,0,L|423:215,1,37.3333333333333,8|0,3:2|0:0,0:0:0:0:
509,347,175910,2,0,B|493:256,1,93.3333333333333,2|8,3:2|3:2,3:2:0:0:
271,176,176132,6,0,L|284:242,1,46.6666666666667,2|0,3:2|0:0,0:0:0:0:
322,300,176243,102,0,P|371:260|359:205,1,93.3333333333333,6|0,1:2|0:0,0:0:0:0:
166,171,176460,2,0,P|176:234|229:251,1,93.3333333333333,2|2,3:2|3:0,0:0:0:0:
354,101,176677,2,0,P|295:78|254:116,1,93.3333333333333,8|0,3:2|3:0,0:0:0:0:
271,176,176840,101,0,3:0:0:0:
271,176,176895,2,0,L|284:242,1,46.6666666666667,8|0,3:1|0:0,0:0:0:0:
181,322,177112,5,2,3:2:0:0:
110,307,177221,1,10,3:2:0:0:
126,236,177329,1,0,0:0:0:0:
196,251,177438,1,8,3:2:0:0:
322,300,177547,102,0,B|346:263|346:263|323:213,1,93.3333333333333,6|0,1:2|0:0,0:0:0:0:
123,233,177764,2,0,L|31:252,1,93.3333333333333,10|0,3:2|3:0,0:0:0:0:
264,97,177982,2,0,B|288:134|288:134|265:184,1,93.3333333333333,10|0,3:2|3:0,0:0:0:0:
182,324,178199,6,0,L|174:382,5,46.6666666666667,8|0|0|0|0|0,3:1|3:0|3:0|3:0|3:0|3:0,0:0:0:0:
264,175,178525,102,0,L|197:193,1,46.6666666666667,2|0,3:0|0:0,0:0:0:0:
367,233,178634,2,0,L|300:215,1,46.6666666666667,8|0,3:2|0:0,0:0:0:0:
424,143,178743,2,0,L|378:155,1,46.6666666666667,2|0,3:2|0:0,0:0:0:0:
126,230,178851,6,0,B|83:176|83:176|126:91,1,140,8|0,3:1|0:0,0:0:0:0:
119,115,179057,2,0,L|138:196,1,46.6666666666667,2|0,3:2|0:0,0:0:0:0:
187,275,179160,2,0,L|172:370,1,93.3333333333333,2|8,3:2|3:2,0:0:0:0:
83,301,179366,101,8,3:2:0:0:
83,301,179419,1,2,3:2:0:0:
83,301,179469,2,0,B|148:276|148:276|158:233|158:233|252:200,1,195.999994018555,8|0,3:1|0:0,0:0:0:0:
190,272,179675,2,0,L|263:290,1,46.6666666666667,2|0,3:2|0:0,0:0:0:0:
352,370,179778,5,2,3:2:0:0:
335,296,179881,1,8,3:2:0:0:
319,224,179985,1,2,3:2:0:0:
307,130,180088,102,0,B|350:116|350:116|383:153,1,93.3333333333333,8|0,3:1|3:0,0:0:0:0:
460,249,180242,1,2,3:2:0:0:
460,249,180294,2,0,L|295:215,1,140,8|0,3:1|0:0,0:0:0:0:
146,307,180500,6,0,L|250:274,1,93.3333333333333,2|8,3:2|3:2,0:0:0:0:
385,154,180706,102,2,B|433:121|540:146|541:264|499:374|362:408|312:386|268:326|307:273|336:274|344:276|402:269|427:269|352:208|337:205|246:191|200:252|223:287|259:296,1,606.666638895672,8|0,1:0|0:0,1:0:0:0:
215,154,181321,38,0,P|211:130|185:89,1,62.9999980773926,0|0,1:0|0:0,0:0:0:0:
266,252,182321,6,0,P|255:273|252:322,1,62.9999980773926,2|0,0:2|0:0,0:0:0:0:
291,142,183258,102,0,P|312:130|343:93,1,62.9999980773926,2|0,0:2|0:0,0:0:0:0:
186,217,184140,6,0,P|161:213|114:225,1,62.9999980773926,2|0,0:2|0:0,0:0:0:0:
124,220,185640,102,0,P|154:213|186:217,1,62.9999980773926,2|0,0:2|0:0,0:0:0:0:
384,254,186378,6,0,P|355:241|331:220,1,62.9999980773926,2|0,0:2|0:0,0:0:0:0:
192,57,187059,102,0,P|208:83|214:114,1,62.9999980773926,2|0,0:2|0:0,0:0:0:0:
224,346,187684,6,0,P|226:314|239:286,1,62.9999980773926,2|0,0:2|0:0,0:0:0:0:
378,82,188272,102,0,P|357:105|330:121,1,62.9999980773926,2|0,0:2|0:0,0:0:0:0:
81,207,188838,6,0,P|111:199|142:203,1,62.9999980773926,2|0,0:2|0:0,0:0:0:0:
414,290,189393,102,0,P|385:277|361:256,1,62.9999980773926,2|0,0:2|0:0,0:0:0:0:
362,257,190427,6,0,P|386:278|415:291,1,62.9999980773926,2|0,0:2|0:0,0:0:0:0:
211,75,190927,102,0,P|204:44|188:17,1,62.9999980773926,2|0,0:2|0:0,0:0:0:0:
221,316,191395,6,0,P|208:344|205:375,1,62.9999980773926,2|0,0:2|0:0,0:0:0:0:
364,109,191849,102,0,P|391:93|411:69,1,62.9999980773926,2|0,0:2|0:0,0:0:0:0:
109,198,192283,6,0,P|77:194|47:201,1,62.9999980773926,2|0,0:2|0:0,0:0:0:0:
382,282,192693,102,0,P|405:303|434:315,1,62.9999980773926,2|0,0:2|0:0,0:0:0:0:
196,68,193098,6,0,P|189:37|173:10,1,62.9999980773926,2|0,0:2|0:0,0:0:0:0:
208,325,193487,102,0,P|195:353|192:384,1,62.9999980773926,2|0,0:2|0:0,0:0:0:0:
386,108,193862,6,0,P|413:92|433:68,1,62.9999980773926,2|0,0:2|0:0,0:0:0:0:
92,182,194223,102,0,P|60:178|30:185,1,62.9999980773926,2|0,0:2|0:0,0:0:0:0:
386,300,194580,6,0,P|409:321|438:333,1,62.9999980773926,2|0,0:2|0:0,0:0:0:0:
172,57,194932,102,0,P|165:26|149:0,1,62.9999980773926,2|0,0:2|0:0,0:0:0:0:
251,306,195272,6,0,P|253:275|266:246,1,62.9999980773926,2|0,0:2|0:0,0:0:0:0:
330,98,195605,102,0,P|310:122|283:137,1,62.9999980773926,2|0,0:2|0:0,0:0:0:0:
136,215,195931,6,0,P|167:208|198:211,1,62.9999980773926,2|0,0:2|0:0,0:0:0:0:
379,246,196243,102,0,P|350:234|327:212,1,62.9999980773926,2|0,0:2|0:0,0:0:0:0:
188,66,196537,6,0,P|205:93|211:124,1,62.9999980773926,2|0,0:2|0:0,0:0:0:0:
228,338,196828,102,0,P|230:307|243:279,1,62.9999980773926,2|0,0:2|0:0,0:0:0:0:
372,86,197116,6,0,P|351:110|324:125,1,62.9999980773926,2|0,0:2|0:0,0:0:0:0:
92,209,197401,102,0,P|123:202|154:205,1,62.9999980773926,2|0,0:2|0:0,0:0:0:0:
406,282,197684,6,0,P|377:270|354:249,1,62.9999980773926,2|0,0:2|0:0,0:0:0:0:
185,19,197964,102,0,P|202:46|208:77,1,62.9999980773926,2|0,0:2|0:0,0:0:0:0:
212,353,198229,6,0,P|214:321|227:293,1,62.9999980773926,2|0,0:2|0:0,0:0:0:0:
404,72,198492,102,0,P|384:96|357:112,1,62.9999980773926,2|0,0:2|0:0,0:0:0:0:
58,199,198748,6,0,P|88:192|119:195,1,62.9999980773926,2|0,0:2|0:0,0:0:0:0:
430,306,198998,102,0,P|401:294|378:273,1,62.9999980773926,2|0,0:2|0:0,0:0:0:0:
197,12,199239,6,0,P|213:38|219:69,1,62.9999980773926,2|0,0:2|0:0,0:0:0:0:
195,363,199475,102,0,P|197:331|210:303,1,62.9999980773926,2|0,0:2|0:0,0:0:0:0:
420,73,199709,6,0,P|400:97|373:112,1,62.9999980773926,2|0,0:2|0:0,0:0:0:0:
39,187,199941,102,0,P|70:180|101:183,1,62.9999980773926,2|0,0:2|0:0,0:0:0:0:
434,329,200170,6,0,P|405:317|382:296,1,62.9999980773926,2|0,0:2|0:0,0:0:0:0:
205,0,200397,102,0,P|221:26|227:57,1,62.9999980773926,2|0,0:2|0:0,0:0:0:0:
171,372,200620,6,0,P|173:340|186:312,1,62.9999980773926,2|0,0:2|0:0,0:0:0:0:
437,83,200842,102,0,P|416:106|389:122,1,62.9999980773926,2|0,0:2|0:0,0:0:0:0:
29,170,201060,6,0,P|59:162|90:166,1,62.9999980773926,2|0,0:2|0:0,0:0:0:0:
434,347,201275,102,0,P|405:334|381:313,1,62.9999980773926,2|0,0:2|0:0,0:0:0:0:
245,0,201487,6,0,P|282:46|298:215,1,230.99999295044,2|0,0:2|0:0,0:0:0:0:
351,357,202644,102,0,P|294:256|3:247,1,434,6|0,0:0|0:0,0:0:0:0:
159,92,205310,6,0,P|147:195|354:356,1,390.600009536133,6|0,0:0|0:0,0:0:0:0:
160,384,207977,102,0,P|222:315|157:91,1,347.2,6|0,0:0|0:0,0:0:0:0:
309,180,210644,6,0,P|230:195|161:386,1,303.800003708496,6|0,0:0|0:0,0:0:0:0:
103,251,213310,102,0,P|165:279|308:182,1,260.400006357422,6|0,0:0|0:0,0:0:0:0:
276,307,215977,6,0,P|247:256|102:252,1,217,6|0,0:0|0:0,0:0:0:0:
103,250,218643,1,6,0:0:0:0:
256,192,218727,12,0,223310,0:0:0:0:
71,16,223977,102,0,B|117:41|117:41|132:217|132:217|172:43|172:43|224:20,1,455.700014254532,6|0,1:2|0:0,0:0:0:0:
217,23,224643,6,0,B|203:54|203:54|179:65|179:65|131:271|131:271|102:56|102:56|77:42|77:42|69:7,1,543.900013278809,8|0,3:1|0:0,0:0:0:0:
71,17,225310,102,0,B|33:56|33:56|125:373|125:373|245:68|245:68|215:20,1,764.400025660401,0|0,1:0|0:0,0:0:0:0:
0,230,225977,22,2,B|-39:172|136:122|407:155|442:299|359:366|66:362|-133:276|-69:174|45:170,1,833.000015888214,14|0,1:1|0:0,0:1:0:0:
130,338,226310,102,0,L|124:372,6,35,0|0|0|0|0|0|0,1:0|3:0|3:0|3:0|3:0|3:0|3:0,0:0:0:0:
440,17,226643,102,0,B|393:42|393:42|378:218|378:218|338:44|338:44|286:21,1,455.700014254532,6|0,1:2|0:0,0:0:0:0:
294,24,227310,6,0,B|307:55|307:55|331:66|331:66|380:272|380:272|409:57|409:57|434:43|434:43|442:8,1,543.900013278809,8|0,3:1|0:0,0:0:0:0:
440,18,227977,102,0,B|477:57|477:57|386:374|386:374|266:69|266:69|296:21,1,764.400025660401,0|0,1:0|0:0,0:0:0:0:
373,111,228643,6,0,L|376:150,7,35,8|0|0|0|0|0|0|0,1:0|3:0|3:0|3:0|3:0|3:0|3:0|3:0,0:0:0:0:
366,34,228977,2,0,L|362:0,6,35,2|0|0|0|0|0|0,3:0|3:0|3:0|3:0|3:0|3:0|3:0,0:0:0:0:
488,233,229310,102,0,L|-15:181,1,490,6|0,1:2|0:0,0:0:0:0:
0,182,229977,6,0,B|37:134|37:134|445:282|445:282|488:233,1,560,8|0,0:1|0:0,0:0:0:0:
488,232,230643,102,0,B|457:199|457:199|334:218,1,159.599998051758,0|0,1:0|0:0,0:0:0:0:
0,182,230977,2,0,B|31:215|31:215|154:196,1,159.599998051758,0|0,1:0|0:0,0:0:0:0:
257,267,231310,6,0,B|218:16|218:16|241:287,1,490,8|0,3:1|0:0,1:1:0:0:
270,158,231643,2,0,L|278:103,6,35,0|0|0|0|0|0|0,3:0|3:0|3:0|3:0|3:0|3:0|3:0,0:0:0:0:
209,363,231977,102,0,B|174:378|174:378|135:345|135:345|164:269,1,168,0|0,1:0|0:0,0:0:0:0:
167,275,232143,1,2,3:0:0:0:
238,252,232227,1,8,0:0:0:0:
310,230,232310,1,2,3:2:0:0:
382,210,232393,1,8,3:2:0:0:
364,280,232477,1,2,3:0:0:0:
346,352,232560,1,8,0:0:0:0:
419,340,232643,2,0,L|479:321,1,56,8|0,3:1|0:0,0:0:0:0:
115,269,232810,2,0,L|206:285,1,56,8|0,0:0|0:0,0:0:0:0:
385,207,232977,5,2,3:0:0:0:
451,182,233060,1,8,0:0:0:0:
398,130,233143,1,8,0:0:0:0:
345,78,233227,1,8,3:2:0:0:
420,59,233310,102,0,B|470:49|470:49|450:73,1,74.6666666666667,8|2,3:1|3:0,0:0:0:0:
255,172,233532,6,0,B|221:133|221:133|252:139,1,74.6666666666667,8|2,3:1|3:0,0:0:0:0:
439,257,233755,102,0,B|422:305|422:305|411:275,1,74.6666666666667,8|2,3:1|3:0,0:0:0:0:
342,75,233977,6,0,L|360:-23,1,56,8|0,3:1|0:0,0:0:0:0:
310,270,234143,2,0,L|292:368,1,56,8|0,3:2|0:0,0:0:0:0:
454,186,234310,101,8,3:2:0:0:
401,132,234393,1,2,3:2:0:0:
328,153,234477,1,8,3:2:0:0:
268,105,234560,1,8,0:0:0:0:
199,139,234643,1,4,1:0:0:0:
172,375,234810,37,2,3:0:0:0:
95,384,234893,1,2,3:2:0:0:
119,315,234977,1,4,3:3:0:0:
142,246,235060,1,8,3:2:0:0:
71,262,235143,1,2,3:0:0:0:
0,278,235227,1,8,3:2:0:0:
21,207,235310,2,0,L|39:151,1,41.9999987182618,8|0,3:1|0:0,0:0:0:0:
275,50,235477,69,2,3:0:0:0:
336,91,235560,1,10,3:2:0:0:
271,128,235643,1,4,3:3:0:0:
200,161,235727,1,0,3:0:0:0:
205,90,235810,1,2,3:3:0:0:
210,18,235893,1,8,3:2:0:0:
251,89,235977,37,4,1:3:0:0:
503,136,236143,69,2,3:0:0:0:
487,205,236227,1,2,3:2:0:0:
466,274,236310,1,8,3:0:0:0:
412,221,236393,1,2,3:2:0:0:
362,167,236477,1,2,3:0:0:0:
336,256,236560,1,8,3:2:0:0:
309,344,236643,2,0,L|293:400,1,41.9999987182618,8|0,3:1|0:0,0:0:0:0:
500,133,236810,2,0,L|517:76,1,41.9999987182618,8|0,3:2|0:0,0:0:0:0:
388,71,236977,37,8,3:2:0:0:
403,144,237060,1,2,3:0:0:0:
415,218,237143,1,4,3:3:0:0:
429,296,237227,1,2,3:2:0:0:
444,370,237310,1,4,1:0:0:0:
43,219,237477,69,2,3:0:0:0:
31,291,237560,1,2,3:2:0:0:
98,267,237643,1,4,3:0:0:0:
166,241,237727,1,8,3:2:0:0:
234,216,237810,1,2,3:0:0:0:
224,288,237893,1,8,3:2:0:0:
293,267,237977,2,0,L|338:251,1,41.9999987182618,8|0,3:1|0:0,0:0:0:0:
483,44,238143,37,2,3:0:0:0:
410,24,238227,1,8,3:2:0:0:
426,95,238310,1,4,3:0:0:0:
441,166,238393,1,2,3:2:0:0:
368,149,238477,1,2,3:0:0:0:
297,132,238560,1,8,3:2:0:0:
330,250,238643,69,4,1:3:0:0:
236,33,238810,37,2,3:0:0:0:
164,49,238893,1,8,3:2:0:0:
91,63,238977,1,8,3:3:0:0:
142,120,239060,1,2,3:2:0:0:
193,175,239143,1,2,3:0:0:0:
100,203,239227,1,8,3:2:0:0:
7,233,239310,70,0,L|-3:284,1,31.4999990386963,8|0,3:1|0:0,0:0:0:0:
103,206,239393,2,0,L|96:236,1,31.4999990386963,2|0,3:0|0:0,0:0:0:0:
196,178,239477,2,0,L|189:208,1,31.4999990386963,8|0,3:2|0:0,0:0:0:0:
133,343,239643,38,0,L|90:40,1,280,8|4,3:0|3:0,0:0:0:0:
36,22,239893,1,2,3:2:0:0:
36,22,239977,1,4,1:0:0:0:
286,218,240143,69,2,3:0:0:0:
278,146,240227,1,8,3:2:0:0:
347,172,240310,1,8,3:0:0:0:
416,201,240393,1,2,3:2:0:0:
405,128,240477,1,2,3:0:0:0:
394,57,240560,1,8,3:2:0:0:
463,84,240643,2,0,L|516:106,1,41.9999987182618,8|0,3:1|0:0,0:0:0:0:
359,330,240810,37,2,3:0:0:0:
291,354,240893,1,8,3:2:0:0:
218,376,240977,1,4,3:0:0:0:
232,304,241060,1,2,3:2:0:0:
161,323,241143,1,2,3:0:0:0:
179,251,241226,1,8,3:2:0:0:
199,181,241310,1,4,1:3:0:0:
143,20,241477,69,2,3:0:0:0:
71,42,241560,1,8,3:2:0:0:
0,60,241643,1,8,3:0:0:0:
46,117,241727,1,2,3:2:0:0:
104,161,241810,1,2,3:0:0:0:
130,93,241893,1,8,3:2:0:0:
146,23,241977,2,0,L|202:3,1,41.9999987182618,8|0,3:1|0:0,0:0:0:0:
43,120,242143,2,0,L|-13:140,1,41.9999987182618,8|4,3:2|3:0,0:0:0:0:
229,157,242310,37,2,3:0:0:0:
298,220,242393,1,8,3:0:0:0:
211,264,242477,2,0,L|142:250,1,41.9999987182618,4|8,1:3|0:0,0:0:0:0:
0,384,242643,85,4,1:0:0:0:
71,367,242810,1,2,3:0:0:0:
140,348,242977,1,8,3:2:0:0:
91,295,243143,1,8,3:2:0:0:
95,288,243227,1,8,3:2:0:0:
99,282,243310,1,8,3:1:0:0:
167,259,243477,1,8,3:2:0:0:
238,241,243643,101,0,3:0:0:0:
242,234,243727,1,8,3:2:0:0:
246,228,243810,1,2,3:0:0:0:
249,222,243893,1,8,3:2:0:0:
312,190,243977,1,8,3:2:0:0:
308,183,244060,1,8,3:2:0:0:
245,150,244143,1,8,3:2:0:0:
288,295,244310,5,2,3:2:0:0:
291,302,244393,1,8,3:2:0:0:
294,309,244477,1,2,3:0:0:0:
361,335,244560,1,8,0:0:0:0:
256,192,244581,12,0,245227,0:0:0:0:
425,292,245310,6,2,B|479:263|514:134|518:67|462:34|407:34|386:52|323:147|316:241|309:313|327:352|372:334,1,587.999982055665,4|0,1:0|0:0,0:2:0:0:
354,340,245643,102,0,P|386:364|391:387,6,56,2|0|0|0|0|0|0,3:0|3:0|3:0|3:0|3:0|3:0|3:0,1:0:0:0:
265,352,245977,102,0,L|212:365,1,41.9999987182618,8|0,3:1|0:0,0:0:0:0:
124,313,246143,37,2,3:0:0:0:
58,280,246227,1,8,3:2:0:0:
120,239,246310,1,8,3:0:0:0:
185,203,246393,1,2,3:2:0:0:
253,171,246477,1,2,3:0:0:0:
244,244,246560,1,8,3:2:0:0:
229,317,246643,2,0,L|220:367,1,41.9999987182618,0|0,1:0|0:0,0:0:0:0:
37,175,246810,69,2,3:0:0:0:
20,103,246893,1,8,3:2:0:0:
4,30,246977,1,4,3:3:0:0:
78,46,247060,1,2,3:2:0:0:
149,66,247143,1,2,3:0:0:0:
94,119,247227,1,8,3:2:0:0:
208,159,247310,38,0,L|248:170,1,41.9999987182618,8|0,3:1|0:0,0:0:0:0:
7,33,247477,2,0,L|51:44,1,41.9999987182618,8|0,3:2|0:0,0:0:0:0:
152,69,247643,69,2,3:0:0:0:
226,53,247727,1,8,3:2:0:0:
299,36,247810,1,8,3:0:0:0:
372,20,247893,1,8,3:2:0:0:
445,0,247977,1,4,1:0:0:0:
496,123,248143,37,2,3:0:0:0:
425,105,248227,1,8,3:2:0:0:
355,89,248310,1,8,3:0:0:0:
374,162,248393,1,2,3:2:0:0:
393,235,248477,1,2,3:0:0:0:
318,210,248560,1,8,3:2:0:0:
347,334,248643,70,0,L|357:374,1,41.9999987182618,8|0,3:1|0:0,0:0:0:0:
68,282,248810,37,2,3:0:0:0:
87,214,248893,1,8,3:2:0:0:
109,143,248977,1,4,3:0:0:0:
166,191,249060,1,2,3:2:0:0:
211,247,249143,1,2,3:0:0:0:
141,269,249227,1,8,3:2:0:0:
71,285,249310,2,0,L|57:343,1,41.9999987182618,4|0,1:3|0:0,0:0:0:0:
226,50,249477,69,2,3:0:0:0:
295,25,249560,1,8,3:2:0:0:
364,1,249643,1,8,3:0:0:0:
350,73,249727,1,2,3:2:0:0:
334,145,249810,1,2,3:0:0:0:
317,218,249893,1,8,3:2:0:0:
458,186,249977,38,0,L|427:193,1,31.4999990386963,8|0,3:1|0:0,0:0:0:0:
351,214,250060,2,0,L|321:222,1,31.4999990386963,2|0,3:0|0:0,0:0:0:0:
244,242,250143,2,0,L|213:249,1,31.4999990386963,8|0,3:2|0:0,0:0:0:0:
512,246,250310,70,0,L|118:179,1,350,8|4,3:0|3:0,0:0:0:0:
126,131,250560,1,2,3:0:0:0:
126,131,250643,1,4,1:0:0:0:
0,384,250810,37,2,3:0:0:0:
70,358,250893,1,8,3:2:0:0:
137,332,250977,1,4,3:0:0:0:
78,285,251060,1,2,3:2:0:0:
23,236,251143,1,2,3:0:0:0:
92,211,251227,1,8,3:2:0:0:
196,182,251310,70,0,L|254:192,1,41.9999987182618,8|0,3:1|0:0,0:0:0:0:
366,349,251477,37,2,3:0:0:0:
440,334,251560,1,8,3:2:0:0:
512,313,251643,1,8,3:0:0:0:
463,255,251727,1,2,3:2:0:0:
408,206,251810,1,2,3:0:0:0:
384,275,251893,1,8,3:2:0:0:
362,351,251977,2,0,L|304:363,1,41.9999987182618,4|0,1:3|0:0,0:0:0:0:
234,192,252143,69,2,3:0:0:0:
163,175,252227,1,8,3:2:0:0:
214,121,252310,1,4,3:0:0:0:
268,72,252393,1,2,3:2:0:0:
199,49,252477,1,2,3:0:0:0:
128,29,252560,1,8,3:2:0:0:
18,140,252643,38,0,L|91:122,1,41.9999987182618,8|0,3:1|0:0,0:0:0:0:
312,65,252810,2,0,L|239:83,1,41.9999987182618,8|4,3:2|3:0,0:0:0:0:
160,178,252977,69,2,3:0:0:0:
136,246,253060,1,8,3:2:0:0:
111,314,253143,1,4,3:0:0:0:
183,305,253227,1,8,3:2:0:0:
254,293,253310,1,4,1:0:0:0:
256,192,253393,12,0,255643,0:0:0:0:
30,149,255977,70,0,P|90:86|166:98,1,167.999994873047,0|2,1:0|3:2,0:0:0:0:
270,67,256532,22,0,L|220:79,1,27.9999991455078,0|0,3:0|0:0,0:0:0:0:
1,9,256643,2,0,P|30:47|104:54,1,111.999996582031,8|0,3:1|0:0,0:0:0:0:
161,94,256977,2,0,P|169:37|223:-8,1,111.999996582031,0|0,1:0|0:0,0:0:0:0:
128,205,257310,86,0,P|144:125|93:61,1,167.999994873047,0|0,1:0|3:0,0:0:0:0:
57,130,257866,22,0,L|68:159,1,27.9999991455078,0|0,3:0|0:0,0:0:0:0:
118,336,257977,2,0,B|185:349|147:364|233:381,1,111.999996582031,8|0,3:1|0:0,0:0:0:0:
28,361,258310,2,0,B|129:340|76:297|207:286,1,186.666666666667,0|0,1:0|0:0,0:0:0:0:
302,355,258643,86,0,P|357:311|329:225,1,167.999994873047,0|0,1:0|3:0,0:0:0:0:
198,284,259199,22,0,L|231:289,1,27.9999991455078,0|0,3:0|0:0,0:0:0:0:
383,310,259310,2,0,P|335:283|329:230,1,111.999996582031,8|0,3:1|0:0,0:0:0:0:
291,162,259643,2,0,P|341:148|375:97,1,111.999996582031,0|0,1:0|0:0,0:0:0:0:
359,232,259977,102,0,L|318:224,1,27.9999991455078,0|0,1:0|0:0,0:0:0:0:
209,205,260088,1,8,3:2:0:0:
209,205,260143,1,8,3:2:0:0:
209,205,260199,1,8,3:2:0:0:
460,203,260310,102,0,L|410:217,1,27.9999991455078,8|0,3:2|0:0,0:0:0:0:
268,262,260421,1,8,3:2:0:0:
294,165,260532,1,8,3:2:0:0:
132,237,260643,2,0,L|211:207,1,83.9999974365235,8|0,3:1|0:0,0:0:0:0:
211,207,260866,1,8,3:2:0:0:
271,265,260977,6,0,B|337:283|304:302|390:322,1,111.999996582031,0|0,1:0|0:0,0:0:0:0:
217,323,261310,6,0,P|137:320|85:391,1,167.999994873047,0|0,1:0|3:0,0:0:0:0:
297,384,261866,86,0,L|247:368,1,27.9999991455078,0|0,3:0|0:0,0:0:0:0:
80,312,261977,2,0,P|49:295|31:215,1,111.999996582031,8|0,3:1|0:0,0:0:0:0:
156,285,262310,2,0,P|176:234|155:184,1,111.999996582031,0|0,1:1|0:0,0:0:0:0:
244,113,262643,22,0,B|143:95|206:56|90:37,1,167.999994873047,0|0,1:0|3:0,0:0:0:0:
30,111,263199,1,0,3:0:0:0:
81,166,263310,2,0,P|125:157|156:100,1,111.999996582031,8|0,3:1|3:0,0:0:0:0:
102,43,263643,86,0,L|116:101,1,41.9999987182618,0|0,1:0|0:0,0:0:0:0:
158,181,263810,2,0,L|172:239,1,41.9999987182618,8|0,3:2|0:0,0:0:0:0:
107,323,263977,22,0,P|98:258|176:170,1,167.999994873047,0|0,1:0|3:0,0:0:0:0:
227,69,264532,1,0,3:0:0:0:
282,118,264643,2,0,P|321:115|368:40,1,111.999996582031,8|0,3:1|0:0,0:0:0:0:
236,185,264977,86,0,P|245:201|247:228,5,27.9999991455078,0|0|0|0|0|0,1:0|3:0|3:0|3:0|3:0|3:0,0:0:0:0:
165,106,265310,2,0,P|149:76|144:53,2,55.9999982910157,0|0|0,1:0|3:0|3:0,0:0:0:0:
324,190,265643,21,2,3:0:0:0:
364,202,265755,1,0,3:0:0:0:
383,239,265866,1,0,3:0:0:0:
317,306,265977,86,0,L|271:297,1,27.9999991455078,8|0,3:1|0:0,0:0:0:0:
23,256,266310,22,0,L|64:264,1,37.3333333333333,8|0,1:1|0:0,0:0:0:0:
119,318,266643,86,0,B|195:303|146:264|244:247,1,140,0|0,1:0|3:0,0:0:0:0:
238,245,267199,21,0,3:0:0:0:
299,296,267310,2,0,P|350:283|365:245,1,93.3333333333333,8|0,3:1|3:0,0:0:0:0:
235,248,267643,2,0,P|260:296|246:364,1,116.666666666667,0|0,1:0|0:0,0:0:0:0:
176,380,267977,86,0,P|152:343|165:236,1,140,0|0,1:0|3:0,0:0:0:0:
153,247,268532,21,0,3:0:0:0:
224,212,268643,2,0,P|245:185|234:123,1,93.3333333333333,8|0,3:1|3:0,0:0:0:0:
168,111,268977,2,0,L|137:118,4,23.3333333333333,0|0|0|0|0,1:0|3:0|3:0|3:0|3:0,0:0:0:0:
269,53,269310,86,0,B|322:42|289:27|353:6,1,93.3333333333333,0|0,1:0|3:0,0:0:0:0:
352,38,269643,2,0,B|298:46|323:20|256:23,1,93.3333333333333,0|0,3:2|3:0,0:0:0:0:
322,110,269977,22,0,L|327:143,1,23.3333333333333,8|0,3:1|0:0,0:0:0:0:
325,133,270199,85,0,3:0:0:0:
385,190,270310,2,0,L|368:288,1,93.3333333333333,0|0,1:0|0:0,0:0:0:0:
302,327,270643,5,0,1:0:0:0:
237,355,270755,1,8,3:2:0:0:
232,350,270810,1,8,3:2:0:0:
232,343,270866,1,8,3:2:0:0:
306,331,270977,101,0,0:0:0:0:
379,353,271088,1,0,0:0:0:0:
452,375,271199,1,0,0:0:0:0:
512,307,271310,6,0,L|469:316,1,23.3333333333333,8|0,3:1|0:0,0:0:0:0:
133,374,271532,102,0,L|176:365,1,23.3333333333333,8|0,3:2|0:0,0:0:0:0:
309,328,271643,2,2,P|318:264|285:212,1,116.666666666667,0|0,1:0|0:0,0:0:0:0:
226,162,271977,22,0,P|222:115|289:44,1,140,0|0,1:0|3:0,0:0:0:0:
275,44,272532,85,0,3:0:0:0:
346,68,272643,2,0,P|390:60|413:9,1,93.3333333333333,8|0,3:1|3:0,0:0:0:0:
272,41,272977,2,0,P|321:81|292:156,1,140,0|0,1:0|1:0,0:0:0:0:
214,229,273532,21,0,3:0:0:0:
183,249,273643,2,0,B|130:234|160:212|89:199,1,93.3333333333333,0|0,3:0|3:0,0:0:0:0:
46,253,273977,2,0,L|38:287,1,23.3333333333333,8|0,3:1|0:0,0:0:0:0:
102,317,274199,85,0,3:0:0:0:
133,300,274310,2,0,P|144:266|88:202,1,116.666666666667,0|0,1:0|0:0,0:0:0:0:
28,384,274643,22,0,P|74:290|375:264,1,438.666666666667,6|0,1:2|0:0,0:0:0:0:
374,263,277310,1,6,0:0:0:0:
256,192,277393,12,8,279977,0:3:0:0:
256,192,280060,12,4,282644,0:3:0:0:
256,192,282727,12,8,285311,0:3:0:0:
256,192,285393,12,8,287977,0:3:0:0:
256,192,288060,12,4,290644,0:3:0:0:
256,192,290727,12,4,293310,0:3:0:0:
256,192,293393,12,0,297977,0:0:0:0:
