osu file format v14

[General]
AudioFilename: audio.mp3
AudioLeadIn: 0
PreviewTime: -1
Countdown: 0
SampleSet: None
StackLeniency: 0.2
Mode: 0
LetterboxInBreaks: 0
WidescreenStoryboard: 1

[Editor]
Bookmarks: 11340,22007,22590,23923
DistanceSpacing: 0.9
BeatDivisor: 4
GridSize: 4
TimelineZoom: 1.1

[Metadata]
Title:Oriental Blossom
TitleUnicode:Oriental Blossom
Artist:Eisyo-kobu+-+
ArtistUnicode:Eisyo-kobu+-+
Creator:WORSTPOLACKEU
Version:cool emilia
Source:
Tags:
BeatmapID:1671776
BeatmapSetID:794742

[Difficulty]
HPDrainRate:5
CircleSize:4.6
OverallDifficulty:8
ApproachRate:9.5
SliderMultiplier:2
SliderTickRate:1

[Events]
//Background and Video events
0,0,"xddd.jpg",0,0
//Break Periods
//Storyboard Layer 0 (Background)
//Storyboard Layer 1 (Fail)
//Storyboard Layer 2 (Pass)
//Storyboard Layer 3 (Foreground)
//Storyboard Sound Samples

[TimingPoints]
674,333.333333333333,4,2,31,50,1,0
674,-111.111111111111,4,2,31,50,0,0
6673,-90.9090909090908,4,2,31,50,0,0
8340,-111.111111111111,4,2,31,50,0,0
8673,-90.9090909090909,4,2,31,50,0,0
10007,-142.857142857143,4,2,31,50,0,0
11007,-66.6666666666667,4,2,31,50,0,0
11340,-38.4615384615385,4,2,31,50,0,0
15507,-43.4782608695652,4,2,31,50,0,0
15673,-50,4,2,31,50,0,0
15840,-76.9230769230769,4,2,31,50,0,0
16007,-50,4,2,31,50,0,0
16173,-43.4782608695652,4,2,31,50,0,0
16340,-41.6666666666667,4,2,31,50,0,0
16507,-38.4615384615385,4,2,31,50,0,0
20173,-45.4545454545455,4,2,31,50,0,0
20340,-55.5555555555556,4,2,31,50,0,0
20507,-71.4285714285714,4,2,31,50,0,0
20840,-38.4615384615385,4,2,31,50,0,0
21840,-34.4827586206897,4,2,31,50,0,0
22007,-93.75,4,2,31,50,0,0
22340,-100,4,2,31,50,0,0

[Colours]
Combo1 : 244,138,138
Combo2 : 240,174,227
Combo3 : 247,243,179
Combo4 : 189,222,88

[HitObjects]
157,15,674,6,0,B|195:0|195:0|235:28|233:72|201:110,1,134.999995880127
209,95,1007,2,0,P|156:108|121:76,1,89.9999972534181
0,126,1340,2,0,B|27:102|58:101|58:101|68:157|139:168,1,134.999995880127
98,155,1673,2,0,P|100:204|68:238,1,89.9999972534181
84,237,1923,1,0,0:0:0:0:
92,240,2007,6,0,P|47:266|-3:255,1,89.9999972534181
163,384,2340,2,0,P|140:350|149:294,1,89.9999972534181
232,220,2673,2,0,B|226:257|249:285|240:271|287:303|270:353,1,134.999995880127
207,330,3007,2,0,B|218:294|251:278|237:287|293:279|299:226,1,134.999995880127
297,236,3340,6,0,P|343:247|379:216,1,89.9999972534181
434,124,3673,2,0,P|469:98|511:109,1,89.9999972534181
455,202,4007,2,0,L|309:156,1,134.999995880127
332,153,4340,2,0,B|286:141|286:141|239:172,1,89.9999972534181
170,63,4673,6,0,L|179:179,1,89.9999972534181
50,199,5007,2,0,B|96:187|96:187|143:218,1,89.9999972534181
68,279,5340,2,0,B|26:267|26:267|-23:303|6:362,1,134.999995880127
9,360,5673,2,0,P|55:380|125:325,1,134.999995880127
190,373,6007,5,0,0:0:0:0:
190,373,6340,1,0,0:0:0:0:
190,373,6673,2,0,L|371:355,1,165.000005035401
427,377,7007,1,0,0:0:0:0:
508,298,7340,5,0,0:0:0:0:
508,298,7673,1,0,0:0:0:0:
508,298,8007,2,0,L|327:280,1,165.000005035401
271,302,8340,6,0,B|251:325|251:325|235:259|299:226,1,134.999995880127
426,46,8673,6,0,P|404:87|368:103,1,55.0000016784668
302,11,8840,2,0,P|297:57|319:89,1,55.0000016784668
426,158,9007,6,0,P|379:159|348:135,1,55.0000016784668
243,105,9174,2,0,P|281:131|320:127,1,55.0000016784668
494,271,9340,6,0,P|464:237|427:228,1,55.0000016784668
177,154,9507,2,0,P|149:154|124:165,1,55.0000016784668
419,352,9673,6,0,P|425:311|408:271,1,55.0000016784668
171,226,9840,2,0,P|154:247|145:273,1,55.0000016784668
262,384,10007,6,0,L|286:297,2,69.9999978637696
357,220,10507,2,0,P|316:209|257:247,1,104.999996795654
258,249,10840,1,0,0:0:0:0:
492,353,11007,6,0,P|427:362|412:279,1,150.000005722046
469,51,11340,6,0,B|445:75|445:107|445:107|419:76|371:75,1,129.999994049073
231,373,11507,2,0,B|232:302|270:324|256:247,1,129.999994049073
180,262,11673,2,0,P|279:263|384:148,1,259.999988098145
332,21,11923,1,0,0:0:0:0:
322,12,12007,6,0,B|295:-1|265:13|247:63|309:114,1,129.999994049073
512,156,12173,2,0,B|458:151|458:151|444:156|444:156|346:149,1,129.999994049073
125,137,12340,2,0,B|321:108|321:108|285:158|338:238,1,259.999988098145
480,245,12673,6,0,B|398:231|398:231|390:220|390:220|344:233|344:233|353:227|353:227|243:207,1,259.999988098145
31,312,13007,2,0,P|20:268|41:306,1,129.999994049073
143,333,13173,2,0,B|145:369|123:391|123:391|113:358|140:327,1,129.999994049073
0,197,13340,6,0,B|77:172|123:250|123:250|118:161|219:132,1,259.999988098145
218,75,13590,1,0,0:0:0:0:
217,83,13673,2,0,B|213:135|213:135|217:150|217:150|208:242,1,129.999994049073
372,193,13840,2,0,B|341:176|334:139|334:139|322:175|248:195,1,129.999994049073
196,351,14007,6,0,B|177:381|139:383|139:383|192:403|277:348|244:273,1,259.999988098145
9,287,14257,1,0,0:0:0:0:
20,301,14340,2,0,B|42:326|42:326|165:307,1,129.999994049073
338,325,14507,2,0,B|336:269|336:269|315:389,1,129.999994049073
355,166,14673,6,0,B|336:136|298:134|298:134|351:114|436:169|403:244,1,259.999988098145
168,230,14923,1,0,0:0:0:0:
179,216,15006,2,0,B|201:191|201:191|324:210,1,129.999994049073
497,192,15173,2,0,B|495:248|495:248|474:128,1,129.999994049073
144,114,15340,6,0,P|188:69|251:74,1,129.999994049073
414,128,15507,6,0,P|356:140|307:74,1,115.000002193451
297,18,15673,6,0,P|323:59|316:107,1,100
194,199,15840,6,0,P|203:157|225:134,1,64.9999970245363
269,195,16007,6,0,P|309:239|293:311,1,100
133,280,16173,6,0,P|180:249|234:263,1,115.000002193451
199,368,16340,6,0,P|198:309|234:262,1,119.999996337891
378,308,16507,6,0,P|331:349|269:338,1,129.999994049073
288,120,16673,5,0,0:0:0:0:
288,120,17007,1,0,0:0:0:0:
238,56,17173,2,0,B|215:30|215:30|335:46,1,129.999994049073
479,21,17340,6,0,B|492:45|519:62|519:62|450:52|450:52|432:56|432:56|413:41|413:41|415:45|415:45|301:34,1,259.999988098145
0,135,17673,2,0,B|18:99|59:76|120:94|158:135|169:193|105:191|91:128|116:64|152:54|186:70,1,259.999988098145
475,312,18007,6,0,B|449:328|443:364|443:364|427:338|386:329,1,129.999994049073
268,242,18173,2,0,B|275:213|275:213|394:229,1,129.999994049073
475,312,18340,2,0,B|394:320|394:320|370:314|370:314|343:337|343:337|348:328|348:328|185:343,1,259.999988098145
39,246,18590,1,0,0:0:0:0:
33,234,18673,6,0,B|15:198|15:198|87:149|197:196|201:287,1,259.999988098145
94,384,18923,1,0,0:0:0:0:
94,384,19007,2,0,B|98:346|98:346|93:332|93:332|108:309|108:309|104:311|104:311|114:228,1,129.999994049073
270,215,19173,2,0,B|278:274|278:274|251:168,1,129.999994049073
38,228,19340,6,0,B|20:192|20:192|92:143|202:190|206:281,1,259.999988098145
99,378,19590,1,0,0:0:0:0:
99,378,19674,2,0,B|103:340|103:340|98:326|98:326|113:303|113:303|109:305|109:305|119:222,1,129.999994049073
275,209,19840,2,0,B|283:268|283:268|256:162,1,129.999994049073
276,19,20007,6,0,P|347:4|400:72,1,129.999994049073
349,174,20173,6,0,P|319:129|324:75,1,110.000003356934
460,58,20340,6,0,P|435:95|394:109,1,89.9999972534181
273,117,20507,6,0,P|292:88|324:75,1,69.9999978637696
409,223,20673,5,0,0:0:0:0:
156,13,20840,2,0,B|135:81|194:72|170:150,1,129.999994049073
156,13,21007,2,0,B|151:84|99:54|93:135,1,129.999994049073
13,84,21173,2,0,P|11:40|19:83,1,129.999994049073
125,210,21340,6,0,B|127:267|83:250|67:308|67:308|69:247|26:254|34:200|51:175,1,259.999988098145
143,323,21590,1,0,0:0:0:0:
142,331,21673,2,0,B|136:366|163:387|163:387|175:355|133:309,1,129.999994049073
240,253,21840,6,0,B|260:288|298:286|298:286|283:248|218:246,1,145.000004425049
294,99,22007,6,0,B|338:117|367:83|367:83|324:63|271:108,1,160
212,122,22340,6,0,L|220:50,1,50
234,0,22507,2,0,L|229:50,1,50
180,181,22673,1,0,0:0:0:0:
224,189,22757,1,0,0:0:0:0:
262,166,22840,1,0,0:0:0:0:
258,180,22923,1,0,0:0:0:0:
254,194,23007,1,0,0:0:0:0:
298,187,23090,1,0,0:0:0:0:
336,210,23173,1,0,0:0:0:0:
338,224,23257,1,0,0:0:0:0:
341,238,23340,6,0,B|380:207|380:207|447:232,1,100
497,246,23590,1,0,0:0:0:0:
510,253,23673,2,0,L|499:125,1,100
409,292,23923,1,0,0:0:0:0:
396,285,24006,2,0,L|407:413,1,100
425,120,24340,2,0,L|433:20,1,100
353,161,24673,1,0,0:0:0:0:
289,96,24840,1,0,0:0:0:0:
274,92,24923,1,0,0:0:0:0:
258,88,25007,1,0,0:0:0:0:
188,144,25173,1,0,0:0:0:0:
124,209,25340,1,0,0:0:0:0:
109,213,25423,1,0,0:0:0:0:
93,217,25507,1,0,0:0:0:0:
