osu file format v14

[General]
AudioFilename: audio.mp3
AudioLeadIn: 0
PreviewTime: -1
Countdown: 0
SampleSet: None
StackLeniency: 0.2
Mode: 0
LetterboxInBreaks: 0
WidescreenStoryboard: 1

[Editor]
DistanceSpacing: 0.5
BeatDivisor: 4
GridSize: 4
TimelineZoom: 2.999999

[Metadata]
Title:Oriental Blossom
TitleUnicode:Oriental Blossom
Artist:Eisyo-kobu+-+
ArtistUnicode:Eisyo-kobu+-+
Creator:WORSTPOLACKEU
Version:Lukaszek
Source:
Tags:
BeatmapID:1676912
BeatmapSetID:794742

[Difficulty]
HPDrainRate:5
CircleSize:3.8
OverallDifficulty:9
ApproachRate:9
SliderMultiplier:2
SliderTickRate:1

[Events]
//Background and Video events
0,0,"xddd.jpg",0,0
//Break Periods
//Storyboard Layer 0 (Background)
//Storyboard Layer 1 (Fail)
//Storyboard Layer 2 (Pass)
//Storyboard Layer 3 (Foreground)
//Storyboard Sound Samples

[TimingPoints]
674,333.333333333333,4,2,31,50,1,0
11340,-71.4285714285714,4,2,31,75,0,0
16673,-142.857142857143,4,2,31,75,0,0
17007,-100,4,2,31,75,0,0
17340,-76.9230769230769,4,2,31,75,0,0
17673,-62.5,4,2,31,75,0,0
18007,-50,4,2,31,75,0,0
18331,-33.3333333333333,4,2,31,75,0,0
18590,-36.3636363636364,4,2,31,5,0,0
18673,-50,4,2,31,75,0,0
19340,-150.15015015015,4,2,31,75,0,0
19673,-50,4,2,31,75,0,0
21340,-71.4285714285714,4,2,31,75,0,0

[Colours]
Combo1 : 255,128,128
Combo2 : 240,174,238
Combo3 : 241,247,179
Combo4 : 240,9,32

[HitObjects]
3,230,11340,6,0,B|60:239|104:225|104:225|132:253|132:253|170:234|219:233,1,209.999993591309
236,316,11673,2,0,P|202:362|209:314,1,139.999995727539
405,207,12007,2,0,L|335:214,1,69.9999978637696
258,176,12173,2,0,L|327:183,1,69.9999978637696
486,330,12340,2,0,L|416:337,1,69.9999978637696
315,296,12506,2,0,L|384:303,1,69.9999978637696
443,105,12673,6,0,B|459:61|423:4|423:4|352:3|308:77,1,209.999993591309
258,176,13007,2,0,L|327:183,1,69.9999978637696
405,207,13173,2,0,L|335:214,1,69.9999978637696
81,198,13340,2,0,B|38:178|23:112|23:112|73:61|156:82,1,209.999993591309
153,158,13673,2,0,P|167:191|160:227,1,69.9999978637696
138,258,13840,2,0,L|226:271,1,69.9999978637696
334,338,14007,5,0,0:0:0:0:
375,336,14090,1,0,0:0:0:0:
416,333,14173,1,0,0:0:0:0:
458,329,14257,1,0,0:0:0:0:
495,253,14340,2,0,L|486:171,1,69.9999978637696
472,143,14507,2,0,P|437:147|410:169,1,69.9999978637696
334,338,14673,5,0,0:0:0:0:
375,336,14756,1,0,0:0:0:0:
416,333,14839,1,0,0:0:0:0:
458,329,14923,1,0,0:0:0:0:
495,253,15006,2,0,L|486:171,1,69.9999978637696
472,143,15173,2,0,P|437:147|410:169,1,69.9999978637696
334,338,15340,5,0,0:0:0:0:
418,333,15507,1,0,0:0:0:0:
232,134,15673,1,0,0:0:0:0:
148,129,15840,1,0,0:0:0:0:
334,338,16007,5,0,0:0:0:0:
232,134,16173,1,0,0:0:0:0:
418,333,16340,1,0,0:0:0:0:
148,129,16507,1,0,0:0:0:0:
357,38,16673,6,0,L|442:41,1,69.9999978637696
306,110,17007,2,0,L|448:114,1,100
250,182,17340,2,0,L|418:187,1,129.999994049073
194,254,17673,2,0,L|415:261,1,160
116,325,18007,2,0,L|378:334,1,200
0,95,18340,6,0,B|-16:44|-28:-4|72:-52|190:34|119:81|112:115|75:150|75:150|51:181|26:186|2:243|9:268|57:313|69:317|105:322|106:322,1,525.000020027161
116,325,18673,6,0,L|378:334,1,200
449,60,19007,6,0,L|446:160,1,100
450,209,19173,2,0,P|394:225|340:209,1,100
237,64,19340,2,0,P|181:48|127:64,1,116.550002845459
119,92,19673,6,0,L|116:192,1,100
120,241,19839,2,0,P|64:257|10:241,1,100
256,161,20007,2,0,L|253:261,1,100
257,310,20173,2,0,P|201:326|147:310,1,100
403,224,20340,2,0,L|400:324,1,100
404,373,20506,2,0,P|348:389|294:373,1,100
237,64,20673,5,0,0:0:0:0:
253,260,20840,1,0,0:0:0:0:
387,28,21006,1,0,0:0:0:0:
403,224,21173,1,0,0:0:0:0:
245,164,21340,6,0,L|99:146,1,139.999995727539
