osu file format v14

[General]
AudioFilename: audio.mp3
AudioLeadIn: 0
PreviewTime: -1
Countdown: 0
SampleSet: Soft
StackLeniency: 0.2
Mode: 0
LetterboxInBreaks: 0
WidescreenStoryboard: 0

[Editor]
DistanceSpacing: 1.2
BeatDivisor: 8
GridSize: 4
TimelineZoom: 2.999999

[Metadata]
Title:Oriental Blossom
TitleUnicode:Oriental Blossom
Artist:Eisyo-kobu+-+
ArtistUnicode:Eisyo-kobu+-+
Creator:WORSTPOLACKEU
Version:CHERI CHERI LADY
Source:
Tags:
BeatmapID:1669242
BeatmapSetID:794742

[Difficulty]
HPDrainRate:5
CircleSize:4.3
OverallDifficulty:9.7
ApproachRate:9.5
SliderMultiplier:2
SliderTickRate:1

[Events]
//Background and Video events
0,0,"xddd.jpg",0,0
//Break Periods
2,54206,58815
//Storyboard Layer 0 (Background)
//Storyboard Layer 1 (Fail)
//Storyboard Layer 2 (Pass)
//Storyboard Layer 3 (Foreground)
//Storyboard Sound Samples

[TimingPoints]
674,333.333333333333,4,2,31,50,1,0
10840,-66.6666666666667,4,2,31,50,0,0
11007,-50,4,2,31,50,0,0
11340,-83.3333333333333,4,2,31,50,0,0
16340,-66.6666666666667,4,2,31,50,0,0
16673,-83.3333333333333,4,2,31,50,0,0
17007,-76.9230769230769,4,2,31,50,0,0
17340,-71.4285714285714,4,2,31,50,0,0
17673,-66.6666666666667,4,2,31,50,0,0
18007,-62.5,4,2,31,50,0,0
18340,-57.1428571428571,4,2,31,50,0,0
18673,-66.6666666666667,4,2,31,50,0,0
22007,-50,4,2,31,50,0,0
22257,-55.5555555555556,4,2,31,5,0,0
22340,-55.5555555555556,4,2,31,50,0,0
23673,-62.5,4,2,31,50,0,0
24007,-71.4285714285714,4,2,31,50,0,0
24673,-62.5,4,2,31,50,0,0
26340,-83.3333333333333,4,2,31,50,0,0
30507,-62.5,4,2,31,50,0,0
33007,-83.3333333333333,4,2,31,50,0,0
34673,-28.5714285714286,4,2,31,50,0,0
38507,-83.3333333333333,4,2,31,50,0,0
43340,-71.4285714285714,4,2,31,50,0,0
44007,-62.5,4,2,31,50,0,0
44173,-62.5,4,2,31,5,0,0
44229,-62.5,4,2,31,50,0,0
44396,-62.5,4,2,31,5,0,0
44451,-62.5,4,2,31,50,0,0
44562,-62.5,4,2,31,5,0,0
44673,-62.5,4,2,31,50,0,0
46007,-100,4,2,31,50,0,0
46257,-100,4,2,31,5,0,0
46340,-142.857142857143,4,2,31,50,0,0
46590,-142.857142857143,4,2,31,5,0,0
46673,-250,4,2,31,50,0,0
46923,-250,4,2,31,5,0,0
47007,-1000,4,2,31,50,0,0
47257,-1000,4,2,31,5,0,0
47340,-1000,4,2,31,50,0,0
48007,-71.4285714285714,4,2,31,50,0,0
67340,-71.4285714285714,4,2,31,50,0,0
69673,-83.3333333333333,4,2,31,50,0,0
72673,-83.3333333333333,4,2,31,50,0,0
73007,-76.9230769230769,4,2,31,50,0,0
73340,-71.4285714285714,4,2,31,50,0,0
73673,-66.6666666666667,4,2,31,50,0,0
74007,-62.5,4,2,31,50,0,0
74340,-55.5555555555556,4,2,31,50,0,0
74673,-66.6666666666667,4,2,31,50,0,0
78007,-62.5,4,2,31,50,0,0
79340,-71.4285714285714,4,2,31,50,0,0
80340,-83.3333333333333,4,2,31,50,0,0
83340,-71.4285714285714,4,2,31,40,0,0
87340,-55.5555555555556,4,2,31,50,0,0
88673,-50,4,2,31,50,0,0
89340,-55.5555555555556,4,2,31,50,0,0
92673,-71.4285714285714,4,2,31,50,0,0
97173,-62.5,4,2,31,50,0,0

[Colours]
Combo1 : 255,128,128
Combo2 : 240,174,238
Combo3 : 241,247,179
Combo4 : 240,9,32

[HitObjects]
63,7,10007,5,2,1:2:0:0:
39,99,10173,1,0,0:0:0:0:
52,192,10340,1,0,0:0:0:0:
388,72,10507,1,0,0:0:0:0:
208,62,10840,2,0,P|242:71|291:70,1,75.0000028610231,0|0,1:0|0:0,0:0:0:0:
388,72,11007,2,0,B|312:74|289:129|289:129|248:101|208:103|208:103|192:99|192:99|186:114|186:114|151:133|98:123,1,300,8|0,0:0|0:0,0:0:0:0:
52,192,11340,6,0,P|103:225|164:222,1,119.999996337891,4|0,1:2|0:0,0:0:0:0:
376,164,11673,2,0,L|384:324,1,119.999996337891,0|0,0:0|0:0,0:0:0:0:
128,126,12007,1,0,0:0:0:0:
148,8,12173,1,0,1:0:0:0:
316,352,12340,1,8,0:0:0:0:
296,234,12506,1,0,0:0:0:0:
77,328,12673,6,0,L|315:351,1,239.999992675781,0|8,1:0|0:0,0:0:0:0:
378,184,13173,1,0,1:0:0:0:
72,228,13340,2,0,P|48:168|60:109,1,119.999996337891,0|0,1:0|1:0,0:0:0:0:
312,263,13673,5,8,0:0:0:0:
431,275,13840,1,0,0:0:0:0:
266,173,14007,2,0,L|147:161,1,119.999996337891,0|0,1:0|0:0,0:0:0:0:
378,184,14340,1,8,0:0:0:0:
497,196,14507,1,0,0:0:0:0:
332,94,14674,2,0,L|213:82,1,119.999996337891,0|0,1:0|0:0,0:0:0:0:
363,360,15007,1,8,0:0:0:0:
378,184,15173,1,0,1:0:0:0:
431,275,15340,5,0,0:0:0:0:
312,263,15507,1,0,1:0:0:0:
193,251,15673,1,8,0:0:0:0:
363,360,15840,1,0,0:0:0:0:
74,239,16007,1,0,1:0:0:0:
270,106,16173,1,0,1:0:0:0:
270,106,16257,1,0,0:0:0:0:
270,106,16340,2,0,L|262:180,1,75.0000028610231,8|0,0:0|0:0,0:0:0:0:
363,360,16507,1,0,1:0:0:0:
74,239,16673,6,0,L|61:120,1,119.999996337891,0|0,1:0|0:0,0:0:0:0:
177,276,17007,2,0,P|140:345|100:392,1,129.999994049073,8|0,0:0|0:0,0:0:0:0:
288,247,17340,2,0,P|283:325|265:390,1,139.999995727539,0|0,1:0|0:0,0:0:0:0:
377,166,17673,2,0,P|426:222|429:317,1,150.000005722046,8|0,0:0|0:0,0:0:0:0:
355,21,18007,6,0,P|434:40|481:128,1,160,0|0,1:0|0:0,0:0:0:0:
205,137,18340,2,0,P|129:82|157:-50,1,175.00000166893,8|0,0:0|0:0,0:0:0:0:
121,139,18590,1,0,0:0:0:0:
85,216,18673,2,0,P|-4:208|63:119,1,225.000008583069,0|0,1:0|0:0,0:0:0:0:
121,139,19007,5,8,0:0:0:0:
88,304,19173,1,0,0:0:0:0:
12,15,19340,1,0,0:0:0:0:
424,304,19673,5,8,0:0:0:0:
391,139,19839,1,0,0:0:0:0:
500,15,20007,1,0,0:0:0:0:
467,180,20173,1,0,1:0:0:0:
337,206,20340,1,8,0:0:0:0:
263,56,20506,1,0,1:0:0:0:
424,304,20673,5,0,0:0:0:0:
106,291,20840,1,0,1:0:0:0:
172,340,21007,1,8,0:0:0:0:
490,255,21174,1,0,0:0:0:0:
303,369,21340,1,0,1:0:0:0:
263,56,21507,1,0,1:0:0:0:
209,247,21673,5,8,0:0:0:0:
195,164,21757,1,0,0:0:0:0:
271,133,21840,1,0,1:0:0:0:
352,148,21923,1,0,1:0:0:0:
343,237,22007,6,0,B|345:287|345:287|395:283|395:283|433:240|433:240|429:182|429:182|332:139|332:139,1,300,6|0,1:2|0:0,0:0:0:0:
343,374,22340,1,8,0:0:0:0:
356,62,22507,1,0,0:0:0:0:
82,137,22673,1,0,1:0:0:0:
82,77,22757,1,0,0:0:0:0:
123,35,22840,1,0,1:0:0:0:
118,94,22924,1,0,0:0:0:0:
69,156,23007,5,8,0:0:0:0:
81,241,23090,1,0,0:0:0:0:
95,329,23173,1,0,0:0:0:0:
183,345,23256,1,0,0:0:0:0:
271,361,23340,2,0,L|364:378,1,89.9999972534181,0|0,1:0|0:0,0:0:0:0:
81,241,23507,5,0,0:0:0:0:
133,250,23590,1,0,0:0:0:0:
185,259,23674,2,0,L|270:274,1,80,8|0,0:0|0:0,0:0:0:0:
69,156,23840,5,0,1:0:0:0:
96,159,23923,1,0,0:0:0:0:
121,164,24007,1,0,0:0:0:0:
258,187,24173,1,0,1:0:0:0:
212,87,24340,1,8,0:0:0:0:
185,259,24507,1,0,0:0:0:0:
471,33,24673,5,0,1:0:0:0:
470,328,24840,1,0,0:0:0:0:
394,353,24923,1,0,0:0:0:0:
413,274,25007,1,8,0:0:0:0:
395,58,25173,5,0,0:0:0:0:
394,353,25340,1,0,1:0:0:0:
318,378,25423,1,0,0:0:0:0:
337,299,25507,1,0,1:0:0:0:
461,113,25673,5,8,0:0:0:0:
358,221,25840,1,0,0:0:0:0:
112,96,26007,5,0,1:0:0:0:
114,126,26090,1,0,0:0:0:0:
118,156,26174,1,0,0:0:0:0:
69,139,26257,1,0,0:0:0:0:
65,108,26340,2,0,L|57:30,1,59.9999981689454,8|0,0:0|0:0,0:0:0:0:
288,188,26507,5,0,0:0:0:0:
281,268,26590,1,0,0:0:0:0:
356,248,26674,1,0,1:0:0:0:
362,206,26757,1,0,0:0:0:0:
367,164,26840,2,0,L|373:104,1,59.9999981689454,0|0,1:0|0:0,0:0:0:0:
203,211,27007,5,8,0:0:0:0:
129,239,27090,1,0,0:0:0:0:
56,267,27174,1,0,0:0:0:0:
119,317,27257,1,0,0:0:0:0:
182,368,27341,1,0,1:0:0:0:
30,345,27507,6,0,L|55:340,5,14.9999995422363,0|0|0|0|0|0,0:0|0:0|0:0|0:0|0:0|0:0,0:0:0:0:
14,372,27673,1,8,0:0:0:0:
233,295,27840,6,0,L|208:290,5,14.9999995422363,0|0|0|0|0|0,0:0|0:0|0:0|0:0|0:0|0:0,0:0:0:0:
249,322,28006,1,0,1:0:0:0:
258,105,28173,5,0,1:0:0:0:
119,317,28340,1,8,0:0:0:0:
65,65,28507,1,0,0:0:0:0:
364,271,28673,1,0,1:0:0:0:
372,44,28840,5,0,0:0:0:0:
412,59,28923,1,0,0:0:0:0:
453,74,29007,1,8,0:0:0:0:
418,102,29090,1,0,0:0:0:0:
383,130,29173,5,0,1:0:0:0:
396,206,29257,1,0,0:0:0:0:
407,282,29340,1,0,1:0:0:0:
372,44,29507,1,0,1:0:0:0:
418,358,29673,1,8,0:0:0:0:
319,181,29840,1,0,0:0:0:0:
41,345,30007,5,4,1:2:0:0:
135,327,30173,1,0,0:0:0:0:
41,345,30340,1,8,0:0:0:0:
50,78,30507,6,0,B|44:20|44:20|12:47|12:47|21:159|21:159|56:188,1,240,0|0,0:0|0:0,0:0:0:0:
123,215,30840,2,0,L|115:136,1,80,0|0,1:0|0:0,0:0:0:0:
274,127,31007,2,0,L|283:207,1,80,8|0,0:0|0:0,0:0:0:0:
207,251,31173,2,0,L|199:172,1,80,0|0,1:0|0:0,0:0:0:0:
184,41,31340,5,8,0:0:0:0:
320,293,31507,1,0,1:0:0:0:
280,288,31590,1,8,0:0:0:0:
356,94,31757,1,0,1:0:0:0:
395,98,31840,1,8,0:0:0:0:
412,340,32007,1,0,0:0:0:0:
301,32,32173,1,8,0:0:0:0:
380,16,32257,1,8,0:0:0:0:
459,44,32340,5,8,0:0:0:0:
469,130,32424,1,8,0:0:0:0:
479,216,32506,1,8,0:0:0:0:
489,302,32590,1,8,0:0:0:0:
412,340,32673,5,14,1:2:0:0:
395,98,32840,2,0,L|351:93,4,40,0|0|0|0|8,0:0|0:0|0:0|0:0|0:0,0:0:0:0:
479,216,33173,2,0,L|231:184,1,239.999992675781,0|0,0:0|1:0,0:0:0:0:
142,335,33673,1,8,0:0:0:0:
59,349,33840,1,0,0:0:0:0:
16,17,34007,5,0,1:0:0:0:
26,100,34173,1,0,0:0:0:0:
37,183,34339,1,8,0:0:0:0:
48,266,34506,1,0,0:0:0:0:
59,349,34673,1,2,0:0:0:0:
453,349,35007,5,8,0:0:0:0:
475,183,35173,1,0,0:0:0:0:
496,17,35340,1,0,1:0:0:0:
48,266,35673,1,8,0:0:0:0:
486,100,36007,1,0,1:0:0:0:
26,100,36340,1,8,0:0:0:0:
464,266,36673,1,0,0:0:0:0:
256,84,36840,5,0,3:0:0:0:
256,125,36923,1,0,3:0:0:0:
256,167,37007,1,8,3:2:0:0:
256,5,37173,1,0,3:0:0:0:
165,230,37340,1,0,3:0:0:0:
145,112,37506,1,0,3:0:0:0:
347,230,37673,1,8,3:2:0:0:
367,112,37839,1,0,3:0:0:0:
256,379,38007,5,0,1:0:0:0:
256,167,38173,5,0,0:0:0:0:
256,125,38257,1,0,0:0:0:0:
256,84,38340,1,8,0:0:0:0:
239,304,38507,2,0,B|256:247|256:247|274:308,1,119.999996337891,0|0,0:0|1:0,0:0:0:0:
145,112,38839,1,0,1:0:0:0:
117,204,39007,1,8,0:0:0:0:
144,295,39173,1,0,0:0:0:0:
367,103,39340,5,0,1:0:0:0:
341,377,39508,1,0,0:0:0:0:
368,286,39674,1,8,0:0:0:0:
339,11,39840,1,0,0:0:0:0:
395,196,40007,1,0,1:0:0:0:
145,103,40340,5,8,0:0:0:0:
173,11,40508,1,0,0:0:0:0:
171,377,40674,1,0,1:0:0:0:
144,286,40840,1,0,0:0:0:0:
117,196,41007,1,8,0:0:0:0:
117,196,41340,5,0,1:0:0:0:
145,103,41507,1,0,1:0:0:0:
368,286,41673,1,8,0:0:0:0:
341,376,41840,1,0,1:0:0:0:
145,103,42007,5,0,0:0:0:0:
192,96,42090,1,0,0:0:0:0:
239,90,42173,1,0,0:0:0:0:
286,82,42257,1,0,0:0:0:0:
306,124,42340,5,8,3:2:0:0:
341,155,42423,1,0,0:0:0:0:
387,141,42507,1,0,3:0:0:0:
420,175,42590,1,0,0:0:0:0:
368,225,42673,5,0,1:0:0:0:
332,152,42757,1,0,0:0:0:0:
391,133,42841,1,0,1:0:0:0:
433,177,42924,1,0,0:0:0:0:
364,241,43007,5,8,0:0:0:0:
268,253,43091,1,8,0:0:0:0:
173,264,43174,1,8,0:0:0:0:
77,276,43258,1,8,0:0:0:0:
11,345,43340,6,0,L|176:366,1,139.999995727539,4|0,0:0|0:0,0:0:0:0:
123,119,43673,1,8,0:0:0:0:
3,131,43839,1,0,0:0:0:0:
463,196,44007,6,0,P|478:130|411:139,1,160,0|0,0:0|1:0,0:0:0:0:
259,188,44229,2,0,P|244:122|311:131,1,160,0|0,0:0|0:0,0:0:0:0:
349,303,44451,2,0,L|359:157,1,106.666666666667,0|0,0:0|0:0,0:0:0:0:
369,24,44673,5,2,0:0:0:0:
438,275,44840,1,0,0:0:0:0:
271,266,45007,1,8,0:0:0:0:
369,24,45173,1,0,1:0:0:0:
271,266,45340,1,0,1:0:0:0:
438,275,45507,1,0,1:0:0:0:
369,24,45673,1,8,0:0:0:0:
108,252,46007,6,0,L|99:69,1,150,0|0,0:0|0:0,0:0:0:0:
137,126,46340,2,0,L|131:237,1,104.999996795654,8|0,0:0|0:0,0:0:0:0:
175,209,46673,2,0,L|172:149,1,60,0|0,1:0|0:0,0:0:0:0:
213,171,47007,2,0,L|212:187,1,15,8|0,0:0|0:0,0:0:0:0:
252,183,47340,5,2,1:2:0:0:
27,354,47507,5,0,3:0:0:0:
28,270,47590,1,0,3:0:0:0:
29,186,47673,1,8,3:2:0:0:
31,101,47757,1,0,0:0:0:0:
34,17,47840,1,0,3:0:0:0:
111,49,47923,1,0,0:0:0:0:
187,85,48007,6,0,L|176:177,1,69.9999978637696,0|0,3:0|0:0,0:0:0:0:
254,345,48173,2,0,L|245:275,1,69.9999978637696,0|0,3:0|0:0,0:0:0:0:
343,28,48340,5,8,3:2:0:0:
313,121,48423,1,0,0:0:0:0:
322,219,48507,1,0,0:0:0:0:
376,299,48590,1,0,0:0:0:0:
464,339,48673,5,4,1:2:0:0:
475,94,48840,1,0,0:0:0:0:
470,183,49007,1,8,0:0:0:0:
33,74,49173,2,0,L|26:362,1,279.999991455078,0|0,0:0|1:0,0:0:0:0:
111,49,49673,1,8,0:0:0:0:
464,339,50007,5,2,0:0:0:0:
376,299,50173,1,0,0:0:0:0:
322,219,50340,1,8,0:0:0:0:
313,121,50507,1,0,0:0:0:0:
343,28,50673,1,0,1:0:0:0:
321,365,50840,1,0,1:0:0:0:
256,53,51007,1,8,0:0:0:0:
464,339,51340,5,4,1:2:0:0:
193,293,51507,1,0,0:0:0:0:
117,304,51590,1,0,0:0:0:0:
41,315,51673,1,8,0:0:0:0:
477,250,51840,5,0,0:0:0:0:
206,204,52007,1,0,1:0:0:0:
130,215,52090,1,0,0:0:0:0:
54,226,52173,1,0,1:0:0:0:
489,164,52340,1,8,0:0:0:0:
464,339,52507,5,0,1:0:0:0:
457,83,52673,1,8,0:0:0:0:
301,342,52840,1,0,1:0:0:0:
262,347,52923,1,8,0:0:0:0:
225,168,53090,1,0,1:0:0:0:
264,173,53173,1,8,0:0:0:0:
464,339,53340,1,0,0:0:0:0:
457,83,53507,1,8,0:0:0:0:
410,21,53591,1,8,0:0:0:0:
320,21,53673,5,8,0:0:0:0:
333,111,53757,1,8,0:0:0:0:
348,199,53839,1,8,0:0:0:0:
401,273,53923,1,8,0:0:0:0:
464,339,54006,1,10,1:2:0:0:
44,56,59340,5,14,1:2:0:0:
448,80,59673,1,8,1:2:0:0:
408,156,60007,1,8,1:2:0:0:
4,180,60340,1,8,1:2:0:0:
468,328,60673,5,14,1:2:0:0:
64,304,61006,1,8,1:2:0:0:
104,228,61340,1,8,1:2:0:0:
508,204,61673,1,8,1:2:0:0:
44,120,62007,5,12,1:2:0:0:
4,244,62173,1,8,1:2:0:0:
200,112,62340,1,8,1:2:0:0:
135,312,62506,1,8,1:2:0:0:
468,120,62673,5,8,1:2:0:0:
508,244,62839,1,8,1:2:0:0:
308,112,63006,1,8,1:2:0:0:
373,312,63172,1,8,1:2:0:0:
256,28,63340,5,4,1:2:0:0:
256,56,63423,1,0,1:0:0:0:
256,84,63506,1,0,1:0:0:0:
256,112,63590,1,0,1:0:0:0:
256,140,63673,1,0,1:0:0:0:
256,168,63756,1,0,1:0:0:0:
256,196,63840,1,0,1:0:0:0:
256,224,63923,1,0,1:0:0:0:
288,263,64007,5,8,0:2:0:0:
280,290,64090,1,8,0:2:0:0:
259,299,64173,1,8,0:2:0:0:
237,290,64257,1,8,0:2:0:0:
229,269,64340,1,8,0:2:0:0:
237,248,64423,1,8,0:2:0:0:
259,239,64507,1,8,0:2:0:0:
280,248,64590,1,8,0:2:0:0:
288,263,64673,5,8,0:3:0:0:
96,272,64840,1,8,0:3:0:0:
124,44,65007,1,4,0:0:0:0:
20,236,65173,1,4,0:0:0:0:
16,196,65257,1,8,0:0:0:0:
212,88,65423,1,4,0:0:0:0:
208,128,65507,1,8,0:0:0:0:
24,48,65673,1,0,0:0:0:0:
280,28,65840,1,0,0:0:0:0:
406,275,66007,5,2,0:0:0:0:
395,239,66090,1,0,0:0:0:0:
431,229,66173,1,0,0:0:0:0:
440,264,66257,1,0,0:0:0:0:
393,278,66340,5,2,0:0:0:0:
392,226,66423,1,0,0:0:0:0:
444,225,66506,1,0,0:0:0:0:
444,277,66590,1,0,0:0:0:0:
377,276,66673,5,2,0:0:0:0:
394,210,66756,1,0,0:0:0:0:
460,227,66839,1,0,0:0:0:0:
442,292,66923,1,0,0:0:0:0:
398,323,67007,5,8,0:0:0:0:
322,275,67090,1,8,0:0:0:0:
230,267,67173,1,8,0:0:0:0:
138,259,67256,1,8,0:0:0:0:
62,307,67340,6,0,L|54:155,1,139.999995727539,12|0,0:0|0:0,0:0:0:0:
208,356,67673,1,8,0:0:0:0:
302,347,67840,1,0,0:0:0:0:
108,100,68007,1,0,1:0:0:0:
14,91,68174,1,0,1:0:0:0:
247,264,68340,1,8,0:0:0:0:
55,168,68507,1,0,0:0:0:0:
387,88,68673,6,0,L|108:100,1,279.999991455078,0|8,1:0|0:0,0:0:0:0:
324,188,69173,1,0,1:0:0:0:
14,91,69340,2,0,P|52:24|136:12,1,139.999995727539,0|0,1:0|1:0,0:0:0:0:
324,188,69673,5,8,0:0:0:0:
205,176,69840,1,0,0:0:0:0:
370,278,70007,2,0,L|489:290,1,119.999996337891,0|0,1:0|0:0,0:0:0:0:
258,267,70340,1,8,0:0:0:0:
139,255,70507,1,0,0:0:0:0:
304,357,70674,2,0,L|423:369,1,119.999996337891,0|0,1:0|0:0,0:0:0:0:
273,91,71007,1,8,0:0:0:0:
258,267,71173,1,0,1:0:0:0:
88,172,71340,5,0,1:0:0:0:
207,184,71507,1,0,1:0:0:0:
326,196,71673,1,8,0:0:0:0:
156,87,71840,1,0,0:0:0:0:
445,208,72007,1,0,1:0:0:0:
249,341,72173,1,0,1:0:0:0:
249,341,72257,1,0,0:0:0:0:
249,341,72340,2,0,L|257:267,1,75.0000028610231,8|0,0:0|0:0,0:0:0:0:
156,87,72507,1,0,1:0:0:0:
352,220,72673,6,0,P|296:188|204:180,1,119.999996337891,2|0,1:2|0:0,0:0:0:0:
72,304,73007,2,0,P|144:248|220:240,1,129.999994049073,8|0,0:0|0:0,0:0:0:0:
424,312,73340,2,0,P|460:248|424:144,1,139.999995727539,0|0,1:0|0:0,0:0:0:0:
136,372,73673,2,0,P|28:380|-16:304,1,150.000005722046,8|0,0:0|0:0,0:0:0:0:
367,145,74007,6,0,P|424:93|500:108,1,160,0|0,1:0|0:0,0:0:0:0:
232,196,74340,2,0,P|156:141|183:10,1,179.999994506836,8|0,0:0|0:0,0:0:0:0:
148,198,74590,1,0,0:0:0:0:
112,275,74673,2,0,P|23:267|90:178,1,225.000008583069,0|0,1:0|0:0,0:0:0:0:
148,198,75007,5,8,0:0:0:0:
72,16,75173,1,0,0:0:0:0:
92,376,75340,1,0,1:0:0:0:
404,196,75673,5,8,0:0:0:0:
448,24,75839,1,0,0:0:0:0:
360,340,76006,1,0,1:0:0:0:
455,363,76173,1,0,1:0:0:0:
261,311,76340,1,8,0:0:0:0:
149,345,76507,1,0,1:0:0:0:
508,240,76674,5,0,1:0:0:0:
57,139,76840,1,0,1:0:0:0:
455,363,77007,1,8,0:0:0:0:
360,340,77173,1,0,0:0:0:0:
125,69,77339,1,0,1:0:0:0:
220,92,77506,1,0,1:0:0:0:
261,311,77673,1,8,0:0:0:0:
28,252,77840,1,0,1:0:0:0:
28,252,77923,1,0,1:0:0:0:
28,252,78007,6,0,B|-5:180|-5:180|72:192|72:192|104:216|104:216|160:224|160:224|176:220|176:220|188:228|188:228|279:242,1,320,6|8,1:2|0:0,0:0:0:0:
387,97,78507,1,0,0:0:0:0:
376,248,78673,1,0,1:0:0:0:
448,320,78840,1,0,1:0:0:0:
476,40,79006,1,8,0:0:0:0:
305,166,79173,1,2,0:0:0:0:
376,360,79340,6,0,L|232:368,1,139.999995727539,0|0,1:0|0:0,0:0:0:0:
460,180,79673,1,8,0:0:0:0:
448,320,79840,1,0,1:0:0:0:
476,40,80007,1,0,1:0:0:0:
512,256,80173,1,0,1:0:0:0:
236,248,80340,5,8,0:0:0:0:
117,260,80507,1,0,0:0:0:0:
282,158,80674,2,0,L|401:146,1,119.999996337891,0|0,1:0|0:0,0:0:0:0:
170,169,81007,1,8,0:0:0:0:
51,181,81174,1,0,0:0:0:0:
216,79,81341,2,0,L|335:67,1,119.999996337891,0|0,0:0|0:0,0:0:0:0:
336,312,81674,1,8,0:0:0:0:
170,169,81840,1,0,1:0:0:0:
496,40,82007,5,0,1:0:0:0:
416,16,82173,1,0,1:0:0:0:
488,324,82340,1,8,0:0:0:0:
408,348,82507,1,0,0:0:0:0:
496,188,82673,1,0,0:0:0:0:
268,188,82840,1,0,1:0:0:0:
268,188,82923,1,0,0:0:0:0:
268,188,83007,1,8,0:0:0:0:
384,188,83173,1,0,1:0:0:0:
44,192,83340,6,0,L|88:184,1,34.9999989318848,2|0,1:2|0:0,0:0:0:0:
174,258,83507,2,0,L|140:252,1,34.9999989318848,0|0,0:0|0:0,0:0:0:0:
145,106,83673,2,0,L|180:100,1,34.9999989318848,8|0,0:0|0:0,0:0:0:0:
268,188,83840,2,0,L|233:181,8,34.9999989318848,0|0|0|0|0|0|0|0|0,0:0|0:0|0:0|0:0|1:0|0:0|0:0|0:0|0:0,0:0:0:0:
457,177,84340,6,0,L|413:185,1,34.9999989318848,8|0,0:0|0:0,0:0:0:0:
326,110,84507,2,0,L|360:116,1,34.9999989318848,0|0,0:0|0:0,0:0:0:0:
355,262,84673,2,0,L|320:268,1,34.9999989318848,0|0,1:0|0:0,0:0:0:0:
233,181,84840,2,0,L|267:187,8,34.9999989318848,0|0|0|0|8|0|0|0|0,0:0|0:0|0:0|0:0|0:0|0:0|0:0|0:0|1:0,0:0:0:0:
248,52,85340,6,0,L|254:86,1,34.9999989318848,0|0,1:0|0:0,0:0:0:0:
248,332,85507,2,0,L|254:297,1,34.9999989318848,0|0,1:0|0:0,0:0:0:0:
360,116,85673,2,0,L|326:110,1,34.9999989318848,8|0,0:0|0:0,0:0:0:0:
355,262,85840,2,0,L|320:268,1,34.9999989318848
40,188,86007,5,6,0:0:0:0:
180,188,86173,1,0,0:0:0:0:
40,188,86340,1,8,0:0:0:0:
472,188,86507,1,0,0:0:0:0:
40,188,86840,1,0,1:0:0:0:
180,188,87007,1,8,0:0:0:0:
96,36,87173,1,0,0:0:0:0:
83,310,87340,6,0,L|227:290,1,89.9999972534181,14|0,0:0|0:0,0:0:0:0:
363,330,87507,1,0,1:0:0:0:
339,314,87590,2,0,L|319:170,1,89.9999972534181,8|0,0:0|0:0,0:0:0:0:
359,34,87757,1,0,1:0:0:0:
343,58,87840,2,0,L|199:78,1,89.9999972534181,8|0,0:0|0:0,0:0:0:0:
63,38,88007,1,0,1:0:0:0:
83,310,88173,5,8,0:0:0:0:
75,218,88257,1,8,0:0:0:0:
67,130,88340,5,8,0:0:0:0:
159,166,88423,1,8,0:0:0:0:
259,174,88506,1,8,0:0:0:0:
359,154,88589,1,8,0:0:0:0:
439,84,88673,6,0,B|490:57|490:57|513:108|513:108|483:156|483:156|423:172|423:172|367:132|367:132|355:80|355:80|379:20|379:20,1,400,12|8,1:2|0:0,0:0:0:0:
471,258,89173,1,0,0:0:0:0:
140,343,89340,1,0,1:0:0:0:
80,343,89424,1,0,0:0:0:0:
38,302,89507,1,0,1:0:0:0:
97,307,89591,1,0,0:0:0:0:
159,356,89674,5,8,0:0:0:0:
244,344,89757,1,0,0:0:0:0:
332,330,89840,1,0,0:0:0:0:
348,242,89923,1,0,0:0:0:0:
364,154,90007,2,0,L|378:61,1,89.9999972534181,0|0,1:0|0:0,0:0:0:0:
416,316,90174,5,0,0:0:0:0:
425,264,90257,1,0,0:0:0:0:
434,212,90340,2,0,L|447:120,1,89.9999972534181,8|0,0:0|0:0,0:0:0:0:
244,344,90507,5,0,1:0:0:0:
247,317,90590,1,0,0:0:0:0:
252,292,90674,1,0,0:0:0:0:
300,24,90840,1,0,1:0:0:0:
328,324,91007,1,8,0:0:0:0:
364,154,91173,1,0,0:0:0:0:
41,33,91340,5,0,1:0:0:0:
118,353,91507,1,0,0:0:0:0:
42,328,91591,1,0,0:0:0:0:
99,274,91674,1,8,0:0:0:0:
300,24,91840,5,0,0:0:0:0:
199,355,92007,1,0,0:0:0:0:
275,330,92090,1,0,0:0:0:0:
218,276,92174,1,0,1:0:0:0:
41,33,92340,1,8,0:0:0:0:
157,217,92507,1,0,0:0:0:0:
440,108,92673,5,0,1:0:0:0:
442,138,92756,1,0,0:0:0:0:
446,168,92840,1,0,1:0:0:0:
402,156,92923,1,0,0:0:0:0:
398,125,93006,2,0,L|388:38,1,69.9999978637696,8|0,0:0|0:0,0:0:0:0:
228,276,93173,5,0,0:0:0:0:
221,356,93256,1,0,0:0:0:0:
304,324,93340,1,0,1:0:0:0:
310,282,93423,1,0,0:0:0:0:
315,240,93506,2,0,L|325:165,1,69.9999978637696,0|0,1:0|0:0,0:0:0:0:
188,64,93673,2,0,L|197:133,1,69.9999978637696,8|0,0:0|0:0,0:0:0:0:
169,213,93840,1,0,0:0:0:0:
93,179,93923,1,0,0:0:0:0:
17,215,94007,1,2,1:2:0:0:
280,104,94173,6,0,L|255:99,6,17.4999994659424
296,131,94339,1,8,0:0:0:0:
77,54,94506,6,0,L|105:47,6,17.4999994659424
61,81,94672,1,0,1:0:0:0:
252,16,94840,1,0,1:0:0:0:
315,240,95007,1,8,0:0:0:0:
188,64,95173,1,0,0:0:0:0:
465,18,95340,1,0,1:0:0:0:
342,384,95507,5,0,0:0:0:0:
382,369,95590,1,0,0:0:0:0:
423,354,95674,1,8,0:0:0:0:
388,326,95757,1,0,0:0:0:0:
353,298,95840,5,0,1:0:0:0:
362,213,95924,1,0,0:0:0:0:
373,130,96007,1,0,1:0:0:0:
342,384,96174,1,0,1:0:0:0:
385,47,96340,1,8,0:0:0:0:
289,247,96507,1,0,0:0:0:0:
50,113,96673,5,0,1:0:0:0:
61,196,96840,1,0,0:0:0:0:
38,30,97007,1,8,0:0:0:0:
352,83,97173,6,0,B|410:77|410:77|383:45|383:45|271:54|271:54|253:75,1,240,0|0,1:0|0:0,0:0:0:0:
309,219,97506,2,0,L|301:140,1,80,0|0,1:0|0:0,0:0:0:0:
168,29,97673,2,0,L|177:109,1,80,8|0,0:0|0:0,0:0:0:0:
232,260,97839,2,0,L|224:181,1,80,0|0,1:0|0:0,0:0:0:0:
401,50,98007,5,0,1:0:0:0:
410,79,98090,1,0,0:0:0:0:
379,87,98173,1,0,1:0:0:0:
372,59,98257,1,0,0:0:0:0:
411,46,98340,5,8,0:0:0:0:
412,90,98423,1,0,0:0:0:0:
369,91,98506,1,0,0:0:0:0:
369,47,98590,1,0,0:0:0:0:
424,48,98673,5,0,1:0:0:0:
410,103,98756,1,0,0:0:0:0:
355,89,98839,1,0,1:0:0:0:
370,35,98923,1,0,0:0:0:0:
459,44,99007,5,8,0:0:0:0:
498,123,99091,1,8,0:0:0:0:
491,209,99173,1,8,0:0:0:0:
478,296,99257,1,8,0:0:0:0:
406,345,99340,6,0,L|275:338,1,80,8|0,0:0|0:0,0:0:0:0:
121,328,99507,1,0,0:0:0:0:
153,304,99590,1,0,0:0:0:0:
180,275,99673,2,0,L|175:195,1,80,8|0,0:0|0:0,0:0:0:0:
119,32,99840,1,0,0:0:0:0:
87,56,99923,1,0,0:0:0:0:
60,85,100006,2,0,L|64:164,1,80,0|0,1:0|0:0,0:0:0:0:
288,12,100173,5,0,1:0:0:0:
308,324,100339,1,8,0:0:0:0:
296,100,100507,1,0,0:0:0:0:
468,336,100673,5,0,1:0:0:0:
388,330,100841,1,0,0:0:0:0:
369,21,101007,1,8,0:0:0:0:
449,29,101173,1,0,0:0:0:0:
50,352,101340,5,0,1:0:0:0:
146,58,101507,1,0,1:0:0:0:
142,327,101673,1,8,0:0:0:0:
54,33,101839,1,0,0:0:0:0:
390,192,102007,5,0,1:0:0:0:
246,121,102173,1,0,0:0:0:0:
246,183,102257,1,0,0:0:0:0:
246,245,102340,1,8,0:0:0:0:
164,140,102507,5,0,0:0:0:0:
164,184,102591,1,0,0:0:0:0:
164,229,102674,1,0,1:0:0:0:
79,164,102840,5,0,1:0:0:0:
79,187,102924,1,0,0:0:0:0:
79,210,103007,1,8,0:0:0:0:
0,189,103173,5,0,1:0:0:0:
455,90,103340,5,0,1:0:0:0:
401,75,103423,1,0,0:0:0:0:
353,104,103506,1,0,1:0:0:0:
301,82,103589,1,0,0:0:0:0:
276,31,103673,5,8,0:0:0:0:
331,22,103757,1,0,0:0:0:0:
369,61,103840,1,0,0:0:0:0:
381,115,103923,1,0,0:0:0:0:
455,90,104006,5,0,1:0:0:0:
454,177,104089,1,0,0:0:0:0:
452,265,104173,1,0,1:0:0:0:
449,353,104257,1,0,0:0:0:0:
362,368,104340,5,8,0:0:0:0:
316,293,104423,1,8,0:0:0:0:
374,227,104506,1,8,0:0:0:0:
452,265,104590,1,8,0:0:0:0:
449,353,104673,5,14,1:2:0:0:
26,365,104840,5,0,0:0:0:0:
28,277,105006,1,8,0:0:0:0:
29,190,105173,1,0,0:0:0:0:
452,265,105340,1,8,0:0:0:0:
452,265,105507,1,0,0:0:0:0:
26,365,105673,1,8,0:0:0:0:
29,190,105840,1,0,0:0:0:0:
451,8,106007,5,12,0:0:0:0:
26,15,106173,1,0,0:0:0:0:
28,103,106339,1,8,0:0:0:0:
29,190,106506,1,0,0:0:0:0:
451,8,106673,1,8,0:0:0:0:
258,321,106840,1,0,0:0:0:0:
198,61,107007,1,8,0:0:0:0:
491,363,107174,1,0,0:0:0:0:
49,59,107340,5,8,0:0:0:0:
404,19,107507,1,0,0:0:0:0:
49,325,107673,1,8,0:0:0:0:
404,365,107840,1,0,0:0:0:0:
129,73,108006,5,8,0:0:0:0:
484,33,108173,1,0,0:0:0:0:
129,339,108339,1,8,0:0:0:0:
484,379,108507,1,0,0:0:0:0:
336,56,108673,5,0,0:0:0:0:
347,94,108757,1,0,0:0:0:0:
355,132,108840,1,0,0:0:0:0:
366,170,108923,1,0,0:0:0:0:
445,219,109007,5,0,0:0:0:0:
407,248,109090,1,0,0:0:0:0:
360,258,109173,1,0,0:0:0:0:
312,248,109257,1,0,0:0:0:0:
257,173,109340,5,0,0:0:0:0:
201,130,109423,1,0,0:0:0:0:
132,116,109506,1,0,0:0:0:0:
60,130,109590,1,0,0:0:0:0:
110,214,109673,5,0,1:0:0:0:
138,298,109756,1,0,0:0:0:0:
74,358,109839,1,0,1:0:0:0:
2,306,109923,1,0,0:0:0:0:
18,218,110007,5,0,0:0:0:0:
256,192,110090,12,0,115173,0:0:0:0:
