osu file format v14

[General]
AudioFilename: audio.mp3
AudioLeadIn: 0
PreviewTime: 302742
Countdown: 0
SampleSet: Soft
StackLeniency: 0.4
Mode: 0
LetterboxInBreaks: 0
WidescreenStoryboard: 0

[Editor]
Bookmarks: 89408,100075,116075,121408,142742,164075,177408,198742,220075,241408,262742,284075,305408,326742,348075
DistanceSpacing: 0.8
BeatDivisor: 4
GridSize: 32
TimelineZoom: 3.199999

[Metadata]
Title:Oriental Blossom -Eika Shuuei-
TitleUnicode:Oriental Blossom -栄華秀英-
Artist:Eisyo-kobu
ArtistUnicode:影翔鼓舞
Creator:Rolni
Version:Infinity
Source:SOUND VOLTEX III GRAVITY WARS
Tags:drum and bass dnb instrumental Beloved Blossom SOUND VOLTEX 影虎。kagetora. rolniczy contagious saturnalize
BeatmapID:2140353
BeatmapSetID:1023172

[Difficulty]
HPDrainRate:5
CircleSize:4.3
OverallDifficulty:8.6
ApproachRate:9.3
SliderMultiplier:2
SliderTickRate:1

[Events]
//Background and Video events
0,0,"miku.jpg",0,0
//Break Periods
2,58758,64153
2,164275,168854
//Storyboard Layer 0 (Background)
//Storyboard Layer 1 (Fail)
//Storyboard Layer 2 (Pass)
//Storyboard Layer 3 (Foreground)
//Storyboard Layer 4 (Overlay)
//Storyboard Sound Samples

[TimingPoints]
59,857.142857142857,4,2,1,30,1,0
59,-100,4,2,1,30,0,0
17416,857.142857142857,4,2,1,40,1,0
17416,-100,4,2,1,40,0,0
30273,-100,4,2,3,70,0,0
31130,-76.9230769230769,4,2,3,70,0,1
31558,-76.9230769230769,4,2,3,70,0,0
44844,-66.6666666666667,4,2,3,70,0,1
45701,-66.6666666666667,4,2,3,70,0,0
56951,-66.6666666666667,4,2,3,72,0,0
57165,-66.6666666666667,4,2,3,75,0,0
57380,-66.6666666666667,4,2,3,78,0,0
57594,-66.6666666666667,4,2,3,81,0,0
57808,-66.6666666666667,4,2,3,84,0,0
58023,-66.6666666666667,4,2,3,87,0,0
58237,-66.6666666666667,4,2,3,90,0,0
58451,-66.6666666666667,4,2,3,70,0,0
58558,-66.6666666666667,4,2,3,70,0,1
58665,-66.6666666666667,4,2,3,70,0,0
59776,625,4,2,3,20,1,0
60299,600,4,2,3,20,1,0
60899,566.037735849057,4,2,3,20,1,0
61465,545.454545454546,4,2,3,20,1,0
62435,625,4,2,3,20,1,0
66080,625,4,2,3,20,1,0
66496,625,4,2,3,20,1,0
66808,500,4,2,3,20,1,0
67058,375,4,2,3,20,1,0
67433,342.857142857143,4,2,3,20,1,0
67947,291.26213592233,4,2,3,20,1,0
68238,250,4,2,3,20,1,0
68488,206.896551724138,4,2,3,20,1,0
68694,260.869565217391,4,2,3,20,1,0
68954,243.90243902439,4,2,3,20,1,0
69762,230.769230769231,4,2,3,20,1,0
72356,800,4,2,3,15,1,0
77409,333.333333333333,4,2,3,15,1,0
78659,-100,4,2,3,5,0,0
78742,-125,4,2,2,50,0,1
79075,-125,4,2,2,50,0,0
89408,-125,4,2,2,70,0,1
89575,-125,4,2,2,70,0,0
94575,-125,4,2,2,70,0,0
94742,-111.111111111111,4,2,2,70,0,1
94908,-111.111111111111,4,2,2,70,0,0
99742,-133.333333333333,4,2,2,70,0,0
99825,-133.333333333333,4,2,2,70,0,0
100075,-117.647058823529,4,2,2,70,0,1
100408,-117.647058823529,4,2,2,70,0,0
102408,-117.647058823529,4,2,2,70,0,0
104075,-117.647058823529,4,2,2,70,0,0
110742,-117.647058823529,4,2,2,70,0,1
111075,-117.647058823529,4,2,2,70,0,0
113075,-117.647058823529,4,2,2,70,0,0
116075,-117.647058823529,4,2,53,75,0,0
116325,-117.647058823529,4,2,53,5,0,0
116408,-117.647058823529,4,2,53,75,0,0
116575,-117.647058823529,4,2,53,5,0,0
116742,-117.647058823529,4,2,53,75,0,0
118742,-117.647058823529,4,2,53,75,0,0
120075,-153.846153846153,4,2,53,75,0,1
120158,-153.846153846153,4,2,53,75,0,0
120825,-153.846153846153,4,2,53,5,0,0
120908,-153.846153846153,4,2,53,75,0,0
121075,-153.846153846153,4,2,53,100,0,0
121158,-153.846153846153,4,2,53,90,0,0
121408,-90.9090909090909,4,2,53,90,0,1
121742,-90.9090909090909,4,2,53,90,0,0
132075,-83.3333333333333,4,2,53,90,0,1
132408,-83.3333333333333,4,2,53,90,0,0
134075,-90.9090909090909,4,2,53,90,0,0
135742,-83.3333333333333,4,2,53,90,0,0
140575,-90.9090909090909,4,2,53,90,0,0
141408,-83.3333333333333,4,2,53,90,0,1
141492,-83.3333333333333,4,2,53,90,0,0
142742,-90.9090909090909,4,2,53,90,0,1
143075,-90.9090909090909,4,2,53,90,0,0
153408,-90.9090909090909,4,2,53,90,0,1
153742,-90.9090909090909,4,2,53,90,0,0
154242,-90.9090909090909,4,2,53,5,0,0
154297,-90.9090909090909,4,2,53,90,0,0
154464,-90.9090909090909,4,2,53,5,0,0
154520,-90.9090909090909,4,2,53,90,0,0
154686,-90.9090909090909,4,2,53,5,0,0
154742,-90.9090909090909,4,2,53,90,0,0
158742,-90.9090909090909,4,2,53,90,0,1
158825,-90.9090909090909,4,2,53,90,0,0
161408,-90.9090909090909,4,2,53,90,0,1
161492,-90.9090909090909,4,2,53,90,0,0
162742,-83.3333333333333,4,2,53,90,0,1
162825,-83.3333333333333,4,2,53,90,0,0
164242,-83.3333333333333,4,2,53,50,0,0
169408,-83.3333333333333,4,2,53,90,0,1
169492,-83.3333333333333,4,2,53,90,0,0
170742,-83.3333333333333,4,2,53,90,0,1
170825,-83.3333333333333,4,2,53,90,0,0
172075,-83.3333333333333,4,2,53,90,0,1
172158,-83.3333333333333,4,2,53,90,0,0
173408,-83.3333333333333,4,2,53,90,0,1
173492,-83.3333333333333,4,2,53,90,0,0
174742,-111.111111111111,4,2,32,70,0,0
176075,-111.111111111111,4,2,53,60,0,0
177075,-111.111111111111,4,2,53,90,0,0
177408,-83.3333333333333,4,2,53,90,0,1
197408,-90.9090909090909,4,2,53,90,0,1
198075,-90.9090909090909,4,2,53,90,0,0
198742,-83.3333333333333,4,2,53,90,0,1
218742,-100,4,2,53,80,0,1
218825,-100,4,2,32,70,0,1
219992,-100,4,2,32,70,0,1
220075,-100,4,2,53,70,0,0
222742,-125,4,2,69,70,0,0
230408,-66.6666666666667,4,2,53,70,0,1
230492,-66.6666666666667,4,2,53,5,0,0
230742,-111.111111111111,4,2,53,80,0,0
234742,-100,4,2,53,80,0,0
235742,-111.111111111111,4,2,53,80,0,0
236075,-90.9090909090908,4,2,53,90,0,1
236158,-90.9090909090908,4,2,53,90,0,0
239992,-153.846153846153,4,2,53,90,0,0
240075,-153.846153846153,4,2,53,50,0,0
240742,-100,4,2,53,60,0,0
241075,-100,4,2,53,80,0,0
241408,-90.9090909090909,4,2,53,90,0,1
241992,-90.9090909090909,4,2,53,90,0,0
243408,-111.111111111111,4,2,53,90,0,0
244075,-83.3333333333333,4,2,53,90,0,0
246742,-90.9090909090909,4,2,53,90,0,0
250075,-58.8235294117647,4,2,53,90,0,1
250242,-58.8235294117647,4,2,53,5,0,0
250297,-58.8235294117647,4,2,53,90,0,1
250464,-58.8235294117647,4,2,53,5,0,0
250520,-58.8235294117647,4,2,53,90,0,1
250686,-58.8235294117647,4,2,53,5,0,0
250742,-71.4285714285714,4,2,53,90,0,1
250992,-71.4285714285714,4,2,53,90,0,0
251242,-71.4285714285714,4,2,53,90,0,1
251492,-71.4285714285714,4,2,53,90,0,0
251742,-71.4285714285714,4,2,53,90,0,1
251992,-71.4285714285714,4,2,53,90,0,0
252075,-90.9090909090909,4,2,53,90,0,1
252158,-90.9090909090909,4,2,53,90,0,0
252742,-83.3333333333333,4,2,53,90,0,0
253408,-90.9090909090909,4,2,53,90,0,0
257408,-90.9090909090909,4,2,53,90,0,1
257575,-90.9090909090909,4,2,53,90,0,0
258075,-100,4,2,53,90,0,0
258742,-111.111111111111,4,2,53,90,0,0
259408,-90.9090909090908,4,2,53,90,0,0
260075,-90.9090909090908,4,2,53,90,0,1
260158,-90.9090909090908,4,2,53,90,0,0
261075,-83.3333333333333,4,2,53,90,0,0
261408,-100,4,2,53,90,0,0
261492,-100,4,2,32,70,0,0
262408,-100,4,2,53,100,0,0
262492,-100,4,2,53,80,0,0
262742,-83.3333333333333,4,2,53,90,0,1
282742,-100,4,2,53,90,0,1
282825,-100,4,2,32,90,0,1
284075,-200,4,2,69,50,0,0
289742,-166.666666666667,4,2,69,50,0,0
294742,-142.857142857143,4,2,69,50,0,1
295075,-142.857142857143,4,2,69,50,0,0
302742,-142.857142857143,4,2,69,50,0,1
302825,-142.857142857143,4,2,69,50,0,0
303242,-250.000000000001,4,2,69,40,0,0
304075,-100,4,2,53,60,0,0
305075,-100,4,2,53,70,0,0
305408,-83.3333333333333,4,2,53,90,0,1
325408,-90.9090909090909,4,2,53,90,0,1
326242,-90.9090909090909,4,2,53,90,0,0
326742,-83.3333333333333,4,2,53,90,0,1
339575,-83.3333333333333,4,2,53,90,0,1
339742,-83.3333333333333,4,2,53,90,0,1
339908,-83.3333333333333,4,2,53,90,0,1
340075,-83.3333333333333,4,2,53,90,0,1
348075,-153.846153846153,4,2,53,50,0,0
348158,-153.846153846153,4,2,1,50,0,0
350075,-181.818181818181,4,2,1,50,0,0
353408,-222.222222222221,4,2,1,45,0,0
358742,-434.782608695652,4,2,3,45,0,1
359075,-434.782608695652,4,2,3,45,0,0

[Colours]
Combo1 : 255,143,32
Combo2 : 198,169,138
Combo3 : 239,46,46
Combo4 : 217,142,142

[HitObjects]
133,232,701,6,0,L|104:224,2,16.6666666666667,2|2|2,0:0|0:0|0:0,0:0:0:0:
165,243,917,2,0,L|366:202,1,200,2|0,0:0|0:0,0:0:0:0:
360,203,2631,5,2,0:0:0:0:
264,162,3059,1,0,0:0:0:0:
324,294,3488,1,2,0:0:0:0:
228,253,3916,1,0,0:0:0:0:
422,283,4345,6,0,P|446:321|449:379,2,100,2|0|0,0:0|0:0|0:0,0:0:0:0:
422,283,6059,2,0,L|301:297,1,100,2|0,0:0|0:0,0:0:0:0:
168,312,6916,1,2,0:0:0:0:
168,312,7345,1,2,0:0:0:0:
75,269,7774,6,0,L|91:153,1,100,2|0,0:0|0:0,0:0:0:0:
256,192,8631,2,0,L|242:92,1,100,2|0,0:0|0:0,0:0:0:0:
409,34,9488,1,2,0:0:0:0:
374,134,9916,1,0,0:0:0:0:
231,10,10345,1,2,0:0:0:0:
231,10,11202,6,0,L|244:117,1,100,2|0,0:0|0:0,0:0:0:0:
39,236,12059,2,0,L|26:129,1,100,2|0,0:0|0:0,0:0:0:0:
10,13,12702,5,2,0:0:0:0:
10,13,12774,1,2,0:0:0:0:
10,13,12845,1,2,0:0:0:0:
10,13,12916,1,2,0:0:0:0:
54,318,17202,5,2,0:0:0:0:
54,318,17274,1,2,0:0:0:0:
54,318,17345,1,2,0:0:0:0:
54,318,17416,2,0,B|155:282|151:377|249:328,1,200,2|0,0:0|0:0,0:0:0:0:
244,330,19130,5,2,0:0:0:0:
225,221,19558,1,0,0:0:0:0:
370,58,19987,1,2,0:0:0:0:
351,167,20415,1,0,0:0:0:0:
187,116,20844,6,0,L|305:101,1,100,2|0,0:0|0:0,0:0:0:0:
115,233,21701,2,0,L|233:248,1,100,2|0,0:0|0:0,0:0:0:0:
7,144,22558,2,0,L|125:129,1,100,2|0,0:0|0:0,0:0:0:0:
308,6,23416,2,0,P|290:72|284:123,1,100,2|2,0:0|0:0,0:0:0:0:
464,189,24273,6,0,B|419:140|419:140|358:206|404:276,1,200,2|0,0:0|0:0,0:0:0:0:
395,262,25558,1,0,0:0:0:0:
222,211,25987,2,0,L|107:227,1,100,2|0,0:0|0:0,0:0:0:0:
321,154,26844,2,0,L|420:140,1,100,2|0,0:0|0:0,0:0:0:0:
230,28,27701,5,6,0:0:0:0:
231,44,27773,1,2,0:0:0:0:
232,61,27844,1,2,0:0:0:0:
234,77,27916,1,2,0:0:0:0:
256,192,27987,12,0,30273,0:0:0:0:
256,192,30701,5,0,0:0:0:0:
256,192,31130,2,0,P|198:184|137:231,1,129.999994049073,4|0,1:0|3:0,0:0:0:0:
78,322,31773,1,0,3:0:0:0:
78,322,31987,2,0,L|69:205,1,64.9999970245363,8|0,0:1|0:0,0:0:0:0:
63,106,32416,2,0,L|68:171,1,64.9999970245363,0|0,1:0|0:0,0:0:0:0:
191,255,32844,6,0,P|223:251|250:233,1,64.9999970245363,4|0,0:0|0:0,0:0:0:0:
314,166,33273,1,0,1:0:0:0:
314,166,33701,2,0,L|297:25,1,129.999994049073,0|0,0:0|3:0,0:0:0:0:
186,6,34344,5,0,3:0:0:0:
393,112,34558,1,0,1:0:0:0:
393,112,34987,2,0,L|402:31,1,64.9999970245363,0|0,3:0|0:0,0:0:0:0:
267,171,35416,6,0,P|295:149|341:143,1,64.9999970245363,8|0,3:1|0:0,0:0:0:0:
492,212,35844,2,0,P|467:177|425:169,1,64.9999970245363,0|0,1:0|0:0,0:0:0:0:
305,298,36273,2,0,B|379:261|377:174|481:161,1,194.999991073609,4|0,0:3|0:0,0:0:0:0:
301,163,37130,2,0,B|385:191|373:287|477:300,1,194.999991073609,0|0,3:0|1:0,0:0:0:0:
263,366,37987,6,0,P|224:303|247:242,1,129.999994049073,0|0,1:0|3:0,0:0:0:0:
310,116,38630,1,0,3:0:0:0:
310,116,38844,2,0,L|158:130,1,129.999994049073,8|0,3:1|1:0,0:0:0:0:
5,9,39701,5,4,0:0:0:0:
70,56,39916,1,0,3:0:0:0:
29,122,40130,1,0,3:0:0:0:
29,122,40558,2,0,L|183:94,1,129.999994049073,0|0,0:0|3:0,0:0:0:0:
300,76,41201,5,0,3:0:0:0:
127,219,41416,1,0,1:0:0:0:
127,219,41844,2,0,L|134:296,1,64.9999970245363,0|0,0:0|0:0,0:0:0:0:
144,384,42273,1,8,0:1:0:0:
467,275,42701,6,0,L|366:256,1,64.9999970245363,0|0,1:0|3:0,0:0:0:0:
296,303,43130,2,0,P|326:238|292:150,2,129.999994049073,4|0|0,0:3|3:0|3:0,0:0:0:0:
224,338,44201,1,0,0:0:0:0:
224,338,44630,5,0,1:0:0:0:
316,182,44844,2,0,B|414:149|435:268|324:328|227:217,1,300.000011444092,4|8,1:1|0:1,0:0:0:0:
111,16,46130,6,0,L|121:99,1,75.0000028610231,0|0,1:0|0:0,0:0:0:0:
40,225,46558,2,0,P|80:179|110:167,1,75.0000028610231,4|0,0:2|3:0,0:0:0:0:
149,88,46987,2,0,P|209:94|236:112,1,75.0000028610231,0|0,3:0|0:0,0:0:0:0:
348,126,47416,2,0,P|338:89|316:59,1,75.0000028610231,0|0,3:0|0:0,0:0:0:0:
420,245,47844,2,0,P|444:216|456:181,1,75.0000028610231,0|0,3:0|3:0,0:0:0:0:
323,362,48273,6,0,B|260:339|274:283|173:256,1,150.000005722046,0|0,1:0|3:0,0:0:0:0:
90,252,48916,1,0,3:0:0:0:
90,252,49130,2,0,P|156:186|127:111,2,150.000005722046,0|0|4,3:0|1:0|0:3,0:0:0:0:
117,44,50415,5,0,3:0:0:0:
61,117,50630,1,0,0:0:0:0:
148,137,50844,2,0,L|317:117,1,150.000005722046,0|0,3:0|0:0,0:0:0:0:
461,113,51487,5,0,1:0:0:0:
288,0,51701,2,0,L|276:193,1,150.000005722046,0|0,1:0|3:0,0:0:0:0:
269,292,52344,1,0,3:0:0:0:
197,214,52558,2,0,L|367:229,1,150.000005722046,8|0,0:1|1:0,0:0:0:0:
346,227,53415,5,4,3:2:0:0:
173,368,53630,1,0,3:0:0:0:
105,315,53844,2,0,L|222:333,1,75.0000028610231,0|0,3:0|0:0,0:0:0:0:
43,377,54273,2,0,P|13:315|49:235,1,150.000005722046,8|0,0:1|3:0,0:0:0:0:
145,180,54915,1,0,0:0:0:0:
105,315,55130,5,0,1:0:0:0:
105,315,55558,1,0,3:0:0:0:
180,262,55773,1,0,3:0:0:0:
145,180,55987,1,0,3:0:0:0:
168,21,56415,2,0,L|151:134,1,75.0000028610231,0|0,1:0|3:0,0:0:0:0:
8,235,56844,5,4,0:3:0:0:
61,186,57058,5,0,1:0:0:0:
145,180,57273,5,0,1:0:0:0:
213,231,57487,5,0,1:0:0:0:
288,300,57701,5,0,1:0:0:0:
391,319,57915,5,0,1:0:0:0:
482,261,58130,5,0,1:0:0:0:
512,155,58344,5,0,1:0:0:0:
120,294,58558,1,4,1:1:0:0:
256,192,66080,12,0,70915,0:0:0:0:
261,142,72356,6,0,L|256:192,1,50,2|2,0:0|0:0,0:0:0:0:
256,192,77409,5,0,0:0:0:0:
256,192,77742,1,0,0:0:0:0:
256,192,78075,1,0,0:0:0:0:
256,192,78409,6,0,L|272:367,1,150,2|0,0:3|0:0,0:0:0:0:
269,360,78742,6,0,B|231:332|231:332|344:323,1,160,0|0,1:2|0:0,0:0:0:0:
491,196,79242,2,0,B|529:224|529:224|416:233,1,160,0|0,1:0|0:0,0:0:0:0:
256,192,79742,2,0,B|218:164|218:164|331:155,1,160,0|0,1:0|0:0,0:0:0:0:
478,28,80242,2,0,B|516:56|516:56|403:65,1,160,0|0,1:0|0:0,0:0:0:0:
163,17,80742,5,0,1:0:0:0:
159,46,80825,1,0,1:0:0:0:
156,76,80908,1,0,1:0:0:0:
153,106,80991,1,0,1:0:0:0:
149,136,81075,1,0,1:0:0:0:
260,87,81242,1,0,1:0:0:0:
52,65,81409,6,0,P|12:136|41:208,1,160,0|0,1:0|0:0,0:0:0:0:
157,366,81909,2,0,P|197:295|168:223,1,160,0|0,1:0|0:0,0:0:0:0:
284,59,82409,2,0,P|259:136|302:201,1,160,0|0,1:0|0:0,0:0:0:0:
449,331,82909,2,0,P|473:253|430:188,1,160,0|0,1:0|0:0,0:0:0:0:
149,136,83409,5,0,1:0:0:0:
153,165,83492,1,0,1:0:0:0:
156,195,83575,1,0,1:0:0:0:
159,225,83658,1,0,1:0:0:0:
163,255,83742,1,0,1:0:0:0:
260,184,83909,1,0,1:0:0:0:
246,303,84075,6,0,B|244:332|203:354|203:354|169:333|89:331,1,160,4|0,1:2|0:0,0:0:0:0:
389,213,84575,2,0,B|387:184|346:162|346:162|312:183|232:185,1,160,0|0,1:0|0:0,0:0:0:0:
165,167,85075,2,0,B|167:196|208:218|208:218|242:197|322:195,1,160,0|0,1:0|0:0,0:0:0:0:
22,77,85575,2,0,B|24:48|65:26|65:26|99:47|179:49,1,160,0|0,1:0|0:0,0:0:0:0:
393,243,86075,5,0,1:0:0:0:
389,213,86159,1,0,1:0:0:0:
386,183,86242,1,0,1:0:0:0:
383,153,86325,1,0,1:0:0:0:
379,124,86408,1,0,1:0:0:0:
274,257,86575,1,0,1:0:0:0:
260,138,86742,6,0,L|441:156,1,160,0|0,1:0|0:0,0:0:0:0:
195,348,87242,2,0,L|376:330,1,160,0|0,1:0|0:0,0:0:0:0:
134,145,87742,2,0,L|315:163,1,160,0|0,1:0|0:0,0:0:0:0:
67,333,88242,2,0,L|248:315,1,160,0|0,1:0|0:0,0:0:0:0:
22,215,88742,5,0,1:0:0:0:
51,217,88825,1,0,1:0:0:0:
81,219,88908,1,0,1:0:0:0:
111,221,88991,1,0,1:0:0:0:
141,223,89075,1,0,1:0:0:0:
34,334,89242,1,0,1:0:0:0:
198,378,89408,6,0,L|189:283,1,80,4|0,1:2|0:0,0:0:0:0:
147,80,89742,2,0,P|135:106|139:125,1,40,0|0,1:0|1:0,0:0:0:0:
212,138,89908,2,0,P|223:111|219:92,1,40,0|0,1:0|1:0,0:0:0:0:
205,28,90075,5,0,1:0:0:0:
155,189,90242,1,0,1:0:0:0:
310,151,90408,1,0,1:0:0:0:
310,151,90575,1,0,0:0:0:0:
242,348,90742,5,0,0:0:0:0:
223,313,90825,1,0,0:0:0:0:
232,275,90908,1,0,1:0:0:0:
264,252,90991,1,0,0:0:0:0:
303,256,91075,1,0,0:0:0:0:
179,154,91242,5,0,0:0:0:0:
179,154,91325,1,0,0:0:0:0:
179,154,91408,1,0,1:0:0:0:
66,290,91575,2,0,L|163:279,1,80,0|0,1:0|1:0,0:0:0:0:
385,166,91908,5,0,1:0:0:0:
333,203,91992,1,0,0:0:0:0:
303,256,92075,1,0,1:0:0:0:
212,174,92242,5,0,0:0:0:0:
193,217,92325,1,0,0:0:0:0:
190,259,92408,1,0,0:0:0:0:
97,218,92575,5,0,1:0:0:0:
94,248,92658,1,0,0:0:0:0:
98,280,92742,1,0,0:0:0:0:
10,290,92908,5,0,0:0:0:0:
16,309,92992,1,0,0:0:0:0:
27,328,93075,1,0,1:0:0:0:
97,218,93242,1,0,0:0:0:0:
14,109,93408,5,0,0:0:0:0:
1,145,93491,1,0,0:0:0:0:
14,182,93574,1,0,1:0:0:0:
48,201,93657,1,0,0:0:0:0:
86,194,93741,1,0,0:0:0:0:
261,118,93909,5,0,0:0:0:0:
236,88,93992,1,0,0:0:0:0:
197,81,94075,1,0,1:0:0:0:
164,101,94158,1,0,0:0:0:0:
151,137,94242,1,0,0:0:0:0:
228,303,94408,5,0,1:0:0:0:
228,303,94575,1,0,1:0:0:0:
371,206,94742,6,0,P|413:198|496:219,1,89.9999972534181,4|0,1:2|0:0,0:0:0:0:
500,358,95075,1,0,1:0:0:0:
500,358,95158,1,0,1:0:0:0:
500,358,95242,2,0,L|453:352,1,44.999998626709,0|0,1:0|1:0,0:0:0:0:
327,339,95408,5,0,1:0:0:0:
459,203,95575,1,0,1:0:0:0:
319,330,95742,5,0,0:0:0:0:
466,211,95908,1,0,1:0:0:0:
308,319,96075,5,0,0:0:0:0:
280,284,96158,1,0,0:0:0:0:
271,240,96241,1,0,1:0:0:0:
285,197,96324,1,0,0:0:0:0:
318,166,96408,1,0,0:0:0:0:
203,311,96575,5,0,0:0:0:0:
203,311,96658,1,0,0:0:0:0:
203,311,96742,2,0,B|153:328|153:328|97:314,1,89.9999972534181,0|0,1:0|1:0,0:0:0:0:
184,54,97075,2,0,B|147:44|147:44|97:61,1,89.9999972534181,0|0,1:0|1:0,0:0:0:0:
2,193,97408,5,0,1:0:0:0:
21,192,97492,1,0,0:0:0:0:
39,192,97575,2,0,L|109:186,1,44.999998626709,0|0,0:0|0:0,0:0:0:0:
175,135,97742,5,0,0:0:0:0:
198,137,97826,1,0,0:0:0:0:
219,139,97909,2,0,L|289:144,1,44.999998626709,0|0,1:0|0:0,0:0:0:0:
406,296,98075,5,0,0:0:0:0:
419,266,98158,1,0,0:0:0:0:
415,233,98242,2,0,L|391:159,1,44.999998626709,0|0,0:0|0:0,0:0:0:0:
247,219,98409,5,0,1:0:0:0:
234,249,98492,1,0,0:0:0:0:
238,282,98576,2,0,L|261:355,1,44.999998626709,0|0,0:0|0:0,0:0:0:0:
455,349,98742,5,0,0:0:0:0:
415,369,98825,1,0,0:0:0:0:
371,361,98908,1,0,1:0:0:0:
341,329,98991,1,0,0:0:0:0:
335,285,99075,2,0,L|340:182,1,89.9999972534181,0|0,0:0|0:0,0:0:0:0:
27,256,99408,5,0,1:0:0:0:
76,278,99491,1,0,0:0:0:0:
126,263,99574,1,0,0:0:0:0:
154,223,99657,1,0,0:0:0:0:
147,168,99742,6,0,P|96:152|34:168,1,112.500004291535,2|0,3:0|0:0,0:0:0:0:
26,180,100075,6,0,B|37:116|37:116|26:84|26:84|44:-10,1,170.000003242493,4|0,1:2|0:0,0:0:0:0:
236,163,100575,2,0,B|247:227|247:227|236:259|236:259|254:353,1,170.000003242493,0|0,1:0|0:0,0:0:0:0:
494,173,101075,5,2,1:2:0:0:
351,227,101242,1,2,0:2:0:0:
378,238,101325,1,2,0:2:0:0:
401,227,101408,2,0,B|338:186|234:208|297:249|193:271|130:230,1,255.000004863739,4|0,0:3|0:0,0:0:0:0:
44,184,102075,1,0,1:0:0:0:
44,184,102158,1,0,1:0:0:0:
44,184,102242,1,0,1:0:0:0:
44,184,102325,1,0,1:0:0:0:
44,184,102408,2,0,P|71:238|75:277,1,85.0000016212464,0|0,1:0|1:0,0:0:0:0:
282,122,102742,6,0,B|237:139|208:168|208:168|171:149|109:140,1,170.000003242493,0|0,1:0|0:0,0:0:0:0:
458,231,103242,2,0,B|417:236|379:255|379:255|351:226|306:209,1,170.000003242493,0|0,1:0|0:0,0:0:0:0:
128,133,103742,6,0,B|169:139|206:158|206:158|235:129|280:112,1,170.000003242493,0|4,1:0|0:3,0:0:0:0:
409,78,104242,2,0,L|395:174,1,85.0000016212464,0|0,1:0|0:0,0:0:0:0:
375,329,104575,1,0,0:0:0:0:
266,259,104742,2,0,L|323:253,1,42.5000008106232,0|0,1:0|1:0,0:0:0:0:
454,248,104908,1,0,1:0:0:0:
454,248,104992,1,0,1:0:0:0:
454,248,105075,2,0,P|468:300|460:354,1,85.0000016212464,0|0,1:0|1:0,0:0:0:0:
478,93,105408,5,0,1:0:0:0:
366,256,105575,1,0,0:0:0:0:
270,98,105742,5,0,0:0:0:0:
257,239,105908,1,0,1:0:0:0:
134,165,106075,5,0,0:0:0:0:
160,259,106242,1,0,0:0:0:0:
41,288,106408,5,0,1:0:0:0:
106,331,106575,1,0,0:0:0:0:
257,239,106742,5,4,0:3:0:0:
245,198,106826,1,0,0:0:0:0:
216,168,106909,1,0,1:0:0:0:
175,156,106992,1,0,0:0:0:0:
134,165,107075,1,0,0:0:0:0:
326,92,107242,5,0,0:0:0:0:
322,121,107325,1,0,0:0:0:0:
317,152,107408,1,0,1:0:0:0:
290,107,107491,1,0,1:0:0:0:
302,56,107574,1,0,1:0:0:0:
345,28,107657,1,0,1:0:0:0:
396,38,107741,1,0,1:0:0:0:
476,234,107908,6,0,L|486:170,1,42.5000008106232,0|0,1:0|0:0,0:0:0:0:
498,82,108075,1,0,1:0:0:0:
342,156,108242,6,0,L|352:220,1,42.5000008106232,0|0,0:0|0:0,0:0:0:0:
365,287,108409,1,0,0:0:0:0:
217,246,108575,6,0,L|227:182,1,42.5000008106232,0|0,1:0|0:0,0:0:0:0:
238,118,108742,1,0,0:0:0:0:
104,159,108908,6,0,L|114:223,1,42.5000008106232,0|0,0:0|0:0,0:0:0:0:
128,282,109075,1,0,1:0:0:0:
128,282,109242,1,0,0:0:0:0:
21,160,109408,5,4,0:3:0:0:
32,119,109491,1,0,0:0:0:0:
61,89,109574,1,0,1:0:0:0:
102,77,109657,1,0,0:0:0:0:
142,87,109741,1,0,0:0:0:0:
234,270,109908,5,0,0:0:0:0:
201,296,109991,1,0,0:0:0:0:
160,305,110074,1,0,1:0:0:0:
120,292,110157,1,0,1:0:0:0:
92,261,110241,1,0,1:0:0:0:
80,208,110325,1,0,1:0:0:0:
104,159,110408,5,0,1:0:0:0:
0,348,110575,1,0,1:0:0:0:
280,317,110742,6,0,B|242:291|179:303|217:329|154:341|116:316,1,170.000003242493,4|0,1:2|0:0,0:0:0:0:
376,184,111242,2,0,B|338:158|275:170|313:196|250:208|212:183,1,170.000003242493,0|0,1:0|0:0,0:0:0:0:
448,42,111742,5,2,1:2:0:0:
285,53,111908,1,2,0:2:0:0:
316,70,111992,1,2,0:2:0:0:
345,54,112074,2,0,B|178:20|178:20|194:120,1,255.000004863739,4|0,0:3|0:0,0:0:0:0:
143,251,112742,1,0,1:0:0:0:
143,251,112825,1,0,1:0:0:0:
143,251,112908,1,0,1:0:0:0:
143,251,112992,1,0,1:0:0:0:
143,251,113075,2,0,P|208:240|251:237,1,85.0000016212464,0|0,1:0|0:0,0:0:0:0:
44,251,113408,6,0,B|0:237|-2:204|-2:204|28:135|108:178,1,170.000003242493,0|0,1:0|0:0,0:0:0:0:
261,323,113908,2,0,B|305:309|307:276|307:276|277:207|197:250,1,170.000003242493,0|0,1:0|0:0,0:0:0:0:
38,265,114408,6,0,B|-6:251|-8:218|-8:218|22:149|102:192,1,170.000003242493,0|0,1:0|0:0,0:0:0:0:
264,334,114908,2,0,B|308:320|310:287|310:287|280:218|200:261,1,170.000003242493,0|0,1:0|0:0,0:0:0:0:
123,365,115408,2,0,L|131:296,1,42.5000008106232,0|0,1:0|1:0,0:0:0:0:
162,161,115575,1,0,1:0:0:0:
162,161,115658,1,0,1:0:0:0:
162,161,115742,2,0,L|154:257,1,85.0000016212464,0|0,1:0|1:0,0:0:0:0:
121,33,116075,5,0,1:0:0:0:
124,47,116408,1,0,1:0:0:0:
391,351,116742,5,8,3:3:0:0:
388,337,117075,1,0,1:0:0:0:
391,33,117408,5,4,1:3:0:0:
388,47,117741,1,0,1:0:0:0:
121,351,118075,5,8,1:0:0:0:
124,337,118408,1,0,1:0:0:0:
121,33,118742,5,0,1:0:0:0:
132,107,118908,1,0,1:0:0:0:
252,19,119075,5,0,1:0:0:0:
224,139,119242,1,0,1:0:0:0:
34,62,119408,5,8,1:0:0:0:
85,245,119575,1,0,1:0:0:0:
341,104,119742,6,0,L|331:196,1,85.0000016212464,0|0,1:0|1:0,0:0:0:0:
306,346,120075,5,6,1:3:0:0:
365,258,120242,1,2,0:0:0:0:
290,273,120408,1,2,0:0:0:0:
380,330,120575,1,2,0:0:0:0:
380,330,120908,5,0,1:0:0:0:
189,371,121075,2,0,P|167:327|177:281,1,97.4999955368044,8|0,0:2|0:0,0:0:0:0:
201,264,121408,6,0,B|58:279|58:279|31:310|50:363,1,220.000006713867,4|8,1:0|0:1,0:0:0:0:
47,180,121908,1,0,0:0:0:0:
47,180,121992,1,0,0:0:0:0:
47,180,122075,1,0,0:0:0:0:
201,264,122242,1,0,1:0:0:0:
251,52,122408,1,8,0:1:0:0:
133,163,122575,1,0,0:0:0:0:
344,162,122742,6,0,L|234:147,1,110.000003356934,0|0,1:0|0:0,0:0:0:0:
482,129,123075,1,8,0:1:0:0:
358,271,123242,1,0,1:0:0:0:
358,271,123325,1,0,0:0:0:0:
358,271,123408,2,0,L|344:162,1,110.000003356934,0|2,0:0|1:1,0:0:0:0:
343,128,123658,1,2,0:1:0:0:
343,128,123742,1,10,0:1:0:0:
369,355,123908,1,2,0:1:0:0:
138,224,124075,6,0,P|204:206|264:287,1,165.000005035401,0|0,1:0|0:0,0:0:0:0:
270,305,124408,1,8,0:1:0:0:
252,125,124575,1,0,0:1:0:0:
189,278,124742,2,0,P|123:296|63:215,1,165.000005035401,0|0,0:1|0:0,0:0:0:0:
61,191,125075,1,8,0:1:0:0:
20,368,125242,1,0,1:0:0:0:
189,278,125408,5,0,0:0:0:0:
136,127,125575,1,0,1:0:0:0:
136,127,125658,1,0,0:0:0:0:
136,127,125742,2,0,L|261:106,1,110.000003356934,8|0,0:1|0:0,0:0:0:0:
381,25,126075,1,2,1:1:0:0:
333,227,126242,2,0,P|323:188|323:144,1,55.0000016784668,2|0,1:1|0:0,0:0:0:0:
323,102,126408,1,10,0:1:0:0:
376,95,126492,1,2,0:1:0:0:
424,123,126575,1,2,0:1:0:0:
445,172,126658,1,2,0:1:0:0:
435,225,126742,6,0,B|367:217|367:217|341:235|341:235|248:224,1,165.000005035401,0|0,1:0|0:0,0:0:0:0:
238,244,127075,2,0,L|226:111,1,110.000003356934,8|0,0:1|0:0,0:0:0:0:
108,223,127408,6,0,L|120:90,1,110.000003356934,0|0,0:2|1:0,0:0:0:0:
309,210,127742,2,0,L|297:77,1,110.000003356934,8|0,0:1|0:0,0:0:0:0:
39,189,128075,6,0,L|48:79,1,110.000003356934,0|0,1:0|0:0,0:0:0:0:
384,179,128408,2,0,L|374:69,1,110.000003356934,8|0,0:1|0:0,0:0:0:0:
126,3,128742,6,0,L|117:113,1,110.000003356934,0|2,0:0|1:1,0:0:0:0:
117,158,128992,1,2,0:1:0:0:
117,158,129075,1,10,0:1:0:0:
32,34,129242,1,2,0:1:0:0:
108,236,129408,6,0,B|156:256|187:214|187:214|198:119,1,165.000005035401,0|0,1:2|0:0,0:0:0:0:
200,98,129742,1,8,0:1:0:0:
324,294,129908,2,0,P|336:256|341:213,1,55.0000016784668,0|0,0:0|0:0,0:0:0:0:
358,84,130075,1,0,0:0:0:0:
269,169,130242,1,0,1:0:0:0:
419,255,130408,2,0,P|439:200|406:135,1,110.000003356934,8|0,0:1|1:0,0:0:0:0:
291,17,130742,1,0,0:0:0:0:
214,226,130908,5,0,1:0:0:0:
99,118,131075,1,8,0:1:0:0:
211,78,131242,6,0,P|206:105|199:131,1,55.0000016784668,0|0,0:0|0:0,0:0:0:0:
129,274,131408,1,0,1:0:0:0:
2,209,131575,6,0,P|27:200|55:199,1,55.0000016784668,2|0,1:0|0:0,0:0:0:0:
136,193,131742,1,10,0:1:0:0:
82,198,131825,1,2,0:1:0:0:
36,169,131908,1,2,0:1:0:0:
18,114,131992,1,2,0:1:0:0:
38,57,132075,6,0,B|123:39|123:39|191:75|191:75|295:55,1,239.999992675781,4|8,1:0|0:1,0:0:0:0:
495,103,132575,2,0,L|432:109,1,59.9999981689454,0|0,0:0|0:0,0:0:0:0:
217,187,132742,5,0,0:0:0:0:
214,136,132825,1,0,0:0:0:0:
245,100,132908,1,0,1:0:0:0:
287,101,132992,1,0,0:0:0:0:
314,124,133075,1,8,0:1:0:0:
347,137,133158,1,0,0:0:0:0:
386,121,133242,1,0,0:0:0:0:
400,74,133325,1,0,0:0:0:0:
371,28,133408,1,0,1:0:0:0:
214,136,133575,5,0,0:0:0:0:
217,96,133658,1,0,0:0:0:0:
220,56,133741,1,8,0:1:0:0:
95,168,133908,5,0,1:0:0:0:
95,168,133991,1,0,0:0:0:0:
95,168,134075,2,0,L|83:56,1,110.000003356934,0|2,0:0|1:1,0:0:0:0:
298,232,134408,2,0,L|313:123,1,110.000003356934,10|2,0:1|0:1,0:0:0:0:
141,375,134742,5,0,1:0:0:0:
216,136,134908,1,0,0:0:0:0:
216,136,134992,1,0,0:0:0:0:
216,136,135075,1,8,0:1:0:0:
377,262,135242,5,0,0:0:0:0:
302,23,135408,1,0,0:0:0:0:
302,23,135492,1,0,0:0:0:0:
302,23,135575,1,0,1:0:0:0:
133,208,135742,6,0,P|206:248|272:234,1,119.999996337891,8|0,0:1|1:0,0:0:0:0:
447,191,136075,5,0,0:0:0:0:
449,233,136158,1,0,0:0:0:0:
420,263,136242,1,0,1:0:0:0:
377,262,136325,1,0,0:0:0:0:
348,230,136408,1,8,0:1:0:0:
187,59,136575,5,0,0:0:0:0:
173,107,136658,1,0,0:0:0:0:
199,151,136741,1,2,1:1:0:0:
248,166,136825,1,0,0:0:0:0:
294,140,136908,1,2,1:1:0:0:
343,3,137075,5,10,0:1:0:0:
346,32,137158,1,2,0:1:0:0:
349,58,137242,2,0,L|263:65,1,59.9999981689454,2|2,0:1|0:1,0:0:0:0:
96,75,137408,1,0,1:0:0:0:
270,241,137575,6,0,L|317:246,2,39.9999987792969,2|2|2,0:1|0:1|0:1,0:0:0:0:
238,237,137742,1,10,0:1:0:0:
26,160,137908,6,0,L|29:120,2,39.9999987792969,2|2|2,0:1|0:1|0:1,0:0:0:0:
24,195,138075,2,0,P|73:212|124:150,1,119.999996337891,2|0,0:1|1:0,0:0:0:0:
346,32,138408,2,0,L|222:42,1,119.999996337891,8|0,0:1|0:0,0:0:0:0:
477,23,138742,5,0,1:0:0:0:
399,155,138908,1,0,0:0:0:0:
403,132,138992,1,0,0:0:0:0:
407,107,139075,1,8,0:1:0:0:
450,126,139158,1,0,0:0:0:0:
478,164,139241,1,0,1:0:0:0:
482,211,139325,1,0,0:0:0:0:
460,254,139408,2,0,L|321:238,1,119.999996337891,0|2,0:0|1:1,0:0:0:0:
301,236,139658,1,2,0:1:0:0:
301,236,139742,2,0,L|316:372,1,119.999996337891,10|2,0:1|0:1,0:0:0:0:
285,130,140075,5,4,1:3:0:0:
211,285,140242,1,0,0:0:0:0:
161,77,140408,1,8,0:1:0:0:
28,241,140575,2,0,P|94:181|248:190,1,220.000006713867,0|0,0:0|1:0,0:0:0:0:
430,48,141075,2,0,L|409:179,1,110.000003356934,8|0,0:1|1:0,0:0:0:0:
219,261,141408,6,0,P|249:250|282:219,1,59.9999981689454,12|0,1:0|0:0,0:0:0:0:
301,103,141575,5,0,1:0:0:0:
301,103,141658,2,0,P|295:134|305:178,1,59.9999981689454,8|0,0:1|0:0,0:0:0:0:
394,255,141825,5,0,1:0:0:0:
394,255,141908,2,0,P|369:234|326:220,1,59.9999981689454,8|0,0:1|0:0,0:0:0:0:
142,192,142075,6,0,L|224:171,1,59.9999981689454,8|0,0:1|0:0,0:0:0:0:
452,113,142242,1,8,0:1:0:0:
413,157,142325,1,8,0:1:0:0:
356,176,142408,1,8,1:1:0:0:
299,162,142492,1,8,0:1:0:0:
256,121,142575,1,8,0:1:0:0:
241,64,142658,1,8,0:1:0:0:
257,7,142742,6,0,L|384:0,1,110.000003356934,4|0,1:0|0:0,0:0:0:0:
413,0,142992,1,0,0:0:0:0:
413,0,143075,1,8,0:1:0:0:
310,131,143242,5,0,0:0:0:0:
299,162,143325,1,0,0:0:0:0:
306,196,143408,1,0,0:0:0:0:
373,275,143575,2,0,P|382:316|376:351,1,55.0000016784668,0|0,1:0|0:0,0:0:0:0:
323,374,143742,2,0,B|288:363|281:327|281:327|305:235,1,110.000003356934,8|0,0:1|0:0,0:0:0:0:
363,68,144075,5,0,1:0:0:0:
404,207,144242,1,0,0:0:0:0:
207,144,144408,1,8,0:1:0:0:
181,256,144575,1,0,1:0:0:0:
181,256,144658,1,0,0:0:0:0:
181,256,144742,2,0,P|99:257|56:200,1,110.000003356934,0|2,0:0|1:1,0:0:0:0:
57,213,144992,1,2,0:1:0:0:
57,213,145075,1,10,0:1:0:0:
209,340,145242,1,2,0:1:0:0:
330,162,145408,6,0,L|186:181,1,110.000003356934,0|0,1:0|0:0,0:0:0:0:
512,221,145742,2,0,L|368:202,1,110.000003356934,8|0,0:1|0:0,0:0:0:0:
215,165,146075,6,0,L|359:146,1,110.000003356934,0|0,0:0|1:0,0:0:0:0:
33,106,146408,2,0,L|177:125,1,110.000003356934,8|0,0:1|1:0,0:0:0:0:
320,141,146742,5,0,0:0:0:0:
221,15,146908,2,0,L|217:87,1,55.0000016784668,2|0,1:2|0:2,0:0:0:0:
206,265,147075,2,0,P|257:279|342:228,1,110.000003356934,8|2,0:1|0:2,0:0:0:0:
419,212,147408,5,2,1:2:0:0:
143,226,147574,1,2,1:2:0:0:
390,142,147742,6,0,L|296:126,1,55.0000016784668,10|0,0:2|0:0,0:0:0:0:
158,134,147908,2,0,L|252:118,1,55.0000016784668,2|0,0:2|0:0,0:0:0:0:
368,62,148075,5,4,1:3:0:0:
239,171,148242,5,0,0:0:0:0:
212,124,148325,1,0,0:0:0:0:
218,70,148408,1,8,0:1:0:0:
278,294,148575,5,0,0:0:0:0:
295,263,148658,1,0,0:0:0:0:
291,228,148741,1,0,0:0:0:0:
218,381,148909,5,0,1:0:0:0:
191,334,148992,1,0,0:0:0:0:
197,280,149075,2,0,L|315:294,1,110.000003356934,8|0,0:1|0:0,0:0:0:0:
474,191,149408,5,0,1:0:0:0:
419,378,149575,1,0,0:0:0:0:
347,112,149742,1,8,0:1:0:0:
384,250,149909,1,0,1:0:0:0:
384,250,149992,1,0,0:0:0:0:
384,250,150075,2,0,P|342:229|245:212,1,110.000003356934,0|0,0:0|1:0,0:0:0:0:
244,211,150325,1,0,0:0:0:0:
244,211,150408,5,10,0:1:0:0:
263,47,150575,1,2,0:1:0:0:
171,292,150742,1,2,1:1:0:0:
152,147,150908,1,2,0:1:0:0:
0,241,151075,2,0,L|143:224,1,110.000003356934,10|0,0:1|0:0,0:0:0:0:
152,224,151325,1,2,0:1:0:0:
152,224,151408,5,2,0:1:0:0:
126,69,151575,1,2,1:1:0:0:
297,280,151742,1,10,0:1:0:0:
316,165,151909,1,2,1:1:0:0:
232,222,152075,5,2,0:1:0:0:
230,198,152158,1,0,0:0:0:0:
228,175,152242,2,0,L|223:98,1,55.0000016784668,2|0,1:2|0:0,0:0:0:0:
32,163,152408,5,8,0:1:0:0:
34,132,152491,1,0,0:0:0:0:
36,99,152575,2,0,L|41:22,1,55.0000016784668,2|0,0:2|0:0,0:0:0:0:
202,80,152742,5,2,1:2:0:0:
215,95,152825,1,0,0:0:0:0:
224,120,152908,1,2,1:2:0:0:
221,145,152992,1,0,0:0:0:0:
212,161,153075,5,10,0:2:0:0:
160,147,153158,1,8,0:1:0:0:
121,108,153241,1,10,0:2:0:0:
111,55,153325,1,8,0:1:0:0:
133,7,153408,6,0,B|188:-22|274:3|218:32|304:59|359:28,1,220.000006713867,4|8,1:0|0:1,0:0:0:0:
503,54,153908,1,0,0:0:0:0:
340,213,154075,6,0,B|314:159|332:93,1,110.000003356934,2|0,0:1|0:0,0:0:0:0:
340,36,154297,6,0,B|306:84|240:102,1,110.000003356934,2|0,0:1|0:0,0:0:0:0:
186,125,154520,6,0,B|244:129|293:177,1,110.000003356934,2|0,0:1|0:0,0:0:0:0:
271,243,154742,6,0,B|164:193|188:309|59:274,1,220.000006713867,4|8,1:3|0:1,0:0:0:0:
0,147,155242,1,0,1:0:0:0:
0,147,155325,1,0,0:0:0:0:
0,147,155408,2,0,L|136:160,1,110.000003356934,0|2,0:0|1:1,0:0:0:0:
152,160,155658,1,2,0:1:0:0:
152,160,155741,2,0,P|120:205|104:279,1,110.000003356934,10|2,0:1|0:1,0:0:0:0:
33,14,156075,6,0,L|49:152,1,110.000003356934,0|0,1:0|0:0,0:0:0:0:
355,123,156408,2,0,L|339:261,1,110.000003356934,8|0,0:1|0:0,0:0:0:0:
117,62,156742,6,0,L|133:200,1,110.000003356934,0|0,0:0|1:0,0:0:0:0:
276,154,157075,2,0,L|260:292,1,110.000003356934,8|0,0:1|1:0,0:0:0:0:
212,86,157408,5,4,0:3:0:0:
245,42,157491,1,0,0:0:0:0:
292,27,157574,1,2,1:2:0:0:
341,32,157658,1,0,0:0:0:0:
377,57,157742,1,8,0:1:0:0:
410,85,157825,1,0,0:0:0:0:
444,98,157908,1,2,0:2:0:0:
477,95,157992,1,0,0:0:0:0:
505,78,158075,5,2,1:2:0:0:
470,58,158158,1,0,0:0:0:0:
429,54,158241,1,2,1:2:0:0:
392,62,158325,1,0,0:0:0:0:
359,87,158408,1,10,0:2:0:0:
319,124,158491,1,2,0:1:0:0:
267,139,158574,1,2,0:2:0:0:
202,125,158658,1,2,0:1:0:0:
157,75,158741,5,4,1:0:0:0:
298,44,158908,1,0,0:0:0:0:
132,201,159075,1,8,0:1:0:0:
338,230,159242,2,0,B|349:161|266:140|221:206|244:279|293:323,1,220.000006713867,0|0,0:0|1:0,0:0:0:0:
119,91,159742,2,0,L|131:200,1,110.000003356934,8|0,0:1|0:0,0:0:0:0:
298,44,160075,6,0,P|239:17|165:24,1,110.000003356934,4|0,1:3|0:0,0:0:0:0:
423,168,160408,1,8,0:1:0:0:
277,261,160575,1,0,1:0:0:0:
277,261,160658,1,0,0:0:0:0:
277,261,160742,2,0,L|271:122,1,110.000003356934,0|2,0:0|1:1,0:0:0:0:
271,115,160992,1,2,0:1:0:0:
271,115,161075,2,0,P|335:115|400:79,1,110.000003356934,10|2,0:1|0:1,0:0:0:0:
159,18,161408,5,4,1:0:0:0:
182,195,161575,1,0,0:0:0:0:
182,195,161658,1,0,0:0:0:0:
182,195,161742,1,8,0:1:0:0:
54,132,161908,1,0,0:0:0:0:
31,309,162075,1,0,0:0:0:0:
31,309,162158,1,0,0:0:0:0:
31,309,162242,1,0,1:0:0:0:
251,257,162408,2,0,P|269:191|238:110,1,110.000003356934,8|0,0:1|1:0,0:0:0:0:
468,45,162742,6,0,L|377:55,1,59.9999981689454,14|0,0:3|0:0,0:0:0:0:
265,124,162908,5,0,1:0:0:0:
265,124,162992,2,0,L|324:130,1,59.9999981689454,8|0,0:1|0:0,0:0:0:0:
489,173,163158,5,0,1:0:0:0:
489,173,163242,2,0,L|429:179,1,59.9999981689454,8|0,0:1|0:0,0:0:0:0:
251,257,163408,6,0,L|342:267,1,59.9999981689454,8|0,0:1|0:0,0:0:0:0:
395,273,163575,1,8,0:1:0:0:
366,220,163658,1,8,0:1:0:0:
317,187,163741,1,8,1:0:0:0:
258,180,163825,1,8,0:1:0:0:
203,202,163908,1,8,0:1:0:0:
164,247,163991,1,8,0:1:0:0:
150,305,164075,1,4,1:0:0:0:
395,219,169408,5,12,1:0:0:0:
471,60,169742,1,8,1:0:0:0:
292,230,170075,5,8,1:0:0:0:
303,85,170408,1,8,1:0:0:0:
197,268,170742,5,12,1:0:0:0:
181,146,171075,1,8,1:0:0:0:
140,353,171408,5,8,1:0:0:0:
89,247,171742,1,8,1:0:0:0:
89,247,172075,5,12,1:0:0:0:
140,353,172242,1,8,1:0:0:0:
181,146,172408,5,8,1:0:0:0:
197,268,172575,1,8,1:0:0:0:
303,85,172742,5,8,1:0:0:0:
292,230,172908,1,8,1:0:0:0:
471,60,173075,5,8,1:0:0:0:
395,219,173242,1,8,1:0:0:0:
303,85,173408,5,12,1:0:0:0:
334,65,173491,1,8,0:1:0:0:
370,64,173574,1,8,0:1:0:0:
406,75,173658,1,8,0:1:0:0:
435,95,173741,1,8,0:1:0:0:
455,127,173824,1,8,0:1:0:0:
460,165,173908,1,8,0:1:0:0:
450,200,173991,1,8,0:1:0:0:
428,230,174074,1,8,0:1:0:0:
388,201,174158,1,8,0:1:0:0:
339,187,174241,1,8,0:1:0:0:
292,193,174325,1,8,0:1:0:0:
249,217,174408,1,8,0:1:0:0:
217,256,174491,1,8,0:1:0:0:
205,304,174575,1,8,0:1:0:0:
209,352,174658,1,8,0:1:0:0:
226,384,174742,6,0,L|329:380,2,89.9999972534181,0|0|0,1:0|1:0|3:0,0:0:0:0:
109,367,175242,1,0,1:0:0:0:
96,352,175325,2,0,L|107:281,1,44.999998626709,0|0,3:0|0:0,0:0:0:0:
76,196,175492,1,0,3:0:0:0:
91,209,175575,2,0,L|162:198,1,44.999998626709,0|0,1:0|0:0,0:0:0:0:
271,177,175742,2,0,P|277:221|267:264,1,89.9999972534181,0|0,3:0|3:0,0:0:0:0:
284,373,176075,5,2,1:0:0:0:
269,356,176158,1,0,0:0:0:0:
260,336,176241,1,0,0:0:0:0:
259,313,176325,1,0,0:0:0:0:
267,289,176408,1,2,0:1:0:0:
283,260,176491,1,0,0:0:0:0:
291,227,176574,1,0,0:0:0:0:
288,193,176658,1,0,0:0:0:0:
276,162,176742,1,2,0:1:0:0:
239,136,176825,1,0,0:0:0:0:
195,131,176908,1,0,0:0:0:0:
154,149,176992,1,0,0:0:0:0:
114,181,177075,5,10,0:1:0:0:
58,182,177158,1,8,0:1:0:0:
13,149,177241,1,8,0:1:0:0:
0,96,177325,1,8,0:1:0:0:
17,45,177408,6,0,B|59:16|129:29|87:58|158:72|200:43,1,179.999994506836,4|0,1:1|0:0,0:0:0:0:
243,17,177742,2,0,L|231:137,1,119.999996337891,8|0,0:1|0:0,0:0:0:0:
211,335,178075,1,0,0:0:0:0:
168,185,178242,1,0,1:0:0:0:
354,350,178408,1,8,0:1:0:0:
417,154,178575,1,0,0:0:0:0:
417,154,178658,1,0,0:0:0:0:
417,154,178742,6,0,B|357:143|357:143|307:171|307:171|215:155,1,179.999994506836,0|0,1:0|0:0,0:0:0:0:
231,137,179075,1,8,0:1:0:0:
359,0,179242,2,0,L|365:59,1,59.9999981689454,0|0,1:0|0:0,0:0:0:0:
439,246,179408,1,2,0:1:0:0:
482,215,179491,1,2,0:1:0:0:
501,166,179574,1,2,1:1:0:0:
492,113,179658,1,2,0:1:0:0:
454,76,179741,1,10,0:1:0:0:
384,240,179908,1,2,0:1:0:0:
160,159,180075,6,0,P|238:152|310:155,1,119.999996337891,0|0,1:0|0:0,0:0:0:0:
330,155,180325,1,0,0:0:0:0:
330,155,180408,1,8,0:1:0:0:
181,47,180575,1,0,0:0:0:0:
30,259,180742,2,0,P|104:282|151:147,1,239.999992675781,0|8,0:0|0:1,0:0:0:0:
0,186,181242,1,0,1:0:0:0:
279,152,181408,5,0,0:0:0:0:
71,96,181575,1,0,1:0:0:0:
71,96,181658,1,0,0:0:0:0:
71,96,181742,1,8,0:1:0:0:
123,311,181908,1,0,0:0:0:0:
332,267,182075,2,0,P|283:241|198:240,1,119.999996337891,0|2,1:0|1:1,0:0:0:0:
179,242,182325,1,2,0:1:0:0:
179,242,182408,1,10,0:1:0:0:
390,92,182575,1,2,0:1:0:0:
384,139,182658,1,2,0:1:0:0:
379,185,182742,6,0,P|311:165|311:57,1,179.999994506836,4|0,1:3|0:0,0:0:0:0:
326,49,183075,2,0,L|474:65,1,119.999996337891,8|0,0:1|0:0,0:0:0:0:
249,276,183408,6,0,L|369:264,1,119.999996337891,0|0,0:0|1:0,0:0:0:0:
174,118,183742,2,0,L|322:134,1,119.999996337891,8|0,0:1|0:0,0:0:0:0:
168,385,184075,6,0,L|288:373,1,119.999996337891,0|0,1:0|0:0,0:0:0:0:
134,190,184408,2,0,L|15:178,1,119.999996337891,8|0,0:1|1:0,0:0:0:0:
428,321,184742,6,0,B|447:264|447:264|432:206,1,119.999996337891,0|2,0:0|0:1,0:0:0:0:
419,168,184992,1,2,0:1:0:0:
419,168,185075,1,10,0:1:0:0:
174,286,185242,1,2,0:1:0:0:
260,106,185408,6,0,L|277:323,1,179.999994506836,0|0,1:0|0:0,0:0:0:0:
278,324,185742,1,8,0:1:0:0:
137,152,185908,1,0,0:0:0:0:
137,152,185992,1,0,0:0:0:0:
137,152,186075,1,0,0:0:0:0:
59,361,186242,1,0,1:0:0:0:
328,238,186408,2,0,P|293:216|175:228,1,119.999996337891,8|0,0:1|1:0,0:0:0:0:
37,265,186742,1,0,0:0:0:0:
321,107,186908,5,0,1:0:0:0:
209,285,187075,1,8,0:1:0:0:
196,73,187242,5,0,0:0:0:0:
328,238,187408,1,0,1:0:0:0:
125,183,187575,6,0,L|204:174,1,59.9999981689454,2|0,1:0|0:0,0:0:0:0:
370,161,187742,1,10,0:1:0:0:
311,153,187825,1,2,0:1:0:0:
260,183,187908,1,2,0:1:0:0:
239,238,187992,1,2,0:1:0:0:
257,294,188075,6,0,B|299:266|370:281|327:309|398:324|441:296,1,179.999994506836,6|0,1:3|0:0,0:0:0:0:
470,316,188408,2,0,B|492:261|492:261|466:154,1,119.999996337891,8|0,0:1|0:0,0:0:0:0:
424,38,188742,1,0,0:0:0:0:
328,238,188908,1,0,1:0:0:0:
183,41,189075,1,8,0:1:0:0:
376,139,189241,1,0,0:0:0:0:
376,139,189325,1,0,0:0:0:0:
376,139,189408,6,0,P|270:138|229:240,1,179.999994506836,0|0,1:0|0:0,0:0:0:0:
225,234,189742,1,8,0:1:0:0:
80,131,189908,2,0,L|92:220,1,59.9999981689454,0|0,1:0|0:0,0:0:0:0:
117,358,190075,1,2,0:1:0:0:
72,331,190158,1,2,0:1:0:0:
48,284,190242,1,2,1:1:0:0:
53,232,190325,1,2,0:1:0:0:
88,190,190408,1,10,0:1:0:0:
10,384,190575,1,2,0:1:0:0:
289,298,190742,6,0,P|246:282|151:272,1,119.999996337891,0|0,1:0|0:0,0:0:0:0:
137,273,190992,1,0,0:0:0:0:
137,273,191075,1,8,0:1:0:0:
301,172,191242,1,0,0:0:0:0:
163,37,191408,2,0,L|150:166,1,119.999996337891,0|0,0:0|1:0,0:0:0:0:
453,104,191742,1,8,0:1:0:0:
297,52,191908,1,0,1:0:0:0:
297,52,191992,1,0,0:0:0:0:
297,52,192075,6,0,L|304:131,1,59.9999981689454,0|0,0:0|0:0,0:0:0:0:
318,269,192242,2,0,L|324:329,1,59.9999981689454,0|0,1:0|0:0,0:0:0:0:
176,155,192408,6,0,L|169:234,1,59.9999981689454,8|0,0:1|0:0,0:0:0:0:
163,322,192575,2,0,L|158:382,1,59.9999981689454,0|0,0:0|0:0,0:0:0:0:
407,203,192742,6,0,P|353:188|263:194,1,119.999996337891,0|2,1:0|1:1,0:0:0:0:
259,198,192992,1,2,0:1:0:0:
259,198,193075,2,0,L|249:63,1,119.999996337891,10|2,0:1|0:1,0:0:0:0:
163,322,193408,5,4,1:3:0:0:
371,293,193575,1,0,0:0:0:0:
134,114,193742,1,8,0:1:0:0:
342,85,193908,1,0,0:0:0:0:
149,220,194075,2,0,P|70:219|19:180,1,119.999996337891,0|0,0:0|1:0,0:0:0:0:
342,85,194408,5,8,0:1:0:0:
134,114,194575,1,0,0:0:0:0:
371,293,194742,1,0,1:0:0:0:
163,322,194908,1,0,0:0:0:0:
356,187,195075,2,0,P|435:188|486:227,1,119.999996337891,8|0,0:1|1:0,0:0:0:0:
163,322,195408,5,0,0:0:0:0:
371,293,195575,2,0,L|303:240,1,59.9999981689454,2|2,1:1|0:1,0:0:0:0:
134,114,195742,1,10,0:1:0:0:
342,85,195908,1,2,0:1:0:0:
98,218,196075,5,4,1:0:0:0:
281,382,196242,1,0,0:0:0:0:
354,73,196408,1,8,0:1:0:0:
217,211,196575,2,0,B|180:251|86:265|84:169|158:197,1,179.999994506836,0|0,0:0|0:0,0:0:0:0:
219,176,196908,2,0,P|236:219|232:249,1,59.9999981689454,0|0,1:0|0:0,0:0:0:0:
183,384,197075,2,0,L|167:246,1,119.999996337891,8|0,0:0|1:0,0:0:0:0:
66,40,197408,6,0,L|156:56,1,55.0000016784668,12|0,0:1|0:0,0:0:0:0:
305,144,197575,5,0,1:0:0:0:
289,146,197658,2,0,L|199:162,1,55.0000016784668,8|0,0:1|0:0,0:0:0:0:
76,181,197825,5,0,1:0:0:0:
98,185,197908,2,0,L|188:201,1,55.0000016784668,8|0,0:1|0:0,0:0:0:0:
274,17,198075,6,0,L|266:96,1,55.0000016784668,8|0,0:1|0:0,0:0:0:0:
257,231,198242,1,8,0:1:0:0:
300,261,198325,1,8,0:1:0:0:
355,264,198408,1,8,1:0:0:0:
403,238,198492,1,8,0:1:0:0:
429,191,198575,1,8,0:1:0:0:
429,137,198658,1,8,0:1:0:0:
398,92,198742,6,0,B|353:107|350:164|350:164|441:190|479:107,1,239.999992675781,4|8,1:0|0:1,0:0:0:0:
183,122,199242,2,0,B|193:196,1,59.9999981689454,0|0,0:0|0:0,0:0:0:0:
250,354,199408,5,0,0:0:0:0:
302,357,199492,1,0,0:0:0:0:
339,332,199575,1,0,1:0:0:0:
355,294,199658,1,0,0:0:0:0:
355,264,199742,1,8,0:1:0:0:
343,241,199825,1,0,0:0:0:0:
313,215,199908,1,0,0:0:0:0:
294,172,199992,1,0,0:0:0:0:
302,128,200075,1,0,1:0:0:0:
512,0,200242,5,0,0:0:0:0:
508,40,200325,1,0,0:0:0:0:
503,77,200408,1,8,0:1:0:0:
256,18,200575,5,0,1:0:0:0:
256,18,200658,1,0,0:0:0:0:
256,18,200742,2,0,L|391:31,1,119.999996337891,0|2,0:0|1:1,0:0:0:0:
113,230,201075,2,0,L|232:218,1,119.999996337891,10|2,0:1|0:1,0:0:0:0:
25,54,201408,5,0,1:0:0:0:
323,106,201575,1,0,0:0:0:0:
323,106,201658,1,0,0:0:0:0:
323,106,201742,1,8,0:1:0:0:
139,322,201908,5,0,0:0:0:0:
424,276,202075,1,0,0:0:0:0:
424,276,202158,1,0,0:0:0:0:
424,276,202242,1,0,1:0:0:0:
256,18,202408,6,0,P|220:64|233:151,1,119.999996337891,8|0,0:1|1:0,0:0:0:0:
488,210,202742,5,0,0:0:0:0:
448,182,202825,1,0,0:0:0:0:
401,178,202909,1,0,1:0:0:0:
359,201,202992,1,0,0:0:0:0:
333,242,203075,1,8,0:1:0:0:
77,255,203242,5,0,0:0:0:0:
131,233,203325,1,0,0:0:0:0:
188,248,203409,1,0,1:0:0:0:
224,294,203492,1,0,0:0:0:0:
221,352,203575,1,0,1:0:0:0:
264,132,203742,5,10,0:1:0:0:
248,177,203825,1,2,0:1:0:0:
260,225,203908,2,0,P|267:185|253:149,1,59.9999981689454,2|2,0:1|0:1,0:0:0:0:
178,73,204075,1,4,1:3:0:0:
77,255,204242,6,0,L|72:302,2,39.9999987792969,2|2|2,0:1|0:1|0:1,0:0:0:0:
82,211,204409,1,10,0:1:0:0:
264,132,204575,6,0,L|304:129,2,39.9999987792969,2|2|2,0:1|0:1|0:1,0:0:0:0:
221,132,204742,2,0,P|195:73|213:5,1,119.999996337891,2|0,0:1|1:0,0:0:0:0:
445,219,205075,2,0,L|459:97,1,119.999996337891,8|0,0:1|0:0,0:0:0:0:
368,377,205408,5,0,1:0:0:0:
251,274,205575,1,0,0:0:0:0:
270,244,205658,1,0,0:0:0:0:
307,244,205742,1,8,0:1:0:0:
299,294,205825,1,0,0:0:0:0:
263,332,205908,1,0,1:0:0:0:
212,339,205992,1,0,0:0:0:0:
167,317,206075,2,0,L|182:172,1,119.999996337891,0|2,0:0|1:1,0:0:0:0:
188,153,206325,1,2,0:1:0:0:
188,153,206408,2,0,P|252:173|320:144,1,119.999996337891,10|2,0:1|0:1,0:0:0:0:
499,30,206742,5,0,1:0:0:0:
458,207,206908,1,0,0:0:0:0:
265,70,207075,1,8,0:1:0:0:
299,294,207242,2,0,B|338:303|372:265|372:265|303:175|219:261,1,239.999992675781,0|0,0:0|1:0,0:0:0:0:
23,105,207742,2,0,L|36:257,1,119.999996337891,8|0,0:1|1:0,0:0:0:0:
54,384,208075,5,0,0:0:0:0:
95,382,208158,1,0,0:0:0:0:
128,358,208241,1,0,1:0:0:0:
144,320,208325,1,0,0:0:0:0:
137,279,208408,2,0,L|118:211,1,59.9999981689454,8|0,0:1|0:0,0:0:0:0:
235,117,208575,2,0,L|216:185,1,59.9999981689454,0|0,0:0|0:0,0:0:0:0:
147,114,208742,5,0,1:0:0:0:
159,62,208825,1,0,0:0:0:0:
199,27,208908,1,0,1:0:0:0:
252,21,208992,1,0,0:0:0:0:
299,46,209075,5,8,0:1:0:0:
347,80,209158,1,8,0:1:0:0:
406,86,209241,1,8,0:1:0:0:
460,62,209325,1,8,0:1:0:0:
494,14,209408,6,0,L|483:93,1,59.9999981689454,6|0,1:3|0:0,0:0:0:0:
399,247,209575,2,0,L|389:181,1,59.9999981689454,0|0,0:0|0:0,0:0:0:0:
362,7,209742,1,8,0:1:0:0:
403,268,209908,1,0,0:0:0:0:
218,174,210075,2,0,B|151:146|151:146|121:147|74:193,1,119.999996337891,0|0,0:0|1:0,0:0:0:0:
13,378,210408,6,0,L|91:364,1,59.9999981689454,8|0,0:1|0:0,0:0:0:0:
246,306,210575,2,0,L|186:295,1,59.9999981689454,0|0,0:0|0:0,0:0:0:0:
15,257,210742,1,0,1:0:0:0:
270,311,210908,1,0,0:0:0:0:
108,165,211075,2,0,B|85:166|67:189|67:189|52:260,1,119.999996337891,8|2,0:1|1:1,0:0:0:0:
55,309,211325,1,2,0:1:0:0:
55,309,211408,5,2,0:1:0:0:
33,79,211575,1,2,1:1:0:0:
181,369,211742,1,10,0:1:0:0:
218,174,211908,1,2,0:1:0:0:
367,324,212075,6,0,P|308:287|246:285,1,119.999996337891,0|0,1:0|0:0,0:0:0:0:
219,289,212325,1,0,0:0:0:0:
190,305,212408,2,0,B|162:253|162:253|181:184,1,119.999996337891,8|0,0:1|0:0,0:0:0:0:
194,158,212658,1,0,0:0:0:0:
226,145,212742,2,0,L|371:163,1,119.999996337891,0|0,0:0|1:0,0:0:0:0:
383,167,212992,1,0,0:0:0:0:
415,173,213075,2,0,B|445:152|447:125|447:125|425:44,1,119.999996337891,8|0,0:1|1:0,0:0:0:0:
191,46,213408,5,0,0:0:0:0:
216,63,213491,1,0,0:0:0:0:
244,73,213575,1,0,1:0:0:0:
274,73,213658,1,0,0:0:0:0:
302,65,213741,5,8,0:1:0:0:
275,87,213825,1,0,0:0:0:0:
242,101,213908,1,0,0:0:0:0:
206,104,213992,1,0,0:0:0:0:
171,97,214075,5,0,1:0:0:0:
203,123,214158,1,0,0:0:0:0:
243,140,214241,1,0,1:0:0:0:
286,143,214325,1,0,0:0:0:0:
328,135,214408,5,8,0:1:0:0:
285,177,214491,1,8,0:1:0:0:
230,199,214574,1,8,0:1:0:0:
170,197,214658,1,8,0:1:0:0:
116,173,214742,6,0,L|123:46,1,119.999996337891,14|0,1:3|0:0,0:0:0:0:
127,16,214992,1,0,0:0:0:0:
127,16,215075,2,0,P|203:5|269:38,1,119.999996337891,8|0,1:0|0:0,0:0:0:0:
411,240,215408,5,8,1:0:0:0:
434,39,215575,1,0,0:0:0:0:
306,269,215742,5,8,1:0:0:0:
287,21,215909,1,0,0:0:0:0:
141,228,216075,6,0,P|190:194|249:195,1,119.999996337891,12|0,1:0|0:0,0:0:0:0:
277,216,216325,1,0,0:0:0:0:
277,216,216408,2,0,L|262:354,1,119.999996337891,8|0,1:0|0:0,0:0:0:0:
206,103,216742,5,8,1:0:0:0:
167,359,216908,1,0,0:0:0:0:
0,148,217075,2,0,L|161:162,1,119.999996337891,8|0,1:0|0:0,0:0:0:0:
360,173,217408,5,12,1:0:0:0:
275,9,217575,1,8,1:0:0:0:
264,283,217742,5,8,1:0:0:0:
216,75,217908,1,8,1:0:0:0:
132,326,218075,5,8,1:0:0:0:
131,110,218242,1,8,1:0:0:0:
0,327,218408,5,8,1:0:0:0:
44,112,218575,1,8,1:0:0:0:
264,283,218742,6,0,P|284:229|246:161,1,100,12|0,1:0|1:0,0:0:0:0:
131,110,219075,2,0,L|137:209,1,100,0|0,3:0|1:2,0:0:0:0:
128,253,219325,1,0,3:2:0:0:
128,253,219408,2,0,L|204:246,1,50,0|0,1:2|3:2,0:0:0:0:
224,185,219575,2,0,L|300:192,1,50,0|0,1:0|0:0,0:0:0:0:
366,280,219742,2,0,P|381:220|257:212,1,200,0|4,3:0|1:2,0:0:0:0:
256,192,220158,12,0,222408,0:0:0:0:
308,218,222742,6,0,P|234:244|202:161,1,160,0|0,1:0|0:0,0:0:0:0:
264,60,223242,1,0,1:2:0:0:
234,55,223325,1,0,1:2:0:0:
200,50,223408,1,8,0:2:0:0:
330,41,223575,1,0,0:2:0:0:
160,120,223742,2,0,P|131:149|127:211,1,80,0|0,1:2|0:2,0:0:0:0:
116,50,224075,5,0,0:2:0:0:
195,185,224242,1,0,1:2:0:0:
305,138,224408,1,0,0:2:0:0:
271,262,224575,1,0,0:2:0:0:
362,210,224742,2,0,P|407:197|450:195,1,80,8|0,0:2|0:0,0:0:0:0:
455,279,225075,2,0,P|410:292|367:294,1,80,0|0,0:0|0:2,0:0:0:0:
158,262,225408,5,0,1:2:0:0:
198,364,225575,1,0,0:2:0:0:
275,282,225742,1,0,0:2:0:0:
66,224,225908,5,0,1:2:0:0:
84,332,226075,1,8,0:2:0:0:
176,267,226242,1,0,0:2:0:0:
53,120,226408,6,0,P|42:158|35:197,1,80,0|0,1:2|0:2,0:0:0:0:
47,322,226742,1,0,0:2:0:0:
181,191,226908,6,0,B|217:186|217:186|273:209,1,80,0|0,1:2|0:2,0:0:0:0:
348,262,227242,1,0,0:2:0:0:
249,324,227408,5,8,0:2:0:0:
359,261,227575,1,0,0:2:0:0:
180,220,227742,1,0,1:2:0:0:
346,126,227908,1,0,0:2:0:0:
168,80,228075,6,0,P|96:107|81:183,1,160,0|0,1:2|0:0,0:0:0:0:
102,276,228575,1,0,1:0:0:0:
204,224,228742,2,0,B|239:215|239:215|280:230,1,80,8|0,3:2|0:0,0:0:0:0:
297,348,229075,2,0,B|335:354|335:354|374:343,1,80,0|0,1:0|0:0,0:0:0:0:
464,204,229408,5,0,1:2:0:0:
363,268,229575,1,0,1:0:0:0:
306,144,229742,2,0,L|477:174,1,160,0|8,1:0|0:2,0:0:0:0:
463,171,230408,6,0,L|447:73,1,75.0000028610231,8|0,0:2|0:0,0:0:0:0:
450,96,230742,6,0,L|379:76,2,59.9999981689454,4|0|0,1:2|0:0|0:0,0:0:0:0:
337,172,231075,2,0,L|266:192,2,59.9999981689454,0|0|0,1:2|0:0|0:0,0:0:0:0:
213,114,231408,2,0,L|155:97,2,59.9999981689454,0|0|0,1:2|0:0|0:0,0:0:0:0:
107,191,231741,2,0,L|49:207,2,59.9999981689454,0|0|0,1:2|0:0|0:0,0:0:0:0:
0,45,232075,5,0,1:2:0:0:
67,64,232186,2,0,P|76:96|75:136,1,59.9999981689454,0|0,0:0|0:0,0:0:0:0:
227,10,232408,1,0,1:2:0:0:
164,39,232519,2,0,P|154:71|156:111,1,59.9999981689454,0|0,0:0|0:0,0:0:0:0:
246,164,232742,5,0,1:2:0:0:
315,186,232853,2,0,B|322:155|322:155|313:104,1,59.9999981689454,0|0,0:0|0:0,0:0:0:0:
474,66,233075,1,0,1:2:0:0:
413,21,233186,2,0,B|399:49|399:49|398:78,1,59.9999981689454,0|0,0:0|0:0,0:0:0:0:
432,203,233408,5,0,1:2:0:0:
446,228,233520,1,0,0:0:0:0:
475,235,233631,1,0,0:0:0:0:
500,220,233742,1,0,1:2:0:0:
457,191,233853,1,0,0:0:0:0:
399,200,233964,1,0,0:0:0:0:
329,235,234075,5,0,1:2:0:0:
255,200,234186,2,0,L|260:102,1,59.9999981689454,0|0,0:0|0:0,0:0:0:0:
170,59,234408,1,0,1:2:0:0:
99,109,234519,2,0,L|104:207,1,59.9999981689454
98,323,234742,5,0,1:2:0:0:
191,283,234853,2,0,P|263:284|283:294,1,66.6666666666667,0|0,0:0|0:0,0:0:0:0:
358,132,235075,1,0,1:2:0:0:
255,200,235186,2,0,P|183:199|163:189,1,66.6666666666667,0|0,0:0|0:0,0:0:0:0:
317,73,235408,5,0,1:2:0:0:
366,59,235520,1,0,0:0:0:0:
401,73,235631,1,0,0:0:0:0:
412,93,235742,2,0,L|400:152,2,59.9999981689454,0|0|0,1:2|0:0|0:0,0:0:0:0:
424,56,236075,5,4,1:1:0:0:
184,22,236242,1,2,1:1:0:0:
184,22,236325,1,2,0:1:0:0:
184,22,236408,5,10,1:1:0:0:
209,197,236575,1,2,1:1:0:0:
278,84,236742,5,8,1:0:0:0:
197,280,236908,1,0,1:0:0:0:
90,143,237075,5,8,1:0:0:0:
183,357,237242,1,0,1:0:0:0:
261,107,237408,5,8,1:0:0:0:
101,230,237575,2,0,L|183:219,1,55.0000016784668,2|2,1:0|0:1,0:0:0:0:
362,186,237742,5,10,1:1:0:0:
71,235,237908,1,2,1:1:0:0:
411,291,238075,5,8,1:0:0:0:
47,238,238242,1,0,1:0:0:0:
364,381,238408,6,0,B|424:354|408:278,1,110.000003356934,8|0,1:0|1:0,0:0:0:0:
166,103,238742,6,0,L|264:120,1,55.0000016784668,4|8,1:0|1:0,0:0:0:0:
378,212,238908,2,0,L|476:195,1,55.0000016784668,8|8,1:0|1:0,0:0:0:0:
408,90,239075,6,0,L|353:80,1,55.0000016784668,8|8,1:0|1:0,0:0:0:0:
172,228,239241,2,0,L|119:245,1,55.0000016784668,8|8,1:0|1:0,0:0:0:0:
175,28,239408,5,8,1:0:0:0:
226,47,239491,1,8,1:0:0:0:
252,95,239574,1,8,1:0:0:0:
246,148,239658,1,8,1:0:0:0:
208,190,239742,1,8,1:0:0:0:
172,228,239825,1,8,1:0:0:0:
164,282,239909,1,8,1:0:0:0:
191,330,239992,1,8,1:0:0:0:
243,339,240075,6,0,P|246:292|230:251,1,64.9999970245363,0|0,1:0|0:0,0:0:0:0:
84,230,240408,2,0,P|80:262|87:292,1,64.9999970245363,0|0,0:0|0:0,0:0:0:0:
208,190,240742,5,0,0:0:0:0:
231,164,240825,1,0,0:0:0:0:
267,153,240908,1,0,1:0:0:0:
304,160,240992,1,0,0:0:0:0:
335,181,241075,1,8,0:2:0:0:
366,213,241158,1,0,0:0:0:0:
415,228,241241,1,0,0:0:0:0:
467,208,241325,1,0,0:0:0:0:
498,157,241408,6,0,B|412:96|267:122|353:181|221:219|136:157,1,385.000011749268,4|0,1:0|0:0,0:0:0:0:
98,89,242075,2,0,L|217:76,1,110.000003356934,8|0,0:1|0:0,0:0:0:0:
282,256,242408,2,0,L|104:266,1,165.000005035401,0|0,1:0|0:0,0:0:0:0:
94,195,242742,6,0,P|274:147|426:255,1,385.000011749268,4|0,0:3|0:0,0:0:0:0:
435,323,243408,2,0,B|423:223|423:223|471:157|471:157|454:20,1,314.999990386963,8|0,0:1|0:0,0:0:0:0:
429,8,244075,6,0,B|463:8|479:53|479:53|438:98|363:69,1,179.999994506836,0|0,1:0|0:0,0:0:0:0:
226,62,244408,2,0,B|235:16|286:0|286:0|332:60|289:128,1,179.999994506836,0|0,0:0|0:0,0:0:0:0:
301,163,244742,2,0,L|98:127,1,179.999994506836,8|0,0:1|0:0,0:0:0:0:
52,231,245075,2,0,B|17:230|-6:197|-6:197|43:141|115:154,1,179.999994506836,0|0,1:0|0:0,0:0:0:0:
145,212,245408,6,0,B|246:238|211:286|300:317,1,179.999994506836,4|0,0:3|0:0,0:0:0:0:
377,283,245742,2,0,L|398:139,1,119.999996337891,0|0,1:0|0:0,0:0:0:0:
135,89,246075,2,0,B|241:50|241:50|218:174|218:174|299:187|329:287|261:350,1,419.999987182618,8|0,0:1|0:0,0:0:0:0:
219,344,246742,6,0,P|158:307|168:210,1,165.000005035401,0|0,1:0|0:0,0:0:0:0:
219,174,247075,2,0,L|288:178,1,55.0000016784668,0|0,0:0|0:0,0:0:0:0:
417,232,247242,2,0,L|363:236,1,55.0000016784668,0|0,0:0|0:0,0:0:0:0:
313,291,247408,2,0,L|295:97,1,165.000005035401,8|0,0:1|0:0,0:0:0:0:
242,35,247742,6,0,P|267:27|320:32,1,55.0000016784668,0|0,1:0|0:0,0:0:0:0:
358,73,247908,2,0,P|384:81|411:81,1,55.0000016784668,0|0,0:0|0:0,0:0:0:0:
499,23,248075,6,0,B|451:93|451:93|484:199,1,165.000005035401,4|0,0:3|0:0,0:0:0:0:
508,262,248408,2,0,B|472:229|414:243|414:243|308:276,1,165.000005035401,0|0,0:0|0:0,0:0:0:0:
267,307,248742,2,0,B|245:204|290:243|274:144,1,165.000005035401,8|0,0:1|0:0,0:0:0:0:
246,66,249075,2,0,B|264:123|264:123|143:104,1,165.000005035401,0|0,0:0|0:0,0:0:0:0:
59,62,249408,6,0,B|148:34|148:34|126:201|126:201|0:172,1,385.000011749268,0|0,1:0|0:0,0:0:0:0:
0,151,250075,6,0,B|79:144|79:144|88:151|88:151|168:144,1,170.000003242493,10|0,1:0|0:0,0:0:0:0:
292,196,250297,6,0,B|213:202|213:202|206:211|206:211|126:218,1,170.000003242493,8|0,0:1|0:0,0:0:0:0:
36,291,250520,6,0,B|106:287|106:287|111:291|111:291|218:282,1,170.000003242493,8|0,0:1|0:0,0:0:0:0:
309,278,250742,6,0,B|209:347|209:347|157:332|145:266,1,209.999993591309,4|0,1:0|0:0,0:0:0:0:
126,218,251075,2,0,P|168:219|223:238,1,69.9999978637696,8|0,0:1|0:0,0:0:0:0:
394,339,251242,6,0,B|441:227|441:227|416:179|349:181,1,209.999993591309,4|0,1:0|0:0,0:0:0:0:
292,196,251575,2,0,L|304:283,1,69.9999978637696,8|0,0:1|0:0,0:0:0:0:
201,381,251742,6,0,L|217:148,1,209.999993591309,4|0,1:0|0:0,0:0:0:0:
222,100,252075,5,4,1:0:0:0:
105,174,252242,1,0,0:0:0:0:
293,127,252408,2,0,P|347:126|402:135,1,110.000003356934,0|0,0:0|0:0,0:0:0:0:
198,1,252742,2,0,B|188:62|188:62|202:109|202:109|193:179,1,179.999994506836,8|0,0:1|0:0,0:0:0:0:
183,216,253075,5,0,1:0:0:0:
279,57,253242,1,0,0:0:0:0:
94,185,253408,2,0,P|80:116|92:67,1,110.000003356934,4|0,0:3|0:0,0:0:0:0:
309,41,253742,2,0,B|199:11|249:62|119:21,1,165.000005035401,0|0,0:0|0:0,0:0:0:0:
114,12,254075,5,8,0:1:0:0:
163,123,254242,1,0,0:0:0:0:
302,24,254408,5,0,0:0:0:0:
234,230,254575,1,0,0:0:0:0:
446,149,254742,6,0,B|393:112|393:112|325:175|387:262,1,220.000006713867,0|0,1:0|0:0,0:0:0:0:
163,123,255242,2,0,L|271:107,2,110.000003356934,0|8|0,0:0|0:0|0:0,0:0:0:0:
57,319,255742,2,0,B|110:356|110:356|178:293|116:206,1,220.000006713867,0|4,1:0|0:3,0:0:0:0:
34,141,256242,5,0,0:0:0:0:
163,123,256408,1,0,1:0:0:0:
16,121,256575,1,0,0:0:0:0:
247,207,256742,2,0,B|264:154|264:154|240:74,1,110.000003356934,8|0,0:0|0:0,0:0:0:0:
55,213,257075,2,0,B|39:265|39:265|56:318,1,110.000003356934,0|0,0:0|0:0,0:0:0:0:
316,269,257408,6,0,P|266:292|212:294,1,110.000003356934,4|0,1:0|0:0,0:0:0:0:
163,123,257742,2,0,P|212:99|266:97,1,110.000003356934,0|0,0:0|0:0,0:0:0:0:
458,284,258075,6,0,L|474:177,1,100,8|0,0:1|0:0,0:0:0:0:
371,59,258408,2,0,L|387:166,1,100,0|0,1:0|0:0,0:0:0:0:
316,269,258742,6,0,B|304:219|304:219|315:167,1,89.9999972534181,4|0,0:3|0:0,0:0:0:0:
476,97,259075,2,0,B|483:134|483:134|471:184,1,89.9999972534181,0|0,0:0|0:0,0:0:0:0:
437,360,259408,6,0,B|458:303|423:224|401:281|366:202|388:145,1,220.000006713867,8|0,0:1|0:0,0:0:0:0:
385,157,260075,5,4,1:0:0:0:
274,100,260242,1,0,0:0:0:0:
328,267,260408,1,0,0:0:0:0:
218,211,260575,1,0,0:0:0:0:
385,157,260742,2,0,L|502:172,1,110.000003356934,8|0,0:1|0:0,0:0:0:0:
274,100,261075,6,0,B|256:84|256:84|231:80|231:80|179:48|122:68|84:126,1,179.999994506836,0|0,1:0|0:0,0:0:0:0:
83,126,261408,6,0,L|94:236,2,100,4|0|0,1:0|1:0|3:0,0:0:0:0:
167,26,261908,1,0,1:0:0:0:
167,26,261992,2,0,L|245:16,1,50,0|0,3:0|0:0,0:0:0:0:
325,107,262158,1,0,3:0:0:0:
325,107,262242,2,0,L|228:94,1,50,0|0,1:0|0:0,0:0:0:0:
203,246,262408,5,8,0:2:0:0:
263,253,262491,1,8,0:0:0:0:
317,223,262574,1,8,0:0:0:0:
340,166,262657,1,8,0:0:0:0:
325,107,262742,6,0,L|463:90,1,119.999996337891,4|0,1:0|0:0,0:0:0:0:
159,168,263075,2,0,L|101:164,2,39.9999987792969,8|0|0,0:1|0:0|0:0,0:0:0:0:
195,171,263242,1,0,0:0:0:0:
425,226,263408,5,0,0:0:0:0:
400,275,263491,1,0,0:0:0:0:
353,299,263574,1,0,1:0:0:0:
301,291,263657,1,0,0:0:0:0:
263,253,263742,2,0,L|279:110,1,119.999996337891,8|0,0:1|0:0,0:0:0:0:
151,35,264075,5,0,1:0:0:0:
182,41,264158,2,0,L|258:53,1,59.9999981689454,0|0,0:0|0:0,0:0:0:0:
276,133,264325,5,0,0:0:0:0:
237,140,264408,2,0,L|161:152,1,59.9999981689454,8|0,0:1|0:0,0:0:0:0:
14,232,264575,5,0,1:0:0:0:
7,173,264658,1,0,0:0:0:0:
0,113,264742,2,0,P|61:90|135:125,1,119.999996337891,0|0,0:0|1:0,0:0:0:0:
106,134,264964,6,0,L|99:184,1,39.9999987792969,0|0,0:0|0:0,0:0:0:0:
94,198,265075,2,0,L|237:176,1,119.999996337891,8|0,0:1|0:0,0:0:0:0:
421,144,265408,5,0,1:0:0:0:
328,188,265575,5,0,0:0:0:0:
311,145,265658,1,0,0:0:0:0:
331,104,265741,1,8,0:1:0:0:
417,341,265908,5,0,0:0:0:0:
435,298,265991,1,0,0:0:0:0:
414,257,266074,1,0,0:0:0:0:
256,322,266242,5,0,1:0:0:0:
421,144,266408,2,0,B|437:206|437:206|411:263,1,119.999996337891,8|2,0:1|1:1,0:0:0:0:
244,335,266742,5,0,0:0:0:0:
276,180,266908,1,2,1:1:0:0:
142,375,267075,1,8,0:1:0:0:
128,154,267241,1,0,0:0:0:0:
128,154,267325,1,0,0:0:0:0:
128,154,267408,2,0,P|42:174|-6:165,1,119.999996337891,2|2,1:0|1:0,0:0:0:0:
189,187,267742,1,10,0:1:0:0:
198,137,267825,1,2,0:1:0:0:
174,93,267908,1,2,0:1:0:0:
126,73,267991,1,2,0:1:0:0:
78,87,268075,6,0,L|97:225,1,119.999996337891,0|0,1:0|0:0,0:0:0:0:
350,384,268408,2,0,L|366:265,1,119.999996337891,8|0,0:1|0:0,0:0:0:0:
377,228,268658,1,0,0:0:0:0:
377,228,268742,1,0,0:0:0:0:
230,249,268908,1,0,1:0:0:0:
420,125,269075,1,8,0:1:0:0:
174,93,269242,1,0,0:0:0:0:
377,228,269408,6,0,P|394:166|381:88,1,119.999996337891,0|0,1:0|0:0,0:0:0:0:
180,339,269742,1,8,0:1:0:0:
76,187,269908,1,0,1:0:0:0:
76,187,269992,1,0,0:0:0:0:
76,187,270075,2,0,L|210:178,1,119.999996337891,0|0,0:0|1:0,0:0:0:0:
247,177,270325,1,0,0:0:0:0:
247,177,270408,2,0,B|264:234|264:234|242:302,1,119.999996337891,8|0,0:1|0:0,0:0:0:0:
484,335,270742,5,2,1:1:0:0:
494,288,270825,1,2,0:1:0:0:
479,244,270908,1,2,0:1:0:0:
445,210,270991,1,2,0:1:0:0:
399,198,271075,1,10,0:1:0:0:
245,291,271242,5,2,0:1:0:0:
280,322,271325,1,2,0:1:0:0:
326,332,271408,1,2,0:1:0:0:
373,319,271491,1,2,0:1:0:0:
406,285,271575,1,2,1:1:0:0:
401,110,271742,5,10,0:1:0:0:
357,124,271825,1,2,0:1:0:0:
325,159,271908,1,2,1:1:0:0:
313,206,271991,1,2,0:1:0:0:
326,252,272075,1,2,0:1:0:0:
484,335,272242,6,0,L|407:318,1,59.9999981689454,2|2,1:1|0:1,0:0:0:0:
245,291,272408,2,0,L|298:232,1,59.9999981689454,10|2,0:1|0:1,0:0:0:0:
401,110,272575,2,0,L|428:179,1,59.9999981689454,2|0,0:1|0:0,0:0:0:0:
457,242,272742,5,2,1:1:0:0:
484,47,272908,1,2,1:1:0:0:
326,252,273075,1,10,0:1:0:0:
295,10,273242,1,2,0:1:0:0:
295,10,273325,1,2,0:1:0:0:
295,10,273408,6,0,B|190:41|241:66|134:100,1,179.999994506836,4|0,1:0|0:0,0:0:0:0:
99,107,273742,1,8,0:1:0:0:
256,192,273908,1,0,0:0:0:0:
124,362,274075,2,0,B|100:311|100:311|123:224,1,119.999996337891,0|0,0:0|1:0,0:0:0:0:
395,283,274408,2,0,L|274:265,1,119.999996337891,8|0,0:1|0:0,0:0:0:0:
30,223,274742,5,0,1:0:0:0:
256,192,274908,1,0,0:0:0:0:
52,138,275075,1,8,0:1:0:0:
233,276,275241,1,0,1:0:0:0:
127,94,275408,1,0,0:0:0:0:
158,320,275574,1,0,0:0:0:0:
211,116,275741,1,8,0:1:0:0:
74,298,275907,1,0,0:0:0:0:
256,192,276075,6,0,P|326:181|410:256,1,179.999994506836,0|0,1:0|0:0,0:0:0:0:
442,310,276408,2,0,L|460:146,1,119.999996337891,8|0,0:1|0:0,0:0:0:0:
461,152,276658,1,0,0:0:0:0:
461,152,276742,1,0,0:0:0:0:
306,270,276908,1,0,1:0:0:0:
277,61,277075,1,8,0:1:0:0:
116,175,277242,6,0,B|172:138|265:158|209:194|302:214|358:177,1,239.999992675781,0|0,1:0|0:0,0:0:0:0:
63,119,277742,2,0,L|80:272,1,119.999996337891,8|0,0:1|0:0,0:0:0:0:
82,280,277992,1,0,0:0:0:0:
82,280,278075,1,0,1:0:0:0:
60,92,278242,1,2,1:1:0:0:
201,292,278408,1,10,0:1:0:0:
239,256,278492,1,2,0:1:0:0:
251,203,278575,1,2,0:1:0:0:
230,155,278658,1,2,0:1:0:0:
184,127,278742,6,0,B|163:153|165:187|165:187|233:199|304:142,1,179.999994506836,4|0,1:0|0:0,0:0:0:0:
323,167,279075,2,0,L|307:37,1,119.999996337891,8|0,0:1|0:0,0:0:0:0:
305,11,279325,1,0,0:0:0:0:
305,11,279408,1,0,0:0:0:0:
184,127,279575,1,0,1:0:0:0:
407,71,279742,1,8,0:1:0:0:
161,136,279908,1,0,0:0:0:0:
416,216,280075,6,0,B|438:189|422:142|422:142|294:173,1,179.999994506836,0|0,1:0|0:0,0:0:0:0:
285,179,280408,1,8,0:1:0:0:
499,180,280575,1,0,1:0:0:0:
297,269,280742,1,0,0:0:0:0:
496,110,280908,1,0,1:0:0:0:
496,110,280992,1,0,0:0:0:0:
496,110,281075,2,0,L|479:260,1,119.999996337891,8|0,0:1|0:0,0:0:0:0:
285,179,281408,6,0,B|341:162|341:162|413:176,1,119.999996337891,4|0,1:0|0:0,0:0:0:0:
212,199,281742,1,8,0:1:0:0:
364,297,281908,1,0,0:0:0:0:
194,384,282075,2,0,B|173:330|173:330|187:269,1,119.999996337891,0|0,0:0|1:0,0:0:0:0:
442,338,282408,5,8,0:1:0:0:
269,255,282575,1,0,1:0:0:0:
409,124,282742,6,0,L|401:173,1,50,4|0,1:0|0:0,0:0:0:0:
378,294,282908,2,0,L|386:245,1,50,0|0,1:0|0:0,0:0:0:0:
336,99,283075,5,0,3:0:0:0:
283,272,283242,5,0,1:0:0:0:
283,272,283325,2,0,L|275:346,1,50,0|0,3:0|0:0,0:0:0:0:
263,83,283492,5,0,3:0:0:0:
263,83,283575,2,0,L|255:9,1,50,0|0,1:0|0:0,0:0:0:0:
188,250,283742,5,0,3:0:0:0:
142,266,283826,1,0,3:0:0:0:
95,250,283909,1,0,3:0:0:0:
66,211,283992,1,0,3:0:0:0:
65,161,284075,1,6,2:0:0:0:
65,161,284742,6,0,P|80:100|70:55,1,100,0|0,0:0|0:0,0:0:0:0:
60,32,285158,1,0,0:0:0:0:
60,32,285242,1,0,0:0:0:0:
156,96,285408,2,0,B|186:99|240:82|195:63|259:37|304:55,1,150,2|0,0:0|0:0,0:0:0:0:
388,85,286075,1,0,0:0:0:0:
388,85,286408,6,0,L|380:147,1,50,0|0,0:0|0:0,0:0:0:0:
375,210,286742,1,2,0:0:0:0:
209,144,287075,6,0,L|217:206,1,50
222,269,287409,1,2,0:0:0:0:
375,210,287742,6,0,L|368:259,1,50,0|0,0:0|0:0,0:0:0:0:
353,336,288076,1,2,0:0:0:0:
294,284,288242,1,2,0:0:0:0:
427,311,288408,1,2,0:0:0:0:
368,259,288574,1,2,0:0:0:0:
294,284,288742,2,0,P|280:310|277:336,1,50,2|0,0:0|0:0,0:0:0:0:
148,248,289075,5,0,0:2:0:0:
203,307,289242,1,0,0:2:0:0:
256,192,289408,1,4,0:2:0:0:
256,192,289742,5,2,0:0:0:0:
173,171,290075,1,2,0:0:0:0:
275,120,290408,5,2,0:0:0:0:
90,151,290742,1,2,0:0:0:0:
292,42,291075,5,2,0:0:0:0:
10,131,291408,1,2,0:0:0:0:
10,131,291742,6,0,L|21:216,1,59.9999981689454,0|0,0:0|0:0,0:0:0:0:
29,266,292075,1,2,0:0:0:0:
29,266,292408,2,0,P|61:281|102:274,1,59.9999981689454,0|0,0:0|0:0,0:0:0:0:
160,259,292742,5,2,0:0:0:0:
255,211,292908,1,2,0:0:0:0:
184,187,293075,1,2,0:0:0:0:
231,283,293241,1,2,0:0:0:0:
313,222,293408,6,0,L|232:206,1,59.9999981689454,2|0,0:0|0:0,0:0:0:0:
125,175,293742,2,0,L|183:186,2,59.9999981689454,0|0|0,0:0|0:0|0:0,0:0:0:0:
18,107,294242,6,0,L|11:70,2,19.9999993896485,2|2|2,0:0|0:0|0:0,0:0:0:0:
24,137,294408,1,4,3:2:0:0:
137,72,294575,1,0,3:2:0:0:
183,186,294742,6,0,B|177:251|177:251|142:285|97:261,1,139.999995727539,4|8,3:2|3:2,0:0:0:0:
43,234,295242,1,0,0:0:0:0:
108,180,295408,1,8,3:2:0:0:
208,202,295575,1,0,0:2:0:0:
271,85,295742,1,8,3:2:0:0:
171,107,295909,1,0,3:2:0:0:
271,85,296075,6,0,B|348:66|318:48|407:27,1,139.999995727539,8|8,3:2|3:2,0:0:0:0:
512,80,296575,1,0,3:2:0:0:
497,148,296742,2,0,L|487:224,1,69.9999978637696,8|0,3:2|0:0,0:0:0:0:
319,217,297075,5,8,3:2:0:0:
333,296,297242,1,0,3:2:0:0:
395,245,297408,1,8,3:2:0:0:
327,211,297742,5,8,3:2:0:0:
324,291,297909,1,0,3:2:0:0:
395,254,298075,1,8,3:2:0:0:
336,207,298408,5,8,3:2:0:0:
316,285,298575,1,0,3:2:0:0:
191,154,298742,5,8,3:2:0:0:
218,256,298909,1,0,3:2:0:0:
349,118,299075,5,8,3:2:0:0:
330,195,299242,1,0,3:2:0:0:
271,137,299408,1,8,3:2:0:0:
271,137,299742,2,0,L|281:53,1,69.9999978637696,8|0,3:2|3:2,0:0:0:0:
384,252,300075,5,8,3:2:0:0:
457,219,300242,1,0,3:2:0:0:
447,139,300408,1,8,3:2:0:0:
368,123,300575,1,0,3:2:0:0:
329,193,300741,1,8,3:2:0:0:
315,194,301075,5,8,3:2:0:0:
362,110,301241,1,0,3:2:0:0:
457,129,301408,1,8,3:2:0:0:
469,225,301574,1,0,3:2:0:0:
381,265,301741,1,8,3:2:0:0:
378,281,302075,5,8,3:2:0:0:
483,233,302242,1,0,3:2:0:0:
469,118,302408,1,8,3:2:0:0:
355,95,302575,1,0,3:2:0:0:
299,196,302742,5,4,0:2:0:0:
226,230,302909,1,0,0:0:0:0:
171,171,303075,1,0,0:0:0:0:
210,101,303242,2,0,P|241:98|287:119,2,80,0|0|0,0:0|0:0|0:0,0:0:0:0:
108,137,304075,5,2,0:1:0:0:
92,156,304158,1,0,0:0:0:0:
84,180,304241,1,0,0:0:0:0:
85,204,304324,1,0,0:0:0:0:
96,229,304408,1,2,0:1:0:0:
114,251,304492,1,0,0:0:0:0:
125,282,304575,1,0,0:0:0:0:
123,314,304658,1,0,0:0:0:0:
110,342,304742,1,2,0:1:0:0:
75,358,304825,1,0,0:0:0:0:
36,350,304908,1,0,0:0:0:0:
8,323,304991,1,0,0:0:0:0:
12,280,305075,5,10,0:1:0:0:
66,289,305158,1,8,0:1:0:0:
120,298,305241,1,8,0:1:0:0:
174,307,305324,1,8,0:1:0:0:
228,315,305408,6,0,P|246:249|146:196,1,179.999994506836,4|0,1:0|0:0,0:0:0:0:
131,211,305742,2,0,L|116:75,1,119.999996337891,8|0,0:1|0:0,0:0:0:0:
116,56,305992,1,0,0:0:0:0:
116,56,306075,1,0,0:0:0:0:
255,85,306242,1,0,1:0:0:0:
55,177,306408,1,8,0:1:0:0:
378,108,306575,1,0,0:0:0:0:
176,15,306742,6,0,P|155:72|178:143,1,119.999996337891,0|0,1:0|0:0,0:0:0:0:
422,44,307075,1,8,0:1:0:0:
298,263,307242,2,0,L|286:185,1,59.9999981689454,0|0,1:0|0:0,0:0:0:0:
378,108,307408,1,2,0:1:0:0:
425,113,307492,1,2,0:1:0:0:
460,145,307575,1,2,1:1:0:0:
470,191,307658,1,2,0:1:0:0:
450,234,307741,1,10,0:1:0:0:
501,70,307908,1,2,0:1:0:0:
288,203,308075,6,0,B|246:196|223:176|223:176|240:86,1,119.999996337891,0|0,1:0|0:0,0:0:0:0:
244,87,308325,1,0,0:0:0:0:
244,87,308408,1,8,0:1:0:0:
186,295,308575,1,0,0:0:0:0:
3,120,308742,2,0,B|63:76|167:92|107:136|211:153|271:109,1,239.999992675781,0|8,0:0|0:1,0:0:0:0:
386,68,309242,1,0,1:0:0:0:
179,29,309408,5,0,0:0:0:0:
262,260,309575,1,0,1:0:0:0:
262,260,309658,1,0,0:0:0:0:
262,260,309742,1,8,0:1:0:0:
379,188,309908,1,0,0:0:0:0:
156,139,310075,2,0,B|129:157|130:201|130:201|164:285,1,119.999996337891,0|2,1:0|1:1,0:0:0:0:
178,272,310325,1,2,0:1:0:0:
202,269,310408,2,0,L|272:258,1,59.9999981689454,10|0,0:1|0:0,0:0:0:0:
358,186,310575,2,0,L|288:175,1,59.9999981689454,2|0,0:1|0:0,0:0:0:0:
76,123,310742,6,0,P|151:148|166:70,1,179.999994506836,4|0,1:3|0:0,0:0:0:0:
138,34,311075,2,0,L|287:50,1,119.999996337891,8|0,0:1|0:0,0:0:0:0:
345,224,311408,6,0,L|225:236,1,119.999996337891,0|0,0:0|1:0,0:0:0:0:
260,30,311742,2,0,L|379:42,1,119.999996337891,8|0,0:1|0:0,0:0:0:0:
497,277,312075,6,0,L|377:289,1,119.999996337891,0|0,1:0|0:0,0:0:0:0:
505,42,312408,2,0,L|386:30,1,119.999996337891,8|0,0:1|1:0,0:0:0:0:
97,213,312742,6,0,B|162:229|162:229|241:196,1,119.999996337891,0|2,0:0|0:1,0:0:0:0:
243,194,312992,1,2,0:1:0:0:
243,194,313075,1,10,0:1:0:0:
37,254,313242,1,2,0:1:0:0:
211,118,313408,6,0,B|308:90|294:177|388:157,1,179.999994506836,0|0,1:0|0:0,0:0:0:0:
424,150,313742,1,8,0:1:0:0:
357,14,313908,2,0,L|363:80,1,59.9999981689454,0|0,0:0|0:0,0:0:0:0:
385,256,314075,1,0,0:0:0:0:
506,137,314242,1,0,1:0:0:0:
485,353,314408,2,0,P|426:361|370:340,1,119.999996337891,8|0,0:1|1:0,0:0:0:0:
215,252,314742,1,0,0:0:0:0:
362,73,314908,5,0,1:0:0:0:
385,256,315075,1,8,0:1:0:0:
240,15,315242,5,0,0:0:0:0:
215,252,315408,2,0,L|222:188,1,59.9999981689454,0|0,1:0|0:0,0:0:0:0:
102,29,315575,5,2,1:0:0:0:
125,280,315742,1,10,0:1:0:0:
234,106,315908,5,2,0:1:0:0:
234,106,315992,1,2,0:1:0:0:
234,106,316075,2,0,B|127:126|164:152|55:180,1,179.999994506836,4|0,1:0|0:0,0:0:0:0:
30,191,316408,2,0,P|113:208|151:230,1,119.999996337891,8|0,0:1|0:0,0:0:0:0:
166,249,316658,1,0,0:0:0:0:
166,249,316742,1,0,0:0:0:0:
45,105,316908,1,0,1:0:0:0:
173,335,317075,1,8,0:1:0:0:
279,170,317242,1,0,0:0:0:0:
50,240,317408,6,0,P|129:257|185:239,1,119.999996337891,0|0,1:0|0:0,0:0:0:0:
205,236,317658,1,0,0:0:0:0:
205,236,317742,1,8,0:1:0:0:
16,139,317908,2,0,L|101:149,1,59.9999981689454,0|0,1:0|0:0,0:0:0:0:
279,170,318075,1,2,0:1:0:0:
305,131,318159,1,2,0:1:0:0:
308,83,318242,1,2,1:1:0:0:
285,42,318325,1,2,0:1:0:0:
244,19,318408,1,10,0:1:0:0:
298,260,318575,1,2,0:1:0:0:
504,153,318742,6,0,P|465:127|371:116,1,119.999996337891,0|0,1:0|0:0,0:0:0:0:
353,112,318992,1,0,0:0:0:0:
353,112,319075,1,8,0:1:0:0:
316,299,319242,1,0,0:0:0:0:
95,148,319408,2,0,P|133:173|227:184,1,119.999996337891,0|0,0:0|1:0,0:0:0:0:
5,239,319742,1,8,0:1:0:0:
228,164,319908,1,0,1:0:0:0:
57,55,320075,5,0,0:0:0:0:
130,313,320242,1,0,1:0:0:0:
342,168,320408,1,8,0:1:0:0:
149,147,320575,1,0,0:0:0:0:
272,355,320742,2,0,B|298:298|298:298|282:231,1,119.999996337891,0|2,1:0|1:1,0:0:0:0:
262,204,320992,1,2,0:1:0:0:
262,204,321075,2,0,L|294:342,1,119.999996337891,10|2,0:1|0:1,0:0:0:0:
363,117,321408,5,4,1:3:0:0:
342,310,321575,1,0,0:0:0:0:
169,96,321742,1,8,0:1:0:0:
148,290,321909,1,0,0:0:0:0:
262,204,322075,2,0,P|217:190|110:204,1,119.999996337891,0|0,0:0|1:0,0:0:0:0:
342,310,322408,5,8,0:1:0:0:
148,290,322575,1,0,0:0:0:0:
363,117,322742,1,0,1:0:0:0:
169,96,322909,1,0,0:0:0:0:
262,204,323075,2,0,P|287:144|279:52,1,119.999996337891,8|0,0:1|1:0,0:0:0:0:
148,290,323408,5,0,0:0:0:0:
169,96,323575,2,0,L|210:157,1,59.9999981689454,2|2,1:1|0:1,0:0:0:0:
342,310,323742,1,10,0:1:0:0:
363,117,323909,1,2,0:1:0:0:
260,384,324075,5,4,1:0:0:0:
239,144,324242,1,0,0:0:0:0:
342,310,324408,1,8,0:1:0:0:
410,55,324575,2,0,B|454:54|454:108|454:108|414:157|330:96,1,179.999994506836,0|0,0:0|0:0,0:0:0:0:
300,40,324908,2,0,L|294:99,1,59.9999981689454,0|0,1:0|0:0,0:0:0:0:
245,167,325075,2,0,B|310:177|284:196|359:199,1,119.999996337891,8|0,0:0|1:0,0:0:0:0:
489,265,325408,6,0,P|453:269|424:260,1,55.0000016784668,12|0,1:0|0:0,0:0:0:0:
319,354,325575,5,0,1:0:0:0:
295,334,325658,2,0,P|273:304|266:275,1,55.0000016784668,8|0,0:1|0:0,0:0:0:0:
130,290,325825,5,0,1:0:0:0:
135,249,325908,2,0,P|149:215|171:195,1,55.0000016784668,8|0,0:1|0:0,0:0:0:0:
146,96,326075,6,0,P|182:92|211:101,1,55.0000016784668,8|0,0:1|0:0,0:0:0:0:
265,174,326242,1,8,0:1:0:0:
217,198,326325,1,8,0:1:0:0:
162,202,326408,1,8,1:0:0:0:
113,178,326491,1,8,0:1:0:0:
80,134,326575,1,8,0:1:0:0:
73,80,326658,1,8,0:1:0:0:
89,29,326742,6,0,B|140:84|105:142|105:142|37:181|79:264,1,239.999992675781,4|8,1:0|0:1,0:0:0:0:
265,174,327242,2,0,L|256:233,1,59.9999981689454,0|0,0:0|0:0,0:0:0:0:
165,365,327408,5,0,0:0:0:0:
211,333,327492,1,0,0:0:0:0:
258,326,327575,1,0,1:0:0:0:
297,333,327658,1,0,0:0:0:0:
329,353,327742,1,8,0:1:0:0:
366,369,327825,1,0,0:0:0:0:
411,369,327908,1,0,0:0:0:0:
457,353,327992,1,0,0:0:0:0:
491,309,328075,1,0,1:0:0:0:
359,133,328242,5,0,0:0:0:0:
364,177,328325,1,0,0:0:0:0:
369,219,328408,1,8,0:1:0:0:
212,54,328575,5,0,1:0:0:0:
208,85,328658,1,0,0:0:0:0:
204,115,328742,2,0,L|59:95,1,119.999996337891,0|2,0:0|1:1,0:0:0:0:
43,93,328992,1,2,0:1:0:0:
43,93,329075,2,0,L|53:227,1,119.999996337891,10|2,0:1|0:1,0:0:0:0:
214,30,329408,5,0,1:0:0:0:
182,303,329575,1,0,0:0:0:0:
182,303,329658,1,0,0:0:0:0:
182,303,329742,1,8,0:1:0:0:
354,92,329908,5,0,0:0:0:0:
383,365,330075,1,0,0:0:0:0:
383,365,330158,1,0,0:0:0:0:
383,365,330242,1,0,1:0:0:0:
133,204,330408,6,0,L|279:192,1,119.999996337891,8|0,0:1|1:0,0:0:0:0:
508,315,330742,5,0,0:0:0:0:
460,316,330825,1,0,0:0:0:0:
421,290,330908,1,0,1:0:0:0:
403,247,330991,1,0,0:0:0:0:
413,201,331075,1,8,0:1:0:0:
222,0,331242,5,0,0:0:0:0:
221,54,331325,1,0,0:0:0:0:
251,100,331408,1,0,1:0:0:0:
302,120,331491,1,0,0:0:0:0:
355,109,331575,1,2,1:1:0:0:
121,223,331742,5,10,0:1:0:0:
166,218,331825,1,2,0:1:0:0:
215,211,331908,2,0,P|194:199|121:204,1,59.9999981689454,2|2,0:1|0:1,0:0:0:0:
48,184,332075,1,4,1:3:0:0:
168,71,332242,6,0,L|173:24,2,39.9999987792969,2|2|2,0:1|0:1|0:1,0:0:0:0:
163,115,332409,1,10,0:1:0:0:
286,289,332575,6,0,L|289:329,2,39.9999987792969,2|2|2,0:1|0:1|0:1,0:0:0:0:
282,245,332742,2,0,P|225:221|179:294,1,119.999996337891,2|0,0:1|1:0,0:0:0:0:
37,64,333075,2,0,L|51:219,1,119.999996337891,8|0,0:1|0:0,0:0:0:0:
256,25,333408,5,0,1:0:0:0:
156,189,333575,1,0,0:0:0:0:
146,162,333658,1,0,0:0:0:0:
139,134,333742,1,8,0:1:0:0:
172,108,333825,1,0,0:0:0:0:
213,101,333908,1,0,1:0:0:0:
252,112,333991,1,0,0:0:0:0:
283,141,334075,2,0,L|253:15,1,119.999996337891,0|0,0:0|1:0,0:0:0:0:
250,0,334325,1,0,0:0:0:0:
250,0,334408,2,0,P|333:14|377:20,1,119.999996337891,8|0,0:1|0:0,0:0:0:0:
283,141,334742,5,0,1:0:0:0:
432,130,334908,1,0,0:0:0:0:
260,278,335075,1,8,0:1:0:0:
455,326,335242,2,0,B|488:301|483:267|483:267|446:203|367:221|331:287,1,239.999992675781,0|0,0:0|1:0,0:0:0:0:
160,144,335742,1,8,0:1:0:0:
194,366,335908,1,0,1:0:0:0:
29,247,336075,5,0,0:0:0:0:
63,233,336158,1,0,0:0:0:0:
98,231,336242,2,0,L|192:235,1,59.9999981689454,0|0,1:0|0:0,0:0:0:0:
260,278,336408,5,8,0:1:0:0:
299,292,336491,1,0,0:0:0:0:
341,297,336575,2,0,L|435:293,1,59.9999981689454,0|0,0:0|0:0,0:0:0:0:
496,166,336742,5,0,1:0:0:0:
459,135,336825,1,0,0:0:0:0:
413,127,336908,1,0,1:0:0:0:
368,143,336991,1,0,0:0:0:0:
331,175,337075,5,8,0:1:0:0:
288,206,337158,1,8,0:1:0:0:
235,211,337241,1,8,0:1:0:0:
187,186,337324,1,8,0:1:0:0:
160,141,337408,6,0,P|154:99|166:56,1,59.9999981689454,4|0,1:0|0:0,0:0:0:0:
309,24,337575,2,0,L|315:109,1,59.9999981689454,0|0,0:0|0:0,0:0:0:0:
329,230,337742,1,8,0:1:0:0:
306,0,337908,1,0,0:0:0:0:
194,240,338075,2,0,B|130:254|130:254|73:217,1,119.999996337891,0|0,0:0|1:0,0:0:0:0:
8,62,338408,6,0,P|16:94|20:121,1,59.9999981689454,8|0,0:1|0:0,0:0:0:0:
65,308,338575,2,0,L|83:223,1,59.9999981689454,0|0,0:0|0:0,0:0:0:0:
116,87,338742,1,0,1:0:0:0:
60,329,338908,1,0,0:0:0:0:
210,171,339075,2,0,B|274:157|274:157|319:186,1,119.999996337891,8|2,0:1|1:1,0:0:0:0:
353,218,339325,1,2,0:1:0:0:
353,218,339408,5,2,0:1:0:0:
84,157,339575,1,2,1:1:0:0:
264,37,339742,1,10,0:1:0:0:
190,338,339908,1,2,0:1:0:0:
7,182,340075,6,0,P|85:158|141:187,1,119.999996337891,0|0,1:0|0:0,0:0:0:0:
156,199,340325,1,0,0:0:0:0:
177,227,340408,2,0,L|161:368,1,119.999996337891,8|0,0:1|0:0,0:0:0:0:
144,378,340658,1,0,0:0:0:0:
128,341,340742,2,0,B|189:310|189:310|292:328,1,119.999996337891,0|0,0:0|1:0,0:0:0:0:
282,337,340992,1,0,0:0:0:0:
322,356,341075,2,0,L|454:337,1,119.999996337891,8|0,0:1|1:0,0:0:0:0:
344,187,341408,5,0,0:0:0:0:
314,187,341491,1,0,0:0:0:0:
285,197,341574,1,0,1:0:0:0:
261,214,341657,1,0,0:0:0:0:
243,238,341742,5,8,0:1:0:0:
243,200,341825,1,0,0:0:0:0:
253,166,341908,1,0,0:0:0:0:
273,137,341991,1,0,0:0:0:0:
300,113,342075,5,0,1:0:0:0:
255,114,342158,1,0,0:0:0:0:
215,128,342241,1,0,1:0:0:0:
181,153,342324,1,0,0:0:0:0:
153,188,342408,5,8,0:1:0:0:
165,130,342491,1,8,0:1:0:0:
197,79,342574,1,8,0:1:0:0:
245,44,342657,1,8,0:1:0:0:
303,28,342742,6,0,L|160:16,1,119.999996337891,14|0,1:3|0:0,0:0:0:0:
138,14,342992,1,0,0:0:0:0:
138,14,343075,2,0,L|149:165,1,119.999996337891,8|0,1:0|0:0,0:0:0:0:
317,106,343408,5,8,1:0:0:0:
243,310,343575,1,0,0:0:0:0:
405,61,343742,5,8,1:0:0:0:
274,232,343908,1,0,0:0:0:0:
494,70,344075,6,0,L|508:212,1,119.999996337891,12|0,1:0|0:0,0:0:0:0:
511,234,344325,1,0,0:0:0:0:
511,234,344408,2,0,P|444:248|396:185,1,119.999996337891,8|0,1:0|0:0,0:0:0:0:
393,186,344658,1,0,0:0:0:0:
393,186,344742,5,8,1:0:0:0:
211,384,344908,1,0,0:0:0:0:
64,115,345075,2,0,L|200:129,1,119.999996337891,8|0,1:0|0:0,0:0:0:0:
360,339,345408,5,12,1:0:0:0:
324,129,345575,1,8,1:0:0:0:
211,384,345742,5,8,1:0:0:0:
246,167,345908,1,8,1:0:0:0:
80,357,346075,5,8,1:0:0:0:
181,112,346242,1,8,1:0:0:0:
0,238,346408,5,8,1:0:0:0:
192,28,346575,1,8,1:0:0:0:
201,236,346742,5,8,1:0:0:0:
185,239,346825,1,8,0:1:0:0:
169,243,346908,2,0,L|87:255,1,59.9999981689454,8|8,0:1|0:1,0:0:0:0:
229,91,347075,5,8,0:1:0:0:
265,95,347158,1,8,0:1:0:0:
299,99,347241,2,0,L|381:111,1,59.9999981689454,8|8,0:1|0:1,0:0:0:0:
461,206,347408,5,8,0:1:0:0:
422,239,347491,1,8,0:1:0:0:
372,251,347574,1,8,0:1:0:0:
323,237,347657,1,8,0:1:0:0:
286,201,347741,1,8,0:1:0:0:
246,166,347825,1,8,0:1:0:0:
196,155,347908,1,8,0:1:0:0:
147,168,347991,1,8,0:1:0:0:
110,205,348075,6,0,L|100:116,3,64.9999970245363,6|0|0|0,1:1|0:0|0:0|0:0,0:0:0:0:
3,87,348742,2,0,P|-6:120|11:165,1,64.9999970245363,2|0,0:0|0:0,0:0:0:0:
42,222,349075,2,0,P|48:253|39:284,1,64.9999970245363
26,361,349408,5,2,0:0:0:0:
97,328,349575,1,0,0:0:0:0:
174,335,349742,1,0,0:0:0:0:
245,367,349909,1,0,0:0:0:0:
320,348,350075,2,0,L|326:278,1,55.0000016784668,2|0,0:0|0:0,0:0:0:0:
275,231,350408,2,0,L|268:174,1,55.0000016784668,2|0,0:0|0:0,0:0:0:0:
400,112,350742,5,2,0:0:0:0:
327,95,350908,1,0,0:0:0:0:
353,166,351075,2,0,L|369:242,1,55.0000016784668
484,300,351408,5,2,0:0:0:0:
411,317,351574,1,0,0:0:0:0:
437,246,351741,2,0,L|453:170,1,55.0000016784668
483,92,352075,6,0,L|420:73,1,55.0000016784668,2|0,0:0|0:0,0:0:0:0:
327,95,352408,2,0,L|264:114,1,55.0000016784668
92,104,352742,5,2,0:0:0:0:
179,130,352908,1,2,0:0:0:0:
119,23,353075,1,2,0:0:0:0:
206,49,353241,1,2,0:0:0:0:
92,104,353408,6,0,L|34:93,3,44.999998626709,2|0|0|0,0:0|0:0|0:0|0:0,0:0:0:0:
158,170,354075,2,0,L|100:181,3,44.999998626709,2|0|0|0,0:0|0:0|0:0|0:0,0:0:0:0:
230,214,354742,2,0,L|189:262,3,44.999998626709,2|0|0|0,0:0|0:0|0:0|0:0,0:0:0:0:
314,210,355408,2,0,L|298:274,3,44.999998626709,2|0|0|0,0:0|0:0|0:0|0:0,0:0:0:0:
387,146,356075,5,2,0:0:0:0:
387,146,356242,1,0,0:0:0:0:
387,146,356408,2,0,L|392:207,1,44.999998626709
402,316,356742,5,2,0:0:0:0:
402,316,356909,1,0,0:0:0:0:
402,316,357075,2,0,L|397:255,1,44.999998626709
387,146,357408,6,0,L|391:191,1,44.999998626709,2|0,0:0|0:0,0:0:0:0:
314,210,357742,2,0,L|303:253,1,44.999998626709,2|0,0:0|0:0,0:0:0:0:
230,214,358075,2,0,L|200:248,1,44.999998626709,2|0,0:0|0:0,0:0:0:0:
158,170,358408,2,0,L|113:178,1,44.999998626709,2|0,0:0|0:0,0:0:0:0:
47,95,358742,6,0,L|96:104,1,45.9999984558106,4|0,0:0|0:0,0:0:0:0:
