osu file format v14

[General]
AudioFilename: audio.mp3
AudioLeadIn: 0
PreviewTime: 67340
Countdown: 0
SampleSet: Soft
StackLeniency: 0.7
Mode: 2
LetterboxInBreaks: 0
WidescreenStoryboard: 1

[Editor]
Bookmarks: 674,11340,22007,32673,43340,54007,67340,78007,88673,99340,110007,115173
DistanceSpacing: 1.1
BeatDivisor: 4
GridSize: 4
TimelineZoom: 1

[Metadata]
Title:Oriental Blossom
TitleUnicode:Oriental Blossom
Artist:Eisyo-kobu
ArtistUnicode:影翔鼓舞
Creator:celerih
Version:Salad
Source:SOUND VOLTEX III GRAVITY WARS
Tags:sdvx 影虎。Kagetora. saka=ichi The 4th KACオリジナル楽曲コンテスト Original Song Contest konami arcade championship gaia
BeatmapID:1535997
BeatmapSetID:727539

[Difficulty]
HPDrainRate:3
CircleSize:3
OverallDifficulty:7
ApproachRate:7
SliderMultiplier:1.2
SliderTickRate:1

[Events]
//Background and Video events
0,0,"Oriental Blossom BG.jpg",0,0
//Break Periods
2,54207,58440
//Storyboard Layer 0 (Background)
//Storyboard Layer 1 (Fail)
//Storyboard Layer 2 (Pass)
//Storyboard Layer 3 (Foreground)
//Storyboard Sound Samples

[TimingPoints]
674,333.333333333333,4,2,52,65,1,0
4590,-100,4,2,58,60,0,0
4757,-100,4,2,52,60,0,0
6007,-100,4,2,51,60,0,0
31340,-100,4,2,51,65,0,0
32840,-100,4,2,51,60,0,0
36840,-100,4,2,51,70,0,0
37007,-100,4,2,51,60,0,0
37173,-100,4,2,51,70,0,0
37673,-100,4,2,51,60,0,0
37840,-100,4,2,51,70,0,0
38007,-100,4,2,51,60,0,0
40340,-100,4,2,51,70,0,0
41007,-100,4,2,51,60,0,0
41340,-100,4,2,51,70,0,0
41673,-100,4,2,51,60,0,0
42007,-100,4,2,51,70,0,0
42090,-100,4,2,51,60,0,0
42673,-100,4,2,51,70,0,0
43007,-100,4,2,51,65,0,0
43340,-100,4,2,51,60,0,0
47507,-100,4,2,51,70,0,0
47673,-100,4,2,51,60,0,0
47840,-100,4,2,51,70,0,0
48340,-100,4,2,51,60,0,0
48507,-100,4,2,51,70,0,0
48673,-100,4,2,51,60,0,0
54007,-100,4,2,51,50,0,0
54090,-100,4,2,52,50,0,0
59340,-100,4,2,51,60,0,0
64673,-100,4,3,55,70,0,0
65007,-100,4,3,55,50,0,0
65173,-100,4,3,55,60,0,0
65507,-100,4,3,55,70,0,0
65673,-100,4,3,55,60,0,0
66007,-100,4,2,51,70,0,0
73673,-100,4,2,70,70,0,0
73757,-100,4,2,51,70,0,0
81673,-100,4,2,70,70,0,0
81757,-100,4,2,51,70,0,0
88673,-100,4,2,51,70,0,1
98007,-100,4,2,51,70,0,0
99340,-100,4,2,51,70,0,1
108673,-100,4,2,51,60,0,1
110007,-100,4,2,51,70,0,0
115173,-100,4,2,51,30,0,0

[Colours]
Combo1 : 197,175,182
Combo2 : 211,77,102
Combo3 : 183,125,158
Combo4 : 236,117,227

[HitObjects]
208,192,674,6,0,L|84:184,2,120,0|0|8,3:0|0:0|0:1,0:0:0:0:
360,228,1673,2,0,L|280:224,1,60,0|0,0:0|3:0,0:0:0:0:
200,244,2007,2,0,P|180:156|300:132,1,240,2|8,0:3|0:1,0:0:0:0:
440,144,3007,1,0,0:0:0:0:
272,280,3340,6,0,P|156:264|116:148,1,240,0|8,3:0|0:1,0:0:0:0:
280,184,4340,2,0,P|396:168|436:52,1,240,0|0,0:0|0:0,0:0:0:0:
288,52,5340,2,0,L|168:40,1,120,8|0,0:1|3:0,0:0:0:0:
312,216,6007,5,0,3:0:0:0:
448,208,6340,1,0,3:0:0:0:
292,176,6673,2,0,L|272:56,1,120,8|0,0:0|3:0,0:0:0:0:
132,228,7340,1,2,3:3:0:0:
268,220,7673,1,0,3:0:0:0:
112,188,8006,2,0,L|92:68,1,120,8|0,0:0|3:0,0:0:0:0:
248,204,8673,6,0,P|288:156|248:124,1,120,0|0,3:0|3:0,0:0:0:0:
168,128,9173,1,0,3:0:0:0:
272,116,9340,2,0,L|280:44,1,60,8|0,0:0|3:0,0:0:0:0:
192,64,9673,2,0,L|184:-8,1,60,0|0,3:0|3:0,0:0:0:0:
363,22,10007,5,4,0:1:0:0:
144,180,10840,1,0,3:0:0:0:
116,128,11007,1,8,0:0:0:0:
380,168,11340,6,0,P|416:120|360:88,1,120,4|10,3:2|0:0,0:0:0:0:
224,96,12007,2,0,L|156:88,1,60,2|2,0:0|3:2,0:0:0:0:
88,128,12340,2,0,L|20:120,1,60,10|0,0:0|0:0,0:0:0:0:
196,243,12673,6,0,L|320:223,1,120,2|10,3:2|0:0,0:0:0:0:
384,232,13173,1,2,3:2:0:0:
304,212,13340,2,0,L|156:196,1,120,2|10,0:0|0:0,0:0:0:0:
448,180,14007,6,0,P|496:124|444:44,1,180,2|2,3:2|0:0,0:0:0:0:
360,92,14673,2,0,L|196:68,1,120,2|10,0:0|0:0,0:0:0:0:
160,96,15173,1,0,0:0:0:0:
236,112,15340,6,0,L|300:108,2,60,0|0|8,0:0|3:0|0:0,0:0:0:0:
160,96,15840,1,2,0:0:0:0:
104,192,16007,2,0,L|156:76,1,120,0|10,3:0|0:0,0:0:0:0:
304,168,16507,6,0,P|316:104|224:68,1,180,0|10,0:0|0:0,0:0:0:0:
72,76,17340,1,2,0:0:0:0:
200,88,17673,1,8,0:0:0:0:
364,68,18007,6,0,L|504:56,2,120,2|10|0,3:2|0:0|0:0,0:0:0:0:
208,280,19007,2,0,L|196:220,1,60,8|2,0:0|0:0,0:0:0:0:
352,188,19340,5,0,3:0:0:0:
204,180,19673,2,0,L|128:172,1,60,8|2,0:0|0:0,0:0:0:0:
216,108,20007,2,0,L|224:32,1,60,2|0,0:0|3:0,0:0:0:0:
116,76,20340,2,0,L|108:0,1,60,8|0,0:0|3:0,0:0:0:0:
272,176,20673,6,0,L|344:168,2,60,2|2|10,0:0|3:2|0:0,0:0:0:0:
152,264,21340,2,0,L|128:140,1,120,0|8,3:0|0:0,0:0:0:0:
432,200,22007,6,0,P|440:124|348:92,1,180,6|0,3:2|0:0,0:0:0:0:
260,108,22673,2,0,L|264:24,1,60,2|2,0:0|3:2,0:0:0:0:
368,16,23007,1,10,0:0:0:0:
208,224,23340,6,0,L|68:212,1,120,0|8,3:0|0:0,0:0:0:0:
160,140,23840,2,0,L|168:72,1,60,2|2,3:2|0:0,0:0:0:0:
20,56,24340,1,8,0:0:0:0:
192,64,24673,5,0,3:0:0:0:
260,172,24840,2,0,L|268:108,1,60,2|10,0:0|0:0,0:0:0:0:
188,188,25173,1,0,0:0:0:0:
108,276,25340,2,0,L|100:212,1,60,2|2,0:0|3:2,0:0:0:0:
188,188,25673,1,10,0:0:0:0:
476,160,26007,6,0,L|496:40,1,120,2|10,0:0|0:0,0:0:0:0:
420,44,26507,2,0,L|296:32,1,120,2|0,0:0|3:0,0:0:0:0:
224,76,27007,1,10,0:0:0:0:
496,192,27340,6,0,L|376:202,2,120,0|10|2,3:0|0:0|0:0,0:0:0:0:
312,196,28340,1,8,0:0:0:0:
168,264,28673,6,0,P|144:224|156:144,1,120,2|10,3:2|0:0,0:0:0:0:
240,148,29173,1,2,3:2:0:0:
328,148,29340,2,0,L|336:76,1,60,2|2,0:0|3:2,0:0:0:0:
424,72,29673,1,8,0:0:0:0:
136,96,30007,6,0,L|8:84,1,120,6|8,3:2|0:0,0:0:0:0:
112,44,30507,2,0,L|236:36,1,120,2|2,0:0|3:2,0:0:0:0:
320,36,31007,1,8,0:0:0:0:
168,208,31340,6,0,L|68:200,2,90,12|12|12,0:2|0:0|0:0,0:0:0:0:
264,212,32007,2,0,L|272:148,1,60,12|8,0:0|0:0,0:0:0:0:
184,96,32340,2,0,L|176:32,1,60,8|8,0:0|0:0,0:0:0:0:
341,51,32673,6,0,L|485:43,1,120,4|8,3:2|0:0,0:0:0:0:
384,112,33173,1,2,0:0:0:0:
236,236,33507,2,0,L|156:228,1,60,0|8,3:0|0:0,0:0:0:0:
336,280,34007,6,0,L|416:272,1,60,2|2,3:2|0:0,0:0:0:0:
320,208,34340,2,0,L|240:200,1,60,8|0,0:0|0:0,0:0:0:0:
176,204,34673,1,0,0:0:0:0:
328,164,35007,1,8,0:0:0:0:
56,140,35340,6,0,L|175:132,2,120,2|10|2,3:2|0:0|0:0,0:0:0:0:
192,148,36340,1,10,0:0:0:0:
316,184,36673,2,0,L|196:200,1,120,2|8,0:0|0:0,0:0:0:0:
332,56,37340,2,0,L|396:60,2,60,8|8|8,3:1|3:1|0:2,0:0:0:0:
108,144,38007,6,0,L|240:132,1,120,2|8,3:2|0:0,0:0:0:0:
312,140,38507,1,2,0:0:0:0:
164,296,38840,2,0,L|152:236,1,60,2|8,3:2|0:0,0:0:0:0:
324,184,39340,6,0,L|392:188,2,60,2|2|0,3:2|0:0|0:0,0:0:0:0:
240,176,39840,2,0,L|160:184,1,60,0|0,0:0|0:0,0:0:0:0:
324,184,40340,6,0,L|392:188,2,60,10|2|8,1:2|0:0|1:3,0:0:0:0:
240,176,40840,2,0,L|160:184,1,60,2|8,0:0|1:2,0:0:0:0:
320,320,41340,2,0,L|328:256,1,60,0|2,1:0|3:2,0:0:0:0:
236,224,41673,2,0,L|236:156,1,60,8|0,1:2|3:0,0:0:0:0:
336,124,42007,6,0,P|336:72|224:40,1,180,2|8,1:2|0:1,0:0:0:0:
144,100,42673,2,0,L|132:28,1,60,8|8,3:1|0:1,0:0:0:0:
224,156,43007,2,0,L|296:144,1,60,8|8,0:0|0:0,0:0:0:0:
444,148,43340,5,4,3:2:0:0:
244,248,44007,2,0,L|154:241,2,90,2|2|2,0:0|0:0|0:0,0:0:0:0:
324,248,44673,2,0,P|370:178|316:113,1,180,2|0,3:0|3:0,0:0:0:0:
232,116,45340,2,0,L|148:112,1,60,0|0,0:0|3:0,0:0:0:0:
88,116,45673,1,8,0:0:0:0:
364,272,46007,6,0,L|492:264,2,120,8|8|0,1:3|1:2|1:1,0:0:0:0:
212,268,47007,1,8,1:2:0:0:
364,248,47340,2,0,L|372:176,1,60,4|8,1:1|3:1,0:0:0:0:
296,140,47673,2,0,L|288:68,1,60,8|8,0:0|0:1,0:0:0:0:
384,76,48007,6,0,L|424:-48,1,120,8|8,3:1|0:0,0:0:0:0:
144,164,48673,2,0,L|64:156,2,60,4|2|8,3:2|0:0|0:0,0:0:0:0:
228,164,49173,1,2,0:0:0:0:
48,296,49673,1,8,0:0:0:0:
304,300,50007,6,0,P|344:260|292:228,1,120,4|8,3:1|0:0,0:0:0:0:
224,228,50507,1,0,3:0:0:0:
144,224,50673,2,0,L|80:220,2,60,0|0|8,0:0|3:0|0:0,0:0:0:0:
376,204,51340,6,0,P|416:164|376:120,1,120,4|8,3:2|0:0,0:0:0:0:
300,124,51840,1,0,0:0:0:0:
216,124,52007,2,0,L|148:116,1,60,2|2,0:0|3:2,0:0:0:0:
232,100,52340,1,10,0:0:0:0:
388,224,52673,6,0,L|298:230,2,90,12|12|12,0:2|0:0|0:0,0:0:0:0:
316,192,53340,2,0,L|312:132,1,60,8|8,0:0|0:0,0:0:0:0:
392,96,53673,2,0,L|396:36,1,60,8|8,0:0|0:0,0:0:0:0:
228,32,54007,1,4,3:2:0:0:
316,192,59340,6,0,L|440:184,2,120,12|8|8,0:0|0:0|0:0,0:0:0:0:
172,168,60340,1,8,0:0:0:0:
320,112,60673,2,0,L|196:104,2,120,12|8|8,0:0|0:0|0:0,0:0:0:0:
464,88,61673,1,8,0:0:0:0:
188,316,62007,6,0,L|164:188,1,120,12|8,0:0|0:0,0:0:0:0:
296,264,62673,2,0,L|323:147,1,120,8|8,0:0|0:0,0:0:0:0:
16,208,63340,6,0,P|60:80|280:68,1,360,12|8,0:0|0:0,0:0:0:0:
412,72,64673,1,4,0:0:0:0:
316,252,66007,6,0,P|424:196|312:160,1,300,2|2,3:2|0:0,0:0:0:0:
248,168,67007,2,0,L|180:156,1,60,10|10,0:0|0:0,0:0:0:0:
360,196,67340,6,0,L|488:176,1,120,4|8,3:2|0:0,0:0:0:0:
296,104,68007,2,0,L|224:96,1,60,4|4,0:3|3:0,0:0:0:0:
316,84,68340,2,0,L|324:12,1,60,8|4,0:0|0:3,0:0:0:0:
164,264,68673,6,0,P|124:220|180:176,1,120,4|10,3:3|0:0,0:0:0:0:
236,176,69173,1,4,3:3:0:0:
152,164,69340,2,0,L|48:100,1,120,4|10,0:3|0:0,0:0:0:0:
136,80,69840,1,4,0:3:0:0:
284,48,70007,6,0,P|364:56|408:164,1,180,8|4,1:3|0:3,0:0:0:0:
348,232,70673,2,0,P|328:180|356:120,1,120,2|10,1:2|0:0,0:0:0:0:
436,112,71173,1,4,3:0:0:0:
340,96,71340,6,0,L|268:92,1,60,2|0,1:2|3:0,0:0:0:0:
360,40,71673,2,0,L|432:36,1,60,0|0,0:0|0:0,0:0:0:0:
492,40,72007,1,2,0:2:0:0:
364,136,72340,2,0,L|292:132,1,60,10|2,0:0|0:0,0:0:0:0:
140,212,72673,6,0,L|128:92,1,120,2|10,3:3|0:0,0:0:0:0:
276,128,73340,1,4,0:3:0:0:
428,132,73673,1,14,0:0:0:0:
256,112,74007,6,0,L|176:112,2,60,8|0|8,1:3|0:0|1:2,0:0:0:0:
423,228,74673,2,0,L|433:106,1,120,0|10,1:0|0:0,0:0:0:0:
355,100,75173,1,4,0:3:0:0:
280,96,75340,5,12,1:3:0:0:
132,104,75673,2,0,L|24:112,2,60,8|4|4,0:0|0:3|0:3,0:0:0:0:
216,128,76173,2,0,L|324:136,2,60,2|8|4,3:2|0:0|3:0,0:0:0:0:
56,184,76673,5,2,1:2:0:0:
84,124,76840,1,2,0:0:0:0:
108,64,77007,1,8,1:2:0:0:
248,56,77340,1,8,1:3:0:0:
124,124,77673,2,0,L|192:116,1,60,8|0,0:0|0:0,0:0:0:0:
348,216,78007,6,0,L|468:204,1,120,2|8,3:0|0:0,0:0:0:0:
328,152,78674,2,0,L|264:148,1,60,4|4,0:3|3:0,0:0:0:0:
352,144,79007,2,0,L|356:76,1,60,8|4,0:0|0:3,0:0:0:0:
212,292,79340,6,0,L|88:272,1,120,4|8,3:3|0:0,0:0:0:0:
156,236,79840,1,4,3:3:0:0:
224,180,80007,2,0,L|352:192,1,120,4|8,0:3|0:0,0:0:0:0:
416,164,80507,1,4,0:3:0:0:
262,132,80673,6,0,P|203:180|276:242,1,180,8|0,1:3|0:3,0:0:0:0:
339,258,81340,2,0,L|208:249,1,120,2|14,1:2|0:0,0:0:0:0:
278,186,81840,1,4,3:3:0:0:
418,154,82007,6,0,L|426:90,1,60,4|4,0:3|3:3,0:0:0:0:
350,199,82340,2,0,L|278:191,1,60,10|4,0:0|0:3,0:0:0:0:
172,208,82674,1,4,3:3:0:0:
316,300,83007,2,0,L|388:296,1,60,8|2,0:0|0:0,0:0:0:0:
212,336,83340,6,0,L|128:332,2,60,6|4|8,0:3|0:3|0:0,0:0:0:0:
136,316,83840,1,4,0:3:0:0:
340,236,84340,2,0,L|424:232,2,60,8|4|4,0:0|0:3|3:0,0:0:0:0:
416,216,84840,1,4,0:3:0:0:
204,184,85340,2,0,L|120:180,2,60,4|4|8,0:3|3:0|0:0,0:0:0:0:
128,164,85840,1,4,0:3:0:0:
296,120,86007,6,0,L|368:124,2,60,4|0|8,3:2|0:0|0:0,0:0:0:0:
212,124,86507,2,0,P|176:80|224:28,1,120,4|2,0:1|3:0,0:0:0:0:
292,32,87007,2,0,L|360:24,1,60,8|0,0:0|3:0,0:0:0:0:
184,164,87340,6,0,L|80:172,2,90,12|12|12,0:0|0:0|0:0,0:0:0:0:
264,164,88007,2,0,L|324:160,1,60,0|8,0:0|0:0,0:0:0:0:
248,116,88340,2,0,L|188:112,1,60,8|8,0:0|0:0,0:0:0:0:
344,148,88673,6,0,P|396:104|320:60,1,180,4|2,3:2|0:0,0:0:0:0:
240,104,89340,2,0,L|228:20,1,60,2|2,0:0|3:2,0:0:0:0:
312,28,89673,1,10,0:0:0:0:
168,216,90007,6,0,L|308:204,1,120,2|10,3:2|0:0,0:0:0:0:
372,208,90506,2,0,L|304:196,1,60,2|2,3:2|0:0,0:0:0:0:
168,176,91006,1,8,0:0:0:0:
440,260,91339,5,2,3:2:0:0:
356,216,91506,2,0,L|364:152,1,60,2|8,0:0|0:0,0:0:0:0:
236,140,92007,2,0,L|168:129,1,60,2|2,0:0|3:2,0:0:0:0:
243,127,92339,1,8,0:0:0:0:
472,268,92673,6,0,L|336:236,1,120,2|10,0:0|0:0,0:0:0:0:
424,220,93173,2,0,P|464:172|428:136,1,120,2|2,0:0|3:2,0:0:0:0:
364,136,93673,1,10,0:0:0:0:
88,184,94006,6,0,L|207:191,2,120,2|8|2,3:0|0:0|0:0,0:0:0:0:
220,156,95006,1,8,0:0:0:0:
352,292,95340,6,0,L|224:300,1,120,2|10,3:2|0:0,0:0:0:0:
164,276,95839,1,2,3:2:0:0:
240,260,96006,2,0,L|308:264,1,60,2|2,0:0|3:2,0:0:0:0:
224,240,96339,1,8,0:0:0:0:
484,244,96673,6,0,P|484:184|436:152,1,120,2|10,3:2|0:0,0:0:0:0:
364,148,97173,2,0,L|488:140,1,120,2|0,0:0|3:0,0:0:0:0:
412,128,97673,1,8,0:0:0:0:
260,184,98007,6,0,L|184:176,2,60,2|2|10,0:0|3:2|0:0,0:0:0:0:
344,216,98507,2,0,L|412:212,2,60,2|2|2,0:0|3:2|3:2,0:0:0:0:
264,256,99007,2,0,L|196:252,1,60,10|10,0:0|0:0,0:0:0:0:
368,324,99340,6,0,L|384:204,1,120,4|10,3:2|0:0,0:0:0:0:
300,152,99840,2,0,L|228:148,2,60,2|2|2,0:0|0:0|3:2,0:0:0:0:
380,152,100340,1,10,0:0:0:0:
232,300,100673,6,0,P|196:256|228:208,1,120,2|8,3:2|0:0,0:0:0:0:
368,216,101340,2,0,L|372:148,1,60,0|8,1:0|0:3,0:0:0:0:
296,272,101673,2,0,L|292:204,1,60,8|0,1:2|0:0,0:0:0:0:
444,300,102007,6,0,P|480:256|440:204,1,120,2|8,3:0|0:0,0:0:0:0:
296,208,102673,2,0,P|260:164|300:112,1,120,2|8,0:0|0:0,0:0:0:0:
440,104,103340,6,0,L|376:96,1,60,2|2,0:0|3:2,0:0:0:0:
304,112,103673,2,0,L|240:104,1,60,10|2,0:0|0:0,0:0:0:0:
324,196,104007,2,0,L|388:188,1,60,2|2,3:2|3:2,0:0:0:0:
464,192,104340,2,0,L|456:128,1,60,10|10,0:0|0:0,0:0:0:0:
297,228,104673,6,0,L|161:216,2,120,4|8|0,3:2|0:0|0:0,0:0:0:0:
452,228,105673,1,10,0:0:0:0:
320,224,106007,2,0,L|448:212,2,120,4|8|10,3:2|0:0|0:0,0:0:0:0:
164,232,107007,1,10,0:0:0:0:
416,336,107340,6,0,L|424:264,1,60,4|8,3:2|0:0,0:0:0:0:
348,232,107673,2,0,L|340:160,1,60,8|8,0:0|0:0,0:0:0:0:
264,340,108007,2,0,L|272:268,1,60,8|8,0:0|0:0,0:0:0:0:
196,236,108340,2,0,L|188:164,1,60,8|8,0:0|0:0,0:0:0:0:
353,248,108673,6,0,L|487:221,3,120,12|8|2|0,0:0|0:0|0:0|0:0,0:0:0:0:
189,146,110007,1,2,3:0:0:0:
256,192,110340,12,2,115173,0:0:0:0:
