osu file format v14

[General]
AudioFilename: audio.mp3
AudioLeadIn: 0
PreviewTime: 67340
Countdown: 0
SampleSet: Soft
StackLeniency: 0.7
Mode: 2
LetterboxInBreaks: 0
WidescreenStoryboard: 1

[Editor]
Bookmarks: 674,11340,22007,32673,43340,54007,67340,78007,88673,99340,110007,115173
DistanceSpacing: 1
BeatDivisor: 4
GridSize: 4
TimelineZoom: 1.5

[Metadata]
Title:Oriental Blossom
TitleUnicode:Oriental Blossom
Artist:Eisyo-kobu
ArtistUnicode:影翔鼓舞
Creator:celerih
Version:Platter
Source:SOUND VOLTEX III GRAVITY WARS
Tags:sdvx 影虎。Kagetora. saka=ichi The 4th KACオリジナル楽曲コンテスト Original Song Contest konami arcade championship gaia
BeatmapID:1535995
BeatmapSetID:727539

[Difficulty]
HPDrainRate:4
CircleSize:3.5
OverallDifficulty:8
ApproachRate:8
SliderMultiplier:1.4
SliderTickRate:1

[Events]
//Background and Video events
0,0,"Oriental Blossom BG.jpg",0,0
//Break Periods
2,54207,58590
//Storyboard Layer 0 (Background)
//Storyboard Layer 1 (Fail)
//Storyboard Layer 2 (Pass)
//Storyboard Layer 3 (Foreground)
//Storyboard Sound Samples

[TimingPoints]
674,333.333333333333,4,2,52,65,1,0
4590,-100,4,2,58,60,0,0
4757,-100,4,2,52,60,0,0
6007,-100,4,2,51,60,0,0
31340,-100,4,2,51,65,0,0
32840,-100,4,2,51,60,0,0
36840,-100,4,2,51,70,0,0
37007,-100,4,2,51,60,0,0
37173,-100,4,2,51,70,0,0
37673,-100,4,2,51,60,0,0
37840,-100,4,2,51,70,0,0
38007,-100,4,2,51,60,0,0
40340,-100,4,2,51,70,0,0
41007,-100,4,2,51,60,0,0
41340,-100,4,2,51,70,0,0
41673,-100,4,2,51,60,0,0
42007,-100,4,2,51,70,0,0
42090,-100,4,2,51,60,0,0
42673,-100,4,2,51,70,0,0
43007,-100,4,2,51,65,0,0
43340,-100,4,2,51,60,0,0
47507,-100,4,2,51,70,0,0
47673,-100,4,2,51,60,0,0
47840,-100,4,2,51,70,0,0
48340,-100,4,2,51,60,0,0
48507,-100,4,2,51,70,0,0
48673,-100,4,2,51,60,0,0
54007,-100,4,2,51,50,0,0
54090,-100,4,2,52,50,0,0
59340,-100,4,2,51,60,0,0
64673,-100,4,3,55,70,0,0
65007,-100,4,3,55,50,0,0
65173,-100,4,3,55,60,0,0
65507,-100,4,3,55,70,0,0
65673,-100,4,3,55,60,0,0
66007,-100,4,2,51,70,0,0
73673,-100,4,2,70,70,0,0
73757,-100,4,2,51,70,0,0
81673,-100,4,2,70,70,0,0
81757,-100,4,2,51,70,0,0
88673,-100,4,2,51,70,0,1
98007,-100,4,2,51,70,0,0
99340,-100,4,2,51,70,0,1
108673,-100,4,2,51,60,0,1
110007,-100,4,2,51,70,0,0
115173,-100,4,2,51,30,0,0

[Colours]
Combo1 : 197,175,182
Combo2 : 211,77,102
Combo3 : 183,125,158
Combo4 : 236,117,227

[HitObjects]
288,192,674,6,0,L|448:188,2,140,0|0|8,3:0|0:0|0:1,0:0:0:0:
116,272,1673,2,0,L|108:192,1,70,0|0,0:0|3:0,0:0:0:0:
152,184,1923,1,0,0:0:0:0:
256,188,2007,6,0,P|320:112|232:60,1,210,2|0,0:3|0:0,0:0:0:0:
88,100,2673,2,0,L|260:84,1,140,8|0,0:1|0:0,0:0:0:0:
376,184,3340,6,0,L|228:160,2,140,0|0|8,3:0|0:0|0:1,0:0:0:0:
232,260,4340,2,0,L|156:264,1,70,0|0,0:0|3:0,0:0:0:0:
92,244,4673,2,0,L|180:252,2,70,0|0|0,0:0|3:0|0:0,0:0:0:0:
240,196,5340,2,0,L|400:180,1,140,8|0,0:1|3:0,0:0:0:0:
64,280,6007,6,0,P|56:220|132:196,1,140,0|0,3:0|3:0,0:0:0:0:
272,212,6673,2,0,L|356:208,2,70,8|0|0,0:0|0:0|3:0,0:0:0:0:
128,300,7340,2,0,L|272:288,1,140,2|0,3:3|3:0,0:0:0:0:
392,320,8006,2,0,L|476:324,2,70,8|0|0,0:0|0:0|3:0,0:0:0:0:
108,188,8673,6,0,L|24:184,2,70,0|0|0,3:0|3:0|3:0,0:0:0:0:
196,188,9173,1,0,3:0:0:0:
360,148,9340,2,0,L|368:72,1,70,8|0,0:0|3:0,0:0:0:0:
284,286,9673,2,0,L|276:210,1,70,0|0,3:0|3:0,0:0:0:0:
108,168,10007,5,4,0:1:0:0:
392,200,10840,1,0,3:0:0:0:
472,184,11007,1,8,0:0:0:0:
68,108,11340,6,0,P|40:164|96:236,1,140,4|10,3:2|0:0,0:0:0:0:
160,224,11840,1,0,0:0:0:0:
332,256,12007,2,0,L|424:260,2,70,2|2|10,0:0|3:2|0:0,0:0:0:0:
420,236,12507,1,0,0:0:0:0:
184,292,12673,6,0,P|116:268|104:200,1,140,2|10,3:2|0:0,0:0:0:0:
176,160,13173,1,2,3:2:0:0:
328,104,13340,2,0,P|408:140|340:212,1,210,2|2,0:0|0:0,0:0:0:0:
120,188,14007,6,0,P|76:144|128:96,1,140,2|10,3:2|0:0,0:0:0:0:
200,104,14507,1,2,0:0:0:0:
48,224,14673,2,0,L|272:200,1,210,2|0,0:0|0:0,0:0:0:0:
416,224,15340,6,0,L|504:216,2,70,0|0|8,0:0|3:0|0:0,0:0:0:0:
328,224,15840,1,2,0:0:0:0:
96,180,16007,2,0,L|8:168,2,70,0|0|10,3:0|3:0|0:0,0:0:0:0:
240,188,16507,6,0,P|280:116|184:40,1,210,0|10,0:0|0:0,0:0:0:0:
112,44,17173,1,0,0:0:0:0:
280,144,17340,2,0,L|200:136,1,70,2|0,0:0|3:0,0:0:0:0:
112,128,17673,2,0,L|104:48,1,70,8|0,0:0|0:0,0:0:0:0:
348,240,18007,6,0,L|512:224,2,140,2|10|0,3:2|0:0|0:0,0:0:0:0:
220,224,19007,2,0,L|136:216,1,70,8|2,0:0|0:0,0:0:0:0:
300,172,19340,5,0,3:0:0:0:
152,120,19673,1,8,0:0:0:0:
72,140,19840,2,0,L|-12:144,2,70,2|2|0,0:0|0:0|3:0,0:0:0:0:
152,168,20340,2,0,L|228:160,1,70,8|0,0:0|3:0,0:0:0:0:
384,168,20673,6,0,L|436:112,1,70,2|2,0:0|3:2,0:0:0:0:
344,80,21007,2,0,L|244:88,2,70,10|2|0,0:0|0:0|3:0,0:0:0:0:
472,88,21673,1,8,0:0:0:0:
48,232,22007,6,0,P|36:148|160:124,1,210,6|0,3:2|0:0,0:0:0:0:
232,112,22673,1,2,0:0:0:0:
264,112,22757,1,0,0:0:0:0:
296,112,22840,1,2,3:2:0:0:
380,172,23007,1,10,0:0:0:0:
348,172,23091,1,0,0:0:0:0:
316,172,23174,1,2,0:0:0:0:
152,176,23340,5,0,3:0:0:0:
236,216,23507,2,0,L|264:184,2,35,2|2|8,0:0|0:0|0:0,0:0:0:0:
136,280,23840,2,0,L|112:244,1,35,2|2,3:2|0:0,0:0:0:0:
136,280,24007,2,0,L|348:264,1,210,2|0,0:0|0:0,0:0:0:0:
112,212,24673,5,0,3:0:0:0:
40,164,24840,1,2,0:0:0:0:
84,172,24923,1,2,0:0:0:0:
128,180,25007,1,10,0:0:0:0:
208,172,25173,1,0,0:0:0:0:
276,112,25340,1,2,0:0:0:0:
240,108,25423,1,2,0:0:0:0:
204,104,25507,1,2,3:2:0:0:
432,228,25673,2,0,L|456:148,1,70,10|2,0:0|0:0,0:0:0:0:
288,128,26007,5,2,0:0:0:0:
256,124,26091,1,0,0:0:0:0:
224,120,26174,1,2,3:2:0:0:
136,164,26341,1,10,0:0:0:0:
48,160,26507,1,2,0:0:0:0:
36,128,26590,1,0,0:0:0:0:
24,96,26673,1,0,3:0:0:0:
100,56,26840,1,0,3:0:0:0:
336,232,27007,1,10,0:0:0:0:
376,216,27090,1,2,0:0:0:0:
392,172,27173,1,2,0:0:0:0:
376,216,27257,1,2,0:0:0:0:
336,232,27340,5,0,3:0:0:0:
236,120,27507,2,0,L|144:112,1,70,2|10,0:0|0:0,0:0:0:0:
252,112,27840,1,2,0:0:0:0:
412,168,28007,2,0,P|480:220|476:272,1,140,2|8,0:0|0:0,0:0:0:0:
392,276,28507,1,2,0:0:0:0:
156,192,28673,5,2,3:2:0:0:
60,184,28839,1,2,0:0:0:0:
20,160,28923,1,2,0:0:0:0:
8,116,29006,1,10,0:0:0:0:
20,160,29089,1,0,0:0:0:0:
60,184,29173,1,2,3:2:0:0:
232,192,29340,2,0,L|444:164,1,210,2|0,0:0|0:0,0:0:0:0:
200,272,30007,6,0,L|130:269,2,70,6|0|8,3:2|0:0|0:0,0:0:0:0:
288,272,30507,2,0,L|436:256,1,140,2|2,0:0|3:2,0:0:0:0:
356,188,31007,2,0,L|436:180,1,70,8|2,0:0|3:2,0:0:0:0:
176,196,31340,6,0,L|48:188,2,105,12|12|12,0:2|0:0|0:0,0:0:0:0:
336,208,32007,1,12,0:0:0:0:
428,200,32173,1,8,0:0:0:0:
452,160,32257,1,8,0:0:0:0:
472,120,32340,1,8,0:0:0:0:
452,160,32423,1,8,0:0:0:0:
428,200,32507,1,8,0:0:0:0:
192,244,32673,6,0,L|112:240,2,70,4|2|8,3:2|0:0|0:0,0:0:0:0:
356,236,33173,2,0,P|348:176|264:160,1,140,2|0,0:0|3:0,0:0:0:0:
196,160,33673,2,0,L|116:156,1,70,8|2,0:0|0:0,0:0:0:0:
292,220,34007,6,0,L|304:128,1,70,2|2,3:2|0:0,0:0:0:0:
224,272,34340,2,0,L|212:180,1,70,8|0,0:0|0:0,0:0:0:0:
320,140,34673,1,0,0:0:0:0:
192,104,35007,2,0,L|112:104,1,70,8|2,0:0|0:0,0:0:0:0:
288,236,35340,6,0,L|436:220,2,140,2|10|2,3:2|0:0|0:0,0:0:0:0:
200,232,36173,1,0,3:0:0:0:
356,96,36340,2,0,L|444:104,1,70,10|0,0:0|3:0,0:0:0:0:
188,232,36673,6,0,L|176:160,1,70,2|8,0:0|0:1,0:0:0:0:
216,160,36923,1,8,0:1:0:0:
256,160,37007,2,0,L|332:160,1,70,8|8,0:0|0:1,0:0:0:0:
156,312,37340,2,0,L|148:236,1,70,8|8,3:1|3:1,0:0:0:0:
224,352,37673,2,0,L|232:276,1,70,8|8,0:2|0:1,0:0:0:0:
52,216,38007,6,0,L|144:208,1,70,2|2,3:2|0:0,0:0:0:0:
152,204,38257,1,2,0:0:0:0:
184,200,38340,1,8,0:0:0:0:
268,184,38507,1,2,0:0:0:0:
236,176,38590,1,0,0:0:0:0:
204,172,38673,1,0,0:0:0:0:
112,160,38840,1,2,3:2:0:0:
268,88,39007,2,0,L|344:84,1,70,8|0,0:0|0:0,0:0:0:0:
108,268,39340,6,0,L|12:260,2,70,2|2|0,3:2|0:0|0:0,0:0:0:0:
192,268,39840,2,0,L|272:260,1,70,0|0,0:0|0:0,0:0:0:0:
400,232,40340,6,0,L|496:224,2,70,10|2|8,1:2|0:0|1:3,0:0:0:0:
316,232,40840,2,0,L|236:224,1,70,2|8,0:0|1:2,0:0:0:0:
104,176,41340,6,0,L|8:168,2,70,0|2|8,1:0|3:2|1:2,0:0:0:0:
192,184,41840,1,0,3:0:0:0:
360,184,42007,6,0,L|504:176,1,140,2|8,1:2|3:2,0:0:0:0:
424,124,42507,1,8,0:1:0:0:
340,92,42673,2,0,L|420:88,1,70,8|8,3:1|0:1,0:0:0:0:
232,232,43007,1,8,0:0:0:0:
200,228,43090,1,8,0:0:0:0:
168,224,43173,1,8,0:0:0:0:
412,304,43340,6,0,P|480:248|384:192,1,210,4|0,3:2|0:0,0:0:0:0:
324,188,44007,2,0,L|204:180,2,105,2|2|2,0:0|0:0|0:0,0:0:0:0:
152,320,44673,6,0,P|80:280|168:228,1,210,2|0,3:0|3:0,0:0:0:0:
240,224,45340,2,0,B|320:212|320:212|256:88,1,210,0|0,0:0|0:0,0:0:0:0:
88,96,46007,6,0,L|232:84,2,140,8|8|0,1:3|1:2|1:1,0:0:0:0:
268,200,47007,1,8,1:2:0:0:
104,212,47340,6,0,L|92:120,1,70,4|8,1:1|3:1,0:0:0:0:
180,248,47673,2,0,L|192:172,1,70,8|8,0:0|0:1,0:0:0:0:
24,140,48007,2,0,L|100:132,1,70,8|8,3:1|3:1,0:0:0:0:
180,168,48340,2,0,L|100:160,1,70,8|8,0:0|3:1,0:0:0:0:
356,240,48673,6,0,L|452:232,2,70,4|2|8,3:2|0:0|0:0,0:0:0:0:
263,238,49173,2,0,P|231:186|287:130,1,140,2|0,0:0|3:0,0:0:0:0:
364,136,49673,2,0,L|276:136,1,70,8|0,0:0|0:0,0:0:0:0:
48,264,50007,6,0,P|32:168|124:136,1,210,4|0,3:1|3:0,0:0:0:0:
208,136,50673,2,0,P|276:84|196:24,1,210,0|0,0:0|0:0,0:0:0:0:
32,80,51340,6,0,L|104:64,1,70,4|2,3:2|0:0,0:0:0:0:
132,56,51590,1,2,0:0:0:0:
164,48,51673,1,8,0:0:0:0:
312,132,52007,1,2,0:0:0:0:
284,128,52090,1,2,0:0:0:0:
260,124,52173,1,2,3:2:0:0:
170,117,52340,2,0,L|96:120,1,70,10|2,0:0|3:2,0:0:0:0:
360,268,52673,6,0,L|476:256,2,105,12|12|12,0:2|0:0|0:0,0:0:0:0:
204,296,53340,1,8,0:0:0:0:
292,276,53507,1,8,0:0:0:0:
332,256,53590,1,8,0:0:0:0:
344,212,53673,1,8,0:0:0:0:
332,256,53757,1,8,0:0:0:0:
292,276,53840,1,8,0:0:0:0:
40,220,54007,1,4,3:2:0:0:
288,192,59340,6,0,L|136:180,2,140,12|8|8,0:0|0:0|0:0,0:0:0:0:
428,192,60340,1,8,0:0:0:0:
276,276,60673,6,0,L|428:264,2,140,12|8|8,0:0|0:0|0:0,0:0:0:0:
136,276,61673,1,8,0:0:0:0:
400,224,62007,6,0,L|484:232,2,70,12|8|8,0:0|0:0|0:0,0:0:0:0:
248,192,62673,2,0,L|164:200,2,70,8|8|8,0:0|0:0|0:0,0:0:0:0:
408,188,63340,6,0,L|424:96,1,70,12|8,0:0|0:0,0:0:0:0:
340,116,63673,2,0,L|324:24,1,70,8|8,0:0|0:0,0:0:0:0:
248,192,64007,2,0,L|264:100,1,70,8|8,0:0|0:0,0:0:0:0:
180,120,64340,2,0,L|164:28,1,70,8|8,0:0|0:0,0:0:0:0:
420,48,64673,5,4,0:0:0:0:
216,240,66007,6,0,L|136:224,1,70,2|2,3:2|0:0,0:0:0:0:
236,184,66340,2,0,L|316:168,1,70,2|2,0:0|0:0,0:0:0:0:
216,140,66673,2,0,L|136:124,1,70,2|2,0:0|0:0,0:0:0:0:
320,108,67007,1,10,0:0:0:0:
352,104,67090,1,8,0:0:0:0:
384,100,67173,1,10,0:0:0:0:
136,276,67340,6,0,P|72:248|48:184,1,140,4|8,3:2|0:0,0:0:0:0:
200,140,68007,2,0,L|300:132,2,70,4|4|8,0:3|3:0|0:0,0:0:0:0:
116,140,68507,1,4,0:3:0:0:
344,80,68673,6,0,P|384:136|340:188,1,140,4|10,3:3|0:0,0:0:0:0:
264,192,69173,1,4,3:3:0:0:
96,104,69340,2,0,L|236:92,1,140,4|10,0:3|0:0,0:0:0:0:
320,96,69840,1,4,0:3:0:0:
76,264,70007,6,0,P|36:240|76:168,1,140,8|10,1:3|0:0,0:0:0:0:
152,168,70507,1,4,0:3:0:0:
312,224,70673,2,0,L|160:208,1,140,2|10,1:2|0:0,0:0:0:0:
96,216,71173,1,4,3:0:0:0:
192,144,71340,6,0,L|272:136,2,70,2|0|0,1:2|3:0|0:0,0:0:0:0:
108,128,71840,1,0,0:0:0:0:
32,104,72007,2,0,L|24:24,1,70,2|0,0:2|3:0,0:0:0:0:
192,144,72340,2,0,L|112:136,1,70,10|2,0:0|0:0,0:0:0:0:
364,252,72673,6,0,L|508:240,1,140,2|10,3:3|0:0,0:0:0:0:
352,328,73340,2,0,L|280:320,1,70,4|0,0:3|3:0,0:0:0:0:
354,278,73673,2,0,L|426:270,1,70,14|0,0:0|0:0,0:0:0:0:
172,304,74007,5,8,1:3:0:0:
88,296,74173,1,0,0:0:0:0:
68,263,74257,1,0,0:0:0:0:
48,232,74340,2,0,L|122:183,1,70,8|0,1:2|3:0,0:0:0:0:
256,304,74673,2,0,L|404:292,1,140,0|10,1:0|0:0,0:0:0:0:
488,304,75173,1,4,0:3:0:0:
256,208,75340,6,0,L|100:196,1,140,12|8,1:3|0:0,0:0:0:0:
36,200,75840,1,4,0:3:0:0:
200,280,76007,2,0,L|296:272,2,70,4|2|8,0:3|3:2|0:0,0:0:0:0:
120,276,76507,1,4,3:0:0:0:
364,172,76673,6,0,L|372:100,1,70,2|2,1:2|0:0,0:0:0:0:
272,232,77007,2,0,L|264:160,1,70,8|2,1:2|0:0,0:0:0:0:
364,264,77340,2,0,L|436:256,1,70,8|0,1:3|3:0,0:0:0:0:
268,184,77673,1,8,0:0:0:0:
352,176,77840,1,0,0:0:0:0:
96,304,78007,6,0,P|56:256|112:208,1,140,2|8,3:0|0:0,0:0:0:0:
280,236,78674,2,0,L|376:228,2,70,4|4|8,0:3|3:0|0:0,0:0:0:0:
200,240,79174,1,4,0:3:0:0:
448,220,79340,6,0,L|472:72,1,140,4|8,3:3|0:0,0:0:0:0:
388,80,79840,1,4,3:3:0:0:
208,80,80007,2,0,P|176:124|236:176,1,140,4|8,0:3|0:0,0:0:0:0:
312,172,80507,1,4,0:3:0:0:
56,256,80674,6,0,P|20:216|76:164,1,140,8|8,1:3|0:0,0:0:0:0:
144,168,81174,1,4,0:3:0:0:
320,252,81340,2,0,L|168:236,1,140,2|14,1:2|0:0,0:0:0:0:
100,240,81840,1,4,3:3:0:0:
340,132,82007,6,0,L|420:128,2,70,4|4|10,0:3|3:3|0:0,0:0:0:0:
260,136,82507,1,4,0:3:0:0:
88,224,82673,2,0,L|240:212,1,140,4|8,3:3|0:0,0:0:0:0:
312,216,83173,1,2,0:0:0:0:
72,116,83340,6,0,L|2:112,2,70,6|4|8,0:3|0:3|0:0,0:0:0:0:
152,116,83840,2,0,L|312:100,1,140,4|0,0:3|3:2,0:0:0:0:
120,248,84340,6,0,L|40:240,2,70,8|4|4,0:0|0:3|3:0,0:0:0:0:
200,260,84840,2,0,L|360:244,1,140,4|0,0:3|3:3,0:0:0:0:
252,176,85340,2,0,L|244:92,1,70,4|4,0:3|3:0,0:0:0:0:
328,208,85673,2,0,L|336:124,1,70,8|4,0:0|0:3,0:0:0:0:
96,280,86007,6,0,L|20:272,2,70,4|0|8,3:2|0:0|0:0,0:0:0:0:
264,256,86507,2,0,P|304:204|264:136,1,140,4|2,0:1|3:0,0:0:0:0:
191,133,87007,2,0,L|121:138,1,70,8|0,0:0|3:0,0:0:0:0:
372,272,87340,6,0,L|500:276,2,105,12|12|12,0:0|0:0|0:0,0:0:0:0:
204,312,88007,2,0,L|192:216,1,70,0|8,0:0|0:0,0:0:0:0:
228,232,88257,1,8,0:0:0:0:
264,228,88340,1,8,0:0:0:0:
300,224,88423,1,8,0:0:0:0:
336,220,88507,1,8,0:0:0:0:
84,252,88673,6,0,P|64:180|184:144,1,210,4|2,3:2|0:0,0:0:0:0:
336,220,89339,1,2,0:0:0:0:
372,216,89423,1,0,0:0:0:0:
408,212,89506,1,2,3:2:0:0:
328,296,89673,1,10,0:0:0:0:
292,292,89757,1,0,0:0:0:0:
256,288,89840,1,2,0:0:0:0:
428,168,90006,5,2,3:2:0:0:
325,136,90173,2,0,L|278:95,2,35,2|2|10,0:0|0:0|0:0,0:0:0:0:
408,100,90506,2,0,L|436:64,1,35,2|2,3:2|0:0,0:0:0:0:
408,100,90673,2,0,P|328:148|416:192,1,210,2|0,0:0|0:0,0:0:0:0:
132,248,91339,5,2,3:2:0:0:
52,220,91506,2,0,L|28:188,2,35,2|0|8,0:0|0:0|0:0,0:0:0:0:
132,248,91839,1,2,0:0:0:0:
224,236,92007,1,2,0:0:0:0:
260,232,92090,1,2,0:0:0:0:
296,228,92173,1,2,3:2:0:0:
128,152,92340,2,0,L|48:144,1,70,8|2,0:0|3:2,0:0:0:0:
232,92,92673,5,2,0:0:0:0:
268,88,92757,1,0,0:0:0:0:
304,84,92840,1,2,3:2:0:0:
384,148,93007,1,10,0:0:0:0:
308,168,93173,1,2,0:0:0:0:
312,136,93256,1,2,0:0:0:0:
320,100,93339,1,2,3:2:0:0:
408,60,93506,1,2,3:2:0:0:
164,264,93673,1,10,0:0:0:0:
120,240,93756,1,0,0:0:0:0:
108,192,93839,1,2,0:0:0:0:
120,240,93923,1,0,0:0:0:0:
164,264,94006,5,2,3:0:0:0:
256,272,94173,2,0,L|352:268,1,70,2|8,0:0|0:0,0:0:0:0:
412,264,94506,1,2,0:0:0:0:
252,108,94673,2,0,L|100:96,1,140,2|8,0:0|0:0,0:0:0:0:
32,96,95173,1,0,0:0:0:0:
264,236,95339,5,2,3:2:0:0:
352,228,95507,1,2,0:0:0:0:
396,204,95589,1,0,0:0:0:0:
408,156,95672,1,10,0:0:0:0:
396,204,95757,1,0,0:0:0:0:
352,228,95839,1,2,3:2:0:0:
180,220,96007,2,0,L|396:196,1,210,2|0,0:0|0:0,0:0:0:0:
152,312,96673,6,0,L|60:304,2,70,2|2|10,3:2|0:0|0:0,0:0:0:0:
320,288,97173,2,0,P|365:249|317:193,1,140,2|0,0:0|3:0,0:0:0:0:
240,192,97673,2,0,L|152:184,1,70,8|0,0:0|3:0,0:0:0:0:
352,176,98007,2,0,L|364:96,1,70,2|2,0:0|3:2,0:0:0:0:
283,189,98340,2,0,L|363:173,1,70,10|2,0:0|0:0,0:0:0:0:
261,186,98673,2,0,L|241:106,1,70,2|2,3:2|3:2,0:0:0:0:
404,285,99007,1,10,0:0:0:0:
444,281,99090,1,8,0:0:0:0:
484,277,99173,1,10,0:0:0:0:
217,276,99340,6,0,L|123:271,2,70,4|2|10,3:2|0:0|0:0,0:0:0:0:
299,278,99840,1,2,0:0:0:0:
120,208,100007,2,0,L|32:200,1,70,2|2,0:0|3:2,0:0:0:0:
128,160,100340,1,10,0:0:0:0:
164,156,100423,1,0,0:0:0:0:
200,156,100507,1,2,0:0:0:0:
436,144,100673,6,0,L|452:68,1,70,2|2,3:2|0:0,0:0:0:0:
368,88,101007,2,0,L|356:8,1,70,8|0,0:0|3:0,0:0:0:0:
120,172,101340,2,0,L|112:72,1,70,0|8,1:0|0:3,0:0:0:0:
292,224,101673,2,0,L|388:212,1,70,8|0,1:2|0:0,0:0:0:0:
124,200,102007,5,2,3:0:0:0:
40,176,102173,1,2,0:0:0:0:
32,144,102257,1,2,0:0:0:0:
24,112,102340,1,8,0:0:0:0:
131,109,102507,1,2,0:0:0:0:
163,101,102590,1,2,0:0:0:0:
195,93,102674,1,2,0:0:0:0:
288,56,102840,1,2,3:2:0:0:
320,64,102924,1,2,0:0:0:0:
352,72,103007,2,0,L|422:68,1,70,8|0,0:0|3:0,0:0:0:0:
176,268,103340,6,0,L|92:252,1,70,2|2,0:0|3:2,0:0:0:0:
164,176,103673,2,0,L|260:184,1,70,10|2,0:0|0:0,0:0:0:0:
320,200,104007,2,0,L|248:212,1,70,2|2,3:2|3:2,0:0:0:0:
408,292,104340,1,10,0:0:0:0:
440,292,104423,1,8,0:0:0:0:
472,292,104506,1,10,0:0:0:0:
228,268,104673,5,4,3:2:0:0:
144,260,104840,1,2,0:0:0:0:
112,256,104923,1,2,0:0:0:0:
80,252,105007,2,0,L|236:236,2,140,8|0|10,0:0|0:0|0:0,0:0:0:0:
160,256,105840,1,2,0:0:0:0:
409,325,106007,5,4,3:2:0:0:
482,300,106174,1,0,0:1:0:0:
488,271,106257,1,2,0:0:0:0:
490,241,106341,2,0,L|334:225,2,140,8|0|10,0:0|0:0|0:0,0:0:0:0:
392,248,107174,1,2,0:0:0:0:
128,240,107340,6,0,L|120:148,1,70,4|8,3:2|0:0,0:0:0:0:
200,168,107673,2,0,L|208:76,1,70,8|8,0:0|0:0,0:0:0:0:
284,248,108007,2,0,L|276:156,1,70,8|8,0:0|0:0,0:0:0:0:
356,176,108340,2,0,L|364:84,1,70,8|8,0:0|0:0,0:0:0:0:
116,256,108673,5,12,0:0:0:0:
92,220,108757,1,8,0:0:0:0:
92,176,108840,1,8,0:0:0:0:
192,152,109007,1,8,0:0:0:0:
216,188,109091,1,8,0:0:0:0:
216,232,109174,1,8,0:0:0:0:
108,284,109340,5,8,0:0:0:0:
76,296,109423,1,8,0:0:0:0:
44,308,109507,1,8,0:0:0:0:
80,316,109590,1,8,0:0:0:0:
116,324,109673,1,8,0:0:0:0:
152,332,109757,1,8,0:0:0:0:
188,340,109840,1,8,0:0:0:0:
448,192,110007,5,2,3:0:0:0:
256,192,110173,12,2,115173,0:0:0:0:
