osu file format v14

[General]
AudioFilename: audio.mp3
AudioLeadIn: 0
PreviewTime: 67340
Countdown: 0
SampleSet: Soft
StackLeniency: 0.7
Mode: 2
LetterboxInBreaks: 0
WidescreenStoryboard: 1

[Editor]
Bookmarks: 674,11340,22007,32673,43340,54007,67340,78007,88673,99340,110007,115173
DistanceSpacing: 1.2
BeatDivisor: 2
GridSize: 4
TimelineZoom: 1

[Metadata]
Title:Oriental Blossom
TitleUnicode:Oriental Blossom
Artist:Eisyo-kobu
ArtistUnicode:影翔鼓舞
Creator:celerih
Version:Cup
Source:SOUND VOLTEX III GRAVITY WARS
Tags:sdvx 影虎。Kagetora. saka=ichi The 4th KACオリジナル楽曲コンテスト Original Song Contest konami arcade championship gaia
BeatmapID:1535993
BeatmapSetID:727539

[Difficulty]
HPDrainRate:2
CircleSize:2.5
OverallDifficulty:6
ApproachRate:6
SliderMultiplier:1
SliderTickRate:1

[Events]
//Background and Video events
0,0,"Oriental Blossom BG.jpg",0,0
//Break Periods
2,54207,58290
//Storyboard Layer 0 (Background)
//Storyboard Layer 1 (Fail)
//Storyboard Layer 2 (Pass)
//Storyboard Layer 3 (Foreground)
//Storyboard Sound Samples

[TimingPoints]
674,333.333333333333,4,2,52,65,1,0
4590,-100,4,2,58,60,0,0
4757,-100,4,2,52,60,0,0
6007,-100,4,2,51,60,0,0
31340,-100,4,2,51,65,0,0
32840,-100,4,2,51,60,0,0
36840,-100,4,2,51,70,0,0
37007,-100,4,2,51,60,0,0
37173,-100,4,2,51,70,0,0
37673,-100,4,2,51,60,0,0
37840,-100,4,2,51,70,0,0
38007,-100,4,2,51,60,0,0
40340,-100,4,2,51,70,0,0
41007,-100,4,2,51,60,0,0
41340,-100,4,2,51,70,0,0
41673,-100,4,2,51,60,0,0
42007,-100,4,2,51,70,0,0
42090,-100,4,2,51,60,0,0
42673,-100,4,2,51,70,0,0
43007,-100,4,2,51,65,0,0
43340,-100,4,2,51,60,0,0
47507,-100,4,2,51,70,0,0
47673,-100,4,2,51,60,0,0
47840,-100,4,2,51,70,0,0
48340,-100,4,2,51,60,0,0
48507,-100,4,2,51,70,0,0
48673,-100,4,2,51,60,0,0
54007,-100,4,2,51,50,0,0
54090,-100,4,2,52,50,0,0
59340,-100,4,2,51,60,0,0
64673,-100,4,3,55,70,0,0
65007,-100,4,3,55,50,0,0
65173,-100,4,3,55,60,0,0
65507,-100,4,3,55,70,0,0
65673,-100,4,3,55,60,0,0
66007,-100,4,2,51,70,0,0
73673,-100,4,2,70,70,0,0
73757,-100,4,2,51,70,0,0
81673,-100,4,2,70,70,0,0
81757,-100,4,2,51,70,0,0
88673,-100,4,2,51,70,0,1
98007,-100,4,2,51,70,0,0
99340,-100,4,2,51,70,0,1
108673,-100,4,2,51,60,0,1
110007,-100,4,2,51,70,0,0
115173,-100,4,2,51,30,0,0

[Colours]
Combo1 : 197,175,182
Combo2 : 211,77,102
Combo3 : 183,125,158
Combo4 : 236,117,227

[HitObjects]
196,192,674,6,0,L|76:180,2,100,0|0|8,3:0|0:0|0:1,0:0:0:0:
412,192,2007,2,0,P|432:104|328:72,1,200,2|8,0:3|0:1,0:0:0:0:
248,68,3007,1,0,0:0:0:0:
380,80,3340,6,0,P|288:60|172:88,1,200,0|8,3:0|0:1,0:0:0:0:
72,88,4340,2,0,L|272:32,1,200,0|0,0:0|0:0,0:0:0:0:
408,144,5340,2,0,L|512:152,1,100,8|0,0:1|3:0,0:0:0:0:
344,240,6007,6,0,L|236:244,2,100,0|0|8,3:0|3:0|0:0,0:0:0:0:
152,208,7340,2,0,L|264:200,2,100,2|0|8,3:3|3:0|0:0,0:0:0:0:
344,244,8673,6,0,L|388:148,1,100,0|0,3:0|3:0,0:0:0:0:
264,172,9340,2,0,L|232:68,1,100,8|0,0:0|3:0,0:0:0:0:
384,28,10007,5,4,0:1:0:0:
92,196,10840,2,0,L|86:146,1,50,0|8,3:0|0:0,0:0:0:0:
232,192,11340,6,0,L|352:180,1,100,4|10,3:2|0:0,0:0:0:0:
208,108,12007,1,2,0:0:0:0:
100,96,12340,1,10,0:0:0:0:
260,252,12673,2,0,L|360:232,2,100,2|10|2,3:2|0:0|0:0,0:0:0:0:
72,244,14007,6,0,L|17:147,1,100,2|10,3:2|0:0,0:0:0:0:
127,105,14673,2,0,L|231:97,1,100,2|10,0:0|0:0,0:0:0:0:
352,208,15340,6,0,L|384:248,2,50,0|0|8,0:0|3:0|0:0,0:0:0:0:
228,216,16007,2,0,L|212:96,1,100,0|10,3:0|0:0,0:0:0:0:
392,144,16673,6,0,P|384:56|280:44,1,200,2|2,3:2|0:0,0:0:0:0:
160,68,17673,1,8,0:0:0:0:
324,200,18007,2,0,L|440:188,2,100,2|10|0,3:2|0:0|0:0,0:0:0:0:
184,196,19007,1,8,0:0:0:0:
56,184,19340,5,0,3:0:0:0:
192,228,19673,2,0,L|304:224,2,100,8|2|8,0:0|0:0|0:0,0:0:0:0:
44,228,20673,1,2,0:0:0:0:
8,144,21007,1,10,0:0:0:0:
44,228,21340,1,0,3:0:0:0:
256,152,22007,6,0,P|328:192|256:240,1,200,6|2,3:2|0:0,0:0:0:0:
152,248,23007,1,10,0:0:0:0:
296,300,23340,2,0,L|412:296,2,100,0|8|2,3:0|0:0|0:0,0:0:0:0:
180,296,24340,1,8,0:0:0:0:
340,236,24673,6,0,L|352:128,1,100,0|10,3:0|0:0,0:0:0:0:
228,160,25340,2,0,L|216:48,1,100,2|10,0:0|0:0,0:0:0:0:
364,84,26007,2,0,L|257:66,1,100,2|10,0:0|0:0,0:0:0:0:
339,139,26507,2,0,L|489:118,1,150,2|10,0:0|0:0,0:0:0:0:
345,190,27340,6,0,L|233:182,2,100,0|10|2,3:0|0:0|0:0,0:0:0:0:
220,204,28340,1,8,0:0:0:0:
60,180,28673,6,0,L|52:60,1,100,2|10,3:2|0:0,0:0:0:0:
132,72,29173,1,2,3:2:0:0:
216,72,29340,2,0,L|320:36,1,100,2|8,0:0|0:0,0:0:0:0:
148,296,30007,6,0,P|100:232|140:176,1,150,6|2,3:2|0:0,0:0:0:0:
308,168,31007,1,8,0:0:0:0:
428,228,31340,2,0,L|516:232,2,75,12|12|12,0:2|0:0|0:0,0:0:0:0:
344,272,32007,2,0,P|320:220|340:160,1,100,12|8,0:0|0:0,0:0:0:0:
488,144,32673,6,0,L|328:132,1,150,4|2,3:2|0:0,0:0:0:0:
200,160,33507,2,0,L|192:96,1,50,0|8,3:0|0:0,0:0:0:0:
344,212,34007,2,0,L|356:100,1,100,2|8,3:2|0:0,0:0:0:0:
228,88,34673,1,0,0:0:0:0:
104,84,35007,1,8,0:0:0:0:
260,196,35340,6,0,L|372:188,2,100,2|10|2,3:2|0:0|0:0,0:0:0:0:
140,192,36340,1,10,0:0:0:0:
312,184,36673,6,0,L|324:64,1,100,2|8,0:0|0:0,0:0:0:0:
200,68,37340,2,0,L|136:72,2,50,8|8|8,3:1|3:1|0:2,0:0:0:0:
352,192,38007,6,0,L|192:184,1,150,2|2,3:2|0:0,0:0:0:0:
316,248,38840,2,0,L|324:184,1,50,2|8,3:2|0:0,0:0:0:0:
160,208,39340,2,0,L|56:212,2,100,2|0|0,3:2|0:0|0:0,0:0:0:0:
336,160,40340,6,0,L|440:164,2,100,10|8|8,1:2|1:3|1:2,0:0:0:0:
180,152,41340,2,0,P|156:96|176:60,1,100,0|8,1:0|1:2,0:0:0:0:
232,64,41840,1,0,3:0:0:0:
296,256,42007,6,0,P|268:168|152:152,1,200,2|8,1:2|3:1,0:0:0:0:
32,184,43007,2,0,L|24:112,1,50,8|8,0:0|0:0,0:0:0:0:
128,80,43340,5,4,3:2:0:0:
320,200,44007,2,0,L|408:204,2,75,2|2|2,0:0|0:0|0:0,0:0:0:0:
220,192,44673,2,0,L|188:80,1,100,2|0,3:0|0:0,0:0:0:0:
340,128,45340,2,0,L|456:120,1,100,0|8,0:0|0:0,0:0:0:0:
272,224,46007,6,0,L|156:216,2,100,8|8|0,1:3|1:2|1:1,0:0:0:0:
392,224,47007,1,8,1:2:0:0:
248,336,47340,2,0,L|240:228,1,100,4|8,1:1|0:0,0:0:0:0:
368,228,48007,2,0,L|260:208,1,100,8|8,3:1|0:0,0:0:0:0:
100,220,48673,6,0,P|72:180|112:148,1,100,4|8,3:2|0:0,0:0:0:0:
184,144,49173,1,2,0:0:0:0:
344,152,49673,1,8,0:0:0:0:
184,288,50007,6,0,L|172:180,1,100,4|8,3:1|0:0,0:0:0:0:
332,168,50673,2,0,L|396:164,2,50,0|0|8,0:0|3:0|0:0,0:0:0:0:
184,272,51340,6,0,L|304:260,1,100,4|8,3:2|0:0,0:0:0:0:
424,292,52007,2,0,L|304:280,1,100,2|10,0:0|0:0,0:0:0:0:
160,272,52673,6,0,L|64:280,2,75,12|12|12,0:2|0:0|0:0,0:0:0:0:
256,280,53340,2,0,L|188:192,1,100,8|8,0:0|0:0,0:0:0:0:
48,192,54007,1,4,3:2:0:0:
356,192,59340,6,0,L|472:184,2,100,12|8|8,0:0|0:0|0:0,0:0:0:0:
144,160,60673,2,0,L|28:152,2,100,12|8|8,0:0|0:0|0:0,0:0:0:0:
368,240,62007,6,0,L|388:136,1,100,12|8,0:0|0:0,0:0:0:0:
268,136,62673,2,0,L|248:32,1,100,8|8,0:0|0:0,0:0:0:0:
396,72,63340,2,0,P|248:64|216:204,1,300,12|8,0:0|0:0,0:0:0:0:
368,200,64673,5,4,0:0:0:0:
192,292,66007,2,0,P|120:248|200:216,1,200,2|2,3:2|0:0,0:0:0:0:
304,228,67007,2,0,L|312:156,1,50,10|10,0:0|0:0,0:0:0:0:
208,128,67340,6,0,L|92:120,2,100,4|8|4,3:2|0:0|0:3,0:0:0:0:
328,132,68340,1,8,0:0:0:0:
180,292,68673,6,0,L|164:176,1,100,4|10,3:3|0:0,0:0:0:0:
248,184,69173,1,4,3:3:0:0:
328,180,69340,2,0,L|340:76,1,100,4|10,0:3|0:0,0:0:0:0:
176,248,70007,6,0,L|60:236,2,100,8|10|2,1:3|0:0|1:2,0:0:0:0:
304,248,71007,1,10,0:0:0:0:
428,268,71340,6,0,L|488:264,2,50,2|0|0,1:2|3:0|0:0,0:0:0:0:
300,268,72007,1,2,0:2:0:0:
420,288,72340,1,10,0:0:0:0:
252,344,72673,6,0,P|192:316|268:256,1,200,2|4,3:3|0:3,0:0:0:0:
384,248,73673,1,14,0:0:0:0:
232,188,74007,2,0,L|120:192,2,100,8|8|0,1:3|1:2|1:0,0:0:0:0:
348,188,75007,1,10,0:0:0:0:
472,184,75340,5,12,1:3:0:0:
336,156,75673,2,0,L|232:144,2,100,8|4|8,0:0|0:3|0:0,0:0:0:0:
200,288,76673,2,0,P|140:224|212:168,1,200,2|8,1:2|1:3,0:0:0:0:
328,168,77673,1,8,0:0:0:0:
176,152,78007,6,0,L|64:144,2,100,2|8|4,3:0|0:0|0:3,0:0:0:0:
292,148,79007,1,8,0:0:0:0:
144,260,79340,6,0,L|264:252,1,100,4|8,3:3|0:0,0:0:0:0:
320,256,79840,1,4,3:3:0:0:
396,252,80007,2,0,L|412:152,1,100,4|8,0:3|0:0,0:0:0:0:
264,100,80674,6,0,L|156:92,2,100,8|8|2,1:3|0:0|1:2,0:0:0:0:
384,100,81674,1,14,0:0:0:0:
256,176,82007,2,0,L|228:128,2,50,4|4|10,0:3|3:3|0:0,0:0:0:0:
396,192,82674,1,4,3:3:0:0:
272,200,83007,1,8,0:0:0:0:
124,208,83340,6,0,P|80:148|120:88,1,150,6|4,0:3|0:3,0:0:0:0:
288,312,84340,2,0,P|332:252|292:192,1,150,8|4,0:0|0:3,0:0:0:0:
124,208,85340,2,0,L|44:116,1,100,4|8,0:3|0:0,0:0:0:0:
208,72,86007,6,0,P|273:116|245:200,1,150,4|4,3:2|0:1,0:0:0:0:
88,68,87007,1,8,0:0:0:0:
204,192,87340,2,0,L|129:188,2,75,12|12|12,0:0|0:0|0:0,0:0:0:0:
292,216,88007,2,0,L|424:208,1,100,0|8,0:0|0:0,0:0:0:0:
248,324,88673,6,0,P|188:248|260:196,1,200,4|2,3:2|0:0,0:0:0:0:
368,196,89673,1,10,0:0:0:0:
240,147,90006,2,0,L|352:139,2,100,2|10|2,3:2|0:0|0:0,0:0:0:0:
112,144,91006,1,8,0:0:0:0:
240,272,91339,6,0,L|264:168,1,100,2|8,3:2|0:0,0:0:0:0:
128,188,92007,2,0,L|104:84,1,100,2|8,0:0|0:0,0:0:0:0:
240,64,92673,2,0,L|344:56,1,100,2|10,0:0|0:0,0:0:0:0:
424,56,93173,2,0,P|456:132|404:180,1,150,2|10,0:0|0:0,0:0:0:0:
288,196,94006,6,0,L|400:192,2,100,2|8|2,3:0|0:0|0:0,0:0:0:0:
168,192,95006,1,8,0:0:0:0:
312,336,95339,6,0,L|324:224,1,100,2|10,3:2|0:0,0:0:0:0:
244,220,95839,1,2,3:2:0:0:
164,200,96007,2,0,L|152:88,1,100,2|8,0:0|0:0,0:0:0:0:
320,124,96673,6,0,P|376:72|276:28,1,200,2|0,3:2|0:0,0:0:0:0:
172,32,97673,1,8,0:0:0:0:
40,114,98007,2,0,L|156:122,2,100,2|10|2,0:0|0:0|3:2,0:0:0:0:
184,216,99007,2,0,L|172:152,1,50,10|10,0:0|0:0,0:0:0:0:
264,128,99340,6,0,L|376:136,2,100,4|10|2,3:2|0:0|0:0,0:0:0:0:
368,108,100340,1,10,0:0:0:0:
224,92,100673,2,0,L|112:100,2,100,2|8|0,3:2|0:0|1:0,0:0:0:0:
344,88,101673,1,8,1:2:0:0:
200,224,102007,6,0,L|184:116,1,100,2|8,3:0|0:0,0:0:0:0:
304,280,102673,2,0,L|320:172,1,100,2|8,0:0|0:0,0:0:0:0:
172,276,103340,2,0,P|248:168|324:280,1,300,2|10,0:0|0:0,0:0:0:0:
168,292,104673,5,4,3:2:0:0:
58,232,105007,2,0,L|170:240,2,100,8|0|10,0:0|0:0|0:0,0:0:0:0:
172,204,106007,1,4,3:2:0:0:
286,272,106340,2,0,L|174:280,2,100,8|10|10,0:0|0:0|0:0,0:0:0:0:
419,273,107340,6,0,L|475:178,1,100,4|8,3:2|0:0,0:0:0:0:
341,170,108007,2,0,L|209:158,1,100,8|8,0:0|0:0,0:0:0:0:
408,156,108673,2,0,P|448:100|296:60,1,300,12|8,0:0|0:0,0:0:0:0:
144,64,110007,5,2,3:0:0:0:
256,192,110340,12,2,115173,0:0:0:0:
