osu file format v14

[General]
AudioFilename: audio.mp3
AudioLeadIn: 0
PreviewTime: 67257
Countdown: 0
SampleSet: Normal
StackLeniency: 0.7
Mode: 1
LetterboxInBreaks: 0
WidescreenStoryboard: 1

[Editor]
Bookmarks: 674,11340,22007,32673,43340,54007,67340,78007,88673,99340,110007
DistanceSpacing: 0.1
BeatDivisor: 2
GridSize: 16
TimelineZoom: 0.8999998

[Metadata]
Title:Oriental Blossom
TitleUnicode:Oriental Blossom
Artist:Eisyo-kobu
ArtistUnicode:影翔鼓舞
Creator:Realazy
Version:Linada's Futsuu
Source:SOUND VOLTEX III GRAVITY WARS
Tags:Ayyri Linada Kagetora. Hayato Hitoshiro The 4th KAC Original Song Contest Cオリジナル楽曲コンテスト SDVX KONAMI
BeatmapID:1405054
BeatmapSetID:663687

[Difficulty]
HPDrainRate:6
CircleSize:3
OverallDifficulty:4
ApproachRate:8
SliderMultiplier:1.4
SliderTickRate:1

[Events]
//Background and Video events
0,0,"wallhaven-439422.jpg",0,0
//Break Periods
//Storyboard Layer 0 (Background)
//Storyboard Layer 1 (Fail)
//Storyboard Layer 2 (Pass)
//Storyboard Layer 3 (Foreground)
//Storyboard Sound Samples

[TimingPoints]
674,333.333333333333,4,1,0,75,1,0
67340,-100,4,1,0,75,0,1
110007,-100,4,1,0,75,0,0
115173,-100,4,1,0,50,0,0

[HitObjects]
192,192,674,5,0,0:0:0:0:
320,192,1007,1,0,0:0:0:0:
320,192,1173,1,0,0:0:0:0:
192,192,1340,1,8,0:0:0:0:
192,192,2007,1,8,0:0:0:0:
320,192,2673,1,0,0:0:0:0:
192,192,3007,1,8,0:0:0:0:
320,192,3340,1,0,0:0:0:0:
320,192,3673,1,0,0:0:0:0:
320,192,3840,1,0,0:0:0:0:
192,192,4007,1,8,0:0:0:0:
192,192,4340,1,8,0:0:0:0:
320,192,4673,1,0,0:0:0:0:
192,192,5340,1,8,0:0:0:0:
320,192,6007,1,0,0:0:0:0:
320,192,6340,1,0,0:0:0:0:
192,192,6673,1,8,0:0:0:0:
192,192,7340,1,8,0:0:0:0:
320,192,7673,1,0,0:0:0:0:
192,192,8007,1,8,0:0:0:0:
320,192,8673,1,0,0:0:0:0:
320,192,9006,1,0,0:0:0:0:
192,192,9339,1,8,0:0:0:0:
192,192,9673,1,8,0:0:0:0:
320,192,10007,1,0,0:0:0:0:
192,192,10840,1,8,0:0:0:0:
320,192,11007,1,0,0:0:0:0:
192,192,11340,1,12,0:0:0:0:
320,192,11673,1,0,0:0:0:0:
320,192,12340,1,0,0:0:0:0:
192,192,12673,1,8,0:0:0:0:
192,192,13007,1,8,0:0:0:0:
192,192,13173,1,8,0:0:0:0:
320,192,13340,1,0,0:0:0:0:
320,192,13673,1,0,0:0:0:0:
192,192,14007,1,8,0:0:0:0:
192,192,14673,1,8,0:0:0:0:
320,192,15007,1,0,0:0:0:0:
320,192,15173,1,0,0:0:0:0:
192,192,15340,1,8,0:0:0:0:
320,192,15673,1,0,0:0:0:0:
192,192,16007,1,8,0:0:0:0:
320,192,16673,1,0,0:0:0:0:
192,192,17007,1,8,0:0:0:0:
192,192,17340,1,8,0:0:0:0:
320,192,18007,1,0,0:0:0:0:
192,192,18340,1,8,0:0:0:0:
192,192,18673,1,8,0:0:0:0:
320,192,19007,1,0,0:0:0:0:
320,192,19173,1,0,0:0:0:0:
192,192,19340,1,8,0:0:0:0:
192,192,19673,1,8,0:0:0:0:
192,192,19840,1,8,0:0:0:0:
192,192,20007,1,8,0:0:0:0:
320,192,20340,1,0,0:0:0:0:
192,192,20673,1,8,0:0:0:0:
192,192,21340,1,8,0:0:0:0:
320,192,21673,1,0,0:0:0:0:
192,192,22007,1,12,0:0:0:0:
320,192,22673,1,0,0:0:0:0:
192,192,23007,1,8,0:0:0:0:
320,192,23340,1,0,0:0:0:0:
192,192,23673,1,8,0:0:0:0:
192,192,23840,1,8,0:0:0:0:
320,192,24007,1,0,0:0:0:0:
192,192,24673,1,8,0:0:0:0:
320,192,25007,1,0,0:0:0:0:
320,192,25340,1,0,0:0:0:0:
192,192,25673,1,8,0:0:0:0:
192,192,25840,1,8,0:0:0:0:
320,192,26007,1,0,0:0:0:0:
192,192,26673,1,8,0:0:0:0:
320,192,27007,1,0,0:0:0:0:
320,192,27173,1,0,0:0:0:0:
192,192,27340,1,8,0:0:0:0:
192,192,27673,1,8,0:0:0:0:
320,192,27840,1,0,0:0:0:0:
192,192,28007,1,8,0:0:0:0:
320,192,28673,1,0,0:0:0:0:
192,192,29007,1,8,0:0:0:0:
320,192,29173,1,0,0:0:0:0:
320,192,29340,1,0,0:0:0:0:
192,192,30007,1,8,0:0:0:0:
192,192,30340,1,8,0:0:0:0:
320,192,30507,1,0,0:0:0:0:
320,192,30840,1,0,0:0:0:0:
192,192,31007,1,8,0:0:0:0:
320,192,31340,1,0,0:0:0:0:
320,192,32007,1,0,0:0:0:0:
320,192,32340,1,0,0:0:0:0:
320,192,32507,1,0,0:0:0:0:
192,192,32673,1,8,0:0:0:0:
192,192,33007,1,8,0:0:0:0:
320,192,33173,1,0,0:0:0:0:
320,192,33507,1,0,0:0:0:0:
192,192,33673,1,8,0:0:0:0:
192,192,34007,1,8,0:0:0:0:
320,192,34340,1,0,0:0:0:0:
192,192,34673,1,8,0:0:0:0:
192,192,35340,1,8,0:0:0:0:
320,192,35673,1,0,0:0:0:0:
192,192,36007,1,8,0:0:0:0:
320,192,36673,1,0,0:0:0:0:
192,192,37007,1,8,0:0:0:0:
192,192,37340,1,8,0:0:0:0:
192,192,37507,1,8,0:0:0:0:
320,192,37674,1,0,0:0:0:0:
192,192,38007,1,8,0:0:0:0:
320,192,38340,1,0,0:0:0:0:
320,192,39007,1,0,0:0:0:0:
192,192,39340,1,8,0:0:0:0:
192,192,39507,1,8,0:0:0:0:
320,192,39673,1,0,0:0:0:0:
320,192,40007,1,0,0:0:0:0:
192,192,40340,1,8,0:0:0:0:
192,192,40507,1,8,0:0:0:0:
192,192,40673,1,8,0:0:0:0:
320,192,41007,1,0,0:0:0:0:
192,192,41340,1,8,0:0:0:0:
192,192,41507,1,8,0:0:0:0:
192,192,41673,1,8,0:0:0:0:
54,320,42007,2,0,L|474:320,1,420
192,192,43340,1,12,0:0:0:0:
320,192,44007,1,0,0:0:0:0:
192,192,44340,1,8,0:0:0:0:
320,192,44673,1,0,0:0:0:0:
320,192,45340,1,0,0:0:0:0:
192,192,46007,1,8,0:0:0:0:
320,192,46340,1,0,0:0:0:0:
192,192,46673,1,8,0:0:0:0:
320,192,47007,1,0,0:0:0:0:
320,192,47340,1,0,0:0:0:0:
192,192,48007,1,8,0:0:0:0:
320,192,48340,1,0,0:0:0:0:
320,192,48507,1,0,0:0:0:0:
192,192,48673,1,8,0:0:0:0:
320,192,49007,1,0,0:0:0:0:
192,192,49173,1,8,0:0:0:0:
192,192,49507,1,8,0:0:0:0:
192,192,49673,1,8,0:0:0:0:
320,192,50007,1,0,0:0:0:0:
192,192,50673,1,8,0:0:0:0:
320,192,51007,1,0,0:0:0:0:
320,192,51340,1,0,0:0:0:0:
320,192,51507,1,0,0:0:0:0:
192,192,51673,1,8,0:0:0:0:
320,192,52007,1,0,0:0:0:0:
192,192,52173,1,8,0:0:0:0:
192,192,52507,1,8,0:0:0:0:
320,192,52673,1,0,0:0:0:0:
320,192,53173,1,0,0:0:0:0:
192,192,53340,1,8,0:0:0:0:
192,192,53673,1,8,0:0:0:0:
320,192,53840,1,0,0:0:0:0:
192,192,54007,1,8,0:0:0:0:
320,192,55340,1,0,0:0:0:0:
192,192,56007,1,8,0:0:0:0:
320,192,56673,1,0,0:0:0:0:
192,192,57340,1,8,0:0:0:0:
320,192,57673,1,0,0:0:0:0:
192,192,58007,1,8,0:0:0:0:
192,192,58673,1,8,0:0:0:0:
192,192,59340,1,12,0:0:0:0:
320,192,59673,1,0,0:0:0:0:
192,192,60007,1,8,0:0:0:0:
192,192,60673,1,12,0:0:0:0:
192,192,61007,1,8,0:0:0:0:
320,192,61341,1,0,0:0:0:0:
192,192,62007,1,8,0:0:0:0:
192,192,62340,1,8,0:0:0:0:
192,192,62673,1,8,0:0:0:0:
192,192,63007,1,8,0:0:0:0:
192,192,63173,1,8,0:0:0:0:
84,319,63340,2,0,B|365:320|365:320|365:181,1,420
192,192,64673,1,8,0:0:0:0:
192,192,64840,1,8,0:0:0:0:
192,192,65007,1,8,0:0:0:0:
320,192,65340,1,0,0:0:0:0:
192,192,65507,1,8,0:0:0:0:
320,192,65673,1,0,0:0:0:0:
320,192,66007,1,0,0:0:0:0:
320,192,67007,1,0,0:0:0:0:
192,192,67340,1,12,0:0:0:0:
192,192,67673,1,8,0:0:0:0:
320,192,67840,1,0,0:0:0:0:
320,192,68173,1,0,0:0:0:0:
192,192,68340,1,8,0:0:0:0:
192,192,68673,1,8,0:0:0:0:
320,192,69007,1,0,0:0:0:0:
192,192,69340,1,8,0:0:0:0:
320,192,70007,1,0,0:0:0:0:
192,192,70340,1,8,0:0:0:0:
320,192,70673,1,0,0:0:0:0:
320,192,71340,1,0,0:0:0:0:
320,192,71507,1,0,0:0:0:0:
192,192,71673,1,8,0:0:0:0:
320,192,72007,1,0,0:0:0:0:
192,192,72340,1,8,0:0:0:0:
192,192,72507,1,8,0:0:0:0:
320,192,72673,1,0,0:0:0:0:
320,192,73007,1,0,0:0:0:0:
192,192,73340,1,8,0:0:0:0:
320,192,74007,1,0,0:0:0:0:
192,192,74340,1,8,0:0:0:0:
320,192,74673,1,0,0:0:0:0:
192,192,75007,1,8,0:0:0:0:
192,192,75173,1,8,0:0:0:0:
192,192,75340,1,8,0:0:0:0:
192,192,75673,1,8,0:0:0:0:
320,192,75840,1,0,0:0:0:0:
192,192,76007,1,8,0:0:0:0:
320,192,76340,1,0,0:0:0:0:
320,192,76673,1,0,0:0:0:0:
192,192,77007,1,8,0:0:0:0:
320,192,77173,1,0,0:0:0:0:
192,192,77340,1,8,0:0:0:0:
192,192,78007,1,12,0:0:0:0:
192,192,78340,1,8,0:0:0:0:
320,192,78507,1,0,0:0:0:0:
320,192,78840,1,0,0:0:0:0:
192,192,79007,1,8,0:0:0:0:
320,192,79340,1,0,0:0:0:0:
320,192,79673,1,0,0:0:0:0:
192,192,80007,1,8,0:0:0:0:
192,192,80673,1,8,0:0:0:0:
320,192,81007,1,0,0:0:0:0:
192,192,81340,1,8,0:0:0:0:
320,192,81673,1,0,0:0:0:0:
192,192,82007,1,8,0:0:0:0:
192,192,82340,1,8,0:0:0:0:
192,192,82507,1,8,0:0:0:0:
320,192,82673,1,0,0:0:0:0:
320,192,83340,1,0,0:0:0:0:
192,192,83673,1,8,0:0:0:0:
192,192,83840,1,8,0:0:0:0:
192,192,84340,1,8,0:0:0:0:
320,192,84673,1,0,0:0:0:0:
192,192,84840,1,8,0:0:0:0:
192,192,85340,1,8,0:0:0:0:
320,192,85673,1,0,0:0:0:0:
320,192,85840,1,0,0:0:0:0:
192,192,86007,1,8,0:0:0:0:
320,192,86340,1,0,0:0:0:0:
192,192,86507,1,8,0:0:0:0:
192,192,86840,1,8,0:0:0:0:
320,192,87007,1,0,0:0:0:0:
192,192,87340,1,8,0:0:0:0:
192,192,87840,1,8,0:0:0:0:
320,192,88007,1,0,0:0:0:0:
320,192,88340,1,0,0:0:0:0:
320,192,88673,1,4,0:0:0:0:
192,192,89340,1,8,0:0:0:0:
320,192,89673,1,0,0:0:0:0:
320,192,89840,1,0,0:0:0:0:
192,192,90007,1,8,0:0:0:0:
192,192,90340,1,8,0:0:0:0:
320,192,90673,1,0,0:0:0:0:
192,192,91340,1,8,0:0:0:0:
320,192,91507,1,0,0:0:0:0:
320,192,91673,1,0,0:0:0:0:
320,192,92007,1,0,0:0:0:0:
320,192,92340,1,0,0:0:0:0:
192,192,92673,1,8,0:0:0:0:
320,192,93340,1,0,0:0:0:0:
320,192,93673,1,0,0:0:0:0:
320,192,93840,1,0,0:0:0:0:
192,192,94007,1,8,0:0:0:0:
192,192,94340,1,8,0:0:0:0:
192,192,94673,1,8,0:0:0:0:
192,192,95340,1,8,0:0:0:0:
192,192,95673,1,8,0:0:0:0:
320,192,95840,1,0,0:0:0:0:
320,192,96007,1,0,0:0:0:0:
320,192,96340,1,0,0:0:0:0:
192,192,96673,1,8,0:0:0:0:
320,192,97007,1,0,0:0:0:0:
192,192,97173,1,8,0:0:0:0:
192,192,97507,1,8,0:0:0:0:
320,192,97673,1,0,0:0:0:0:
320,192,98007,1,0,0:0:0:0:
320,192,98673,1,0,0:0:0:0:
320,192,99007,1,0,0:0:0:0:
320,192,99173,1,0,0:0:0:0:
192,192,99340,1,12,0:0:0:0:
192,192,99673,1,8,0:0:0:0:
320,192,100007,1,0,0:0:0:0:
320,192,100673,1,0,0:0:0:0:
320,192,101007,1,0,0:0:0:0:
192,192,101340,1,8,0:0:0:0:
192,192,101673,1,8,0:0:0:0:
320,192,102007,1,0,0:0:0:0:
192,192,102173,1,8,0:0:0:0:
320,192,102340,1,0,0:0:0:0:
192,192,102673,1,8,0:0:0:0:
320,192,103007,1,0,0:0:0:0:
320,192,103340,1,8,0:0:0:0:
192,192,104007,1,8,0:0:0:0:
192,192,104340,1,8,0:0:0:0:
192,192,104507,1,8,0:0:0:0:
320,192,104673,1,0,0:0:0:0:
192,192,105007,1,8,0:0:0:0:
320,192,105340,1,0,0:0:0:0:
320,192,106007,1,0,0:0:0:0:
320,192,106340,1,0,0:0:0:0:
192,192,106673,1,8,0:0:0:0:
320,192,107340,1,0,0:0:0:0:
320,192,107507,1,0,0:0:0:0:
320,192,107673,1,0,0:0:0:0:
320,192,108007,1,0,0:0:0:0:
320,192,108173,1,0,0:0:0:0:
320,192,108340,1,0,0:0:0:0:
304,298,108673,2,0,P|228:136|406:127,1,420
256,192,110007,12,0,115173,0:0:0:0:
