osu file format v14

[General]
AudioFilename: audio.mp3
AudioLeadIn: 0
PreviewTime: 67257
Countdown: 0
SampleSet: Normal
StackLeniency: 0.7
Mode: 1
LetterboxInBreaks: 0
WidescreenStoryboard: 1

[Editor]
Bookmarks: 674,11340,22007,32673,43340,54007,67340,78007,88673,99340,110007
DistanceSpacing: 0.1
BeatDivisor: 4
GridSize: 32
TimelineZoom: 0.8999999

[Metadata]
Title:Oriental Blossom
TitleUnicode:Oriental Blossom
Artist:Eisyo-kobu
ArtistUnicode:影翔鼓舞
Creator:Realazy
Version:Kantan
Source:SOUND VOLTEX III GRAVITY WARS
Tags:Ayyri Linada Kagetora. Hayato Hitoshiro The 4th KAC Original Song Contest Cオリジナル楽曲コンテスト SDVX KONAMI
BeatmapID:1405053
BeatmapSetID:663687

[Difficulty]
HPDrainRate:7
CircleSize:2
OverallDifficulty:3
ApproachRate:10
SliderMultiplier:1.4
SliderTickRate:1

[Events]
//Background and Video events
0,0,"wallhaven-439422.jpg",0,0
//Break Periods
//Storyboard Layer 0 (Background)
//Storyboard Layer 1 (Fail)
//Storyboard Layer 2 (Pass)
//Storyboard Layer 3 (Foreground)
//Storyboard Sound Samples

[TimingPoints]
674,333.333333333333,4,1,0,75,1,0
67340,-100,4,1,0,75,0,1
110007,-100,4,1,0,75,0,0
115173,-100,4,1,0,50,0,0

[HitObjects]
256,192,674,5,0,0:0:0:0:
256,192,2007,1,8,0:0:0:0:
256,192,2673,1,8,0:0:0:0:
256,192,3007,1,0,0:0:0:0:
256,192,3340,1,0,0:0:0:0:
256,192,4673,1,8,0:0:0:0:
256,192,5340,1,0,0:0:0:0:
256,192,6007,1,0,0:0:0:0:
256,192,6673,1,8,0:0:0:0:
256,192,7340,1,0,0:0:0:0:
256,192,8007,1,8,0:0:0:0:
256,192,8673,1,0,0:0:0:0:
256,192,9007,1,0,0:0:0:0:
256,192,9340,1,8,0:0:0:0:
256,192,10007,1,0,0:0:0:0:
256,192,11340,1,4,0:0:0:0:
256,192,11673,1,8,0:0:0:0:
256,192,12340,1,8,0:0:0:0:
256,192,12673,1,0,0:0:0:0:
256,192,13340,1,8,0:0:0:0:
256,192,14007,1,8,0:0:0:0:
256,192,14674,1,8,0:0:0:0:
256,192,15340,1,0,0:0:0:0:
256,192,16673,1,0,0:0:0:0:
256,192,17340,1,8,0:0:0:0:
256,192,17673,1,8,0:0:0:0:
256,192,18007,1,0,0:0:0:0:
256,192,18673,1,8,0:0:0:0:
256,192,19007,1,0,0:0:0:0:
256,192,19340,1,8,0:0:0:0:
256,192,20007,1,8,0:0:0:0:
256,192,20340,1,8,0:0:0:0:
256,192,20673,1,0,0:0:0:0:
256,192,22007,1,12,0:0:0:0:
256,192,22673,1,8,0:0:0:0:
256,192,23007,1,8,0:0:0:0:
256,192,23340,1,0,0:0:0:0:
256,192,24673,1,8,0:0:0:0:
256,192,25007,1,0,0:0:0:0:
256,192,25340,1,8,0:0:0:0:
256,192,26007,1,0,0:0:0:0:
256,192,26673,1,8,0:0:0:0:
256,192,27340,1,0,0:0:0:0:
256,192,27673,1,8,0:0:0:0:
256,192,28007,1,8,0:0:0:0:
256,192,28673,1,8,0:0:0:0:
256,192,29007,1,0,0:0:0:0:
256,192,29340,1,0,0:0:0:0:
256,192,30007,1,12,0:0:0:0:
256,192,31007,1,0,0:0:0:0:
256,192,31340,1,8,0:0:0:0:
256,192,32007,1,8,0:0:0:0:
256,192,32340,1,0,0:0:0:0:
256,192,32673,1,12,0:0:0:0:
256,192,33673,1,8,0:0:0:0:
256,192,34007,1,0,0:0:0:0:
256,192,35007,1,8,0:0:0:0:
256,192,35340,1,8,0:0:0:0:
256,192,35673,1,0,0:0:0:0:
256,192,36007,1,8,0:0:0:0:
256,192,36673,1,0,0:0:0:0:
256,192,37007,1,8,0:0:0:0:
256,192,37340,1,8,0:0:0:0:
256,192,37673,1,8,0:0:0:0:
256,192,38007,1,0,0:0:0:0:
256,192,39007,1,0,0:0:0:0:
256,192,39340,1,8,0:0:0:0:
256,192,40340,1,8,0:0:0:0:
256,192,40673,1,0,0:0:0:0:
256,192,41340,1,8,0:0:0:0:
256,192,41673,1,0,0:0:0:0:
256,192,42007,1,8,0:0:0:0:
256,192,42673,1,8,0:0:0:0:
256,192,43007,1,8,0:0:0:0:
256,192,43340,1,4,0:0:0:0:
256,192,44007,1,8,0:0:0:0:
256,192,44673,1,8,0:0:0:0:
256,192,45340,1,0,0:0:0:0:
256,192,46007,1,8,0:0:0:0:
256,192,46340,1,0,0:0:0:0:
256,192,46673,1,8,0:0:0:0:
256,192,47007,1,0,0:0:0:0:
256,192,47340,1,8,0:0:0:0:
256,192,48673,1,4,0:0:0:0:
256,192,49173,1,8,0:0:0:0:
256,192,49673,1,0,0:0:0:0:
256,192,50007,1,8,0:0:0:0:
256,192,50673,1,0,0:0:0:0:
256,192,51340,1,12,0:0:0:0:
256,192,52007,1,8,0:0:0:0:
256,192,52673,1,8,0:0:0:0:
256,192,53007,1,0,0:0:0:0:
256,192,53340,1,8,0:0:0:0:
256,192,54007,1,4,0:0:0:0:
256,192,55340,1,0,0:0:0:0:
256,192,56007,1,8,0:0:0:0:
256,192,56673,1,0,0:0:0:0:
256,192,57340,1,0,0:0:0:0:
256,192,57673,1,8,0:0:0:0:
256,192,58007,1,0,0:0:0:0:
256,192,59340,1,12,0:0:0:0:
256,192,60007,1,0,0:0:0:0:
256,192,60673,1,12,0:0:0:0:
256,192,61340,1,0,0:0:0:0:
256,192,62007,1,8,0:0:0:0:
256,192,62340,1,8,0:0:0:0:
256,192,62673,1,8,0:0:0:0:
151,178,63340,2,0,P|354:156|184:270,1,559.99998664856
256,192,65340,1,0,0:0:0:0:
256,192,66007,1,8,0:0:0:0:
256,192,67340,1,12,0:0:0:0:
256,192,67673,1,0,0:0:0:0:
256,192,68340,1,8,0:0:0:0:
256,192,68673,1,8,0:0:0:0:
256,192,69007,1,0,0:0:0:0:
256,192,69340,1,8,0:0:0:0:
256,192,70007,1,8,0:0:0:0:
256,192,70673,1,8,0:0:0:0:
256,192,71340,1,8,0:0:0:0:
256,192,72673,1,8,0:0:0:0:
256,192,73340,1,8,0:0:0:0:
256,192,73673,1,0,0:0:0:0:
256,192,74007,1,8,0:0:0:0:
256,192,74340,1,0,0:0:0:0:
256,192,74673,1,8,0:0:0:0:
256,192,75340,1,8,0:0:0:0:
256,192,76007,1,8,0:0:0:0:
256,192,76340,1,0,0:0:0:0:
256,192,76673,1,8,0:0:0:0:
256,192,77007,1,8,0:0:0:0:
256,192,77340,1,0,0:0:0:0:
256,192,78007,1,8,0:0:0:0:
256,192,78340,1,0,0:0:0:0:
256,192,79007,1,8,0:0:0:0:
256,192,79340,1,8,0:0:0:0:
256,192,79673,1,0,0:0:0:0:
256,192,80007,1,8,0:0:0:0:
256,192,80673,1,8,0:0:0:0:
256,192,81340,1,8,0:0:0:0:
256,192,81673,1,0,0:0:0:0:
256,192,82007,1,8,0:0:0:0:
256,192,82340,1,0,0:0:0:0:
256,192,82673,1,8,0:0:0:0:
256,192,83340,1,8,0:0:0:0:
256,192,84340,1,8,0:0:0:0:
256,192,84673,1,0,0:0:0:0:
256,192,85340,1,8,0:0:0:0:
256,192,85673,1,0,0:0:0:0:
256,192,86007,1,12,0:0:0:0:
256,192,86507,1,0,0:0:0:0:
256,192,86840,1,8,0:0:0:0:
256,192,87340,1,12,0:0:0:0:
256,192,88007,1,0,0:0:0:0:
256,192,88673,1,12,0:0:0:0:
256,192,89340,1,8,0:0:0:0:
256,192,90007,1,8,0:0:0:0:
256,192,90340,1,8,0:0:0:0:
256,192,90673,1,0,0:0:0:0:
256,192,91340,1,0,0:0:0:0:
256,192,91673,1,8,0:0:0:0:
256,192,92340,1,8,0:0:0:0:
256,192,92673,1,0,0:0:0:0:
256,192,93340,1,8,0:0:0:0:
256,192,94007,1,0,0:0:0:0:
256,192,94340,1,8,0:0:0:0:
256,192,94673,1,8,0:0:0:0:
256,192,95340,1,8,0:0:0:0:
256,192,95673,1,0,0:0:0:0:
256,192,96006,1,8,0:0:0:0:
256,192,96673,1,0,0:0:0:0:
256,192,97007,1,8,0:0:0:0:
256,192,97673,1,8,0:0:0:0:
256,192,98007,1,8,0:0:0:0:
256,192,98673,1,0,0:0:0:0:
256,192,99340,1,12,0:0:0:0:
256,192,99673,1,8,0:0:0:0:
256,192,100340,1,0,0:0:0:0:
256,192,100673,1,8,0:0:0:0:
256,192,101340,1,8,0:0:0:0:
256,192,101673,1,0,0:0:0:0:
256,192,102007,1,8,0:0:0:0:
256,192,102340,1,8,0:0:0:0:
256,192,102673,1,0,0:0:0:0:
256,192,103340,1,8,0:0:0:0:
256,192,103673,1,0,0:0:0:0:
256,192,104007,1,8,0:0:0:0:
256,192,104673,1,12,0:0:0:0:
256,192,105007,1,0,0:0:0:0:
256,192,105340,1,0,0:0:0:0:
256,192,106007,1,12,0:0:0:0:
256,192,106340,1,0,0:0:0:0:
256,192,106674,1,0,0:0:0:0:
256,192,107340,1,8,0:0:0:0:
256,192,107673,1,0,0:0:0:0:
256,192,108007,1,0,0:0:0:0:
256,192,108340,1,0,0:0:0:0:
184,268,108673,2,0,P|361:189|182:117,1,490
256,192,110007,12,0,115173,0:0:0:0:
