osu file format v14

[General]
AudioFilename: audio.mp3
AudioLeadIn: 0
PreviewTime: 67257
Countdown: 0
SampleSet: Normal
StackLeniency: 0.7
Mode: 1
LetterboxInBreaks: 0
WidescreenStoryboard: 0

[Editor]
Bookmarks: 674,11340,22007,32673,43340,54007,67340,78007,88673,99340,110007,115173
DistanceSpacing: 0.1
BeatDivisor: 4
GridSize: 32
TimelineZoom: 2.1

[Metadata]
Title:Oriental Blossom
TitleUnicode:Oriental Blossom
Artist:Eisyo-kobu
ArtistUnicode:影翔鼓舞
Creator:Realazy
Version:Ayyri's Inner Oni
Source:SOUND VOLTEX III GRAVITY WARS
Tags:Ayyri Linada Kagetora. Hayato Hitoshiro The 4th KAC Original Song Contest Cオリジナル楽曲コンテスト SDVX KONAMI
BeatmapID:1433904
BeatmapSetID:663687

[Difficulty]
HPDrainRate:6
CircleSize:2
OverallDifficulty:6
ApproachRate:10
SliderMultiplier:1.4
SliderTickRate:1

[Events]
//Background and Video events
0,0,"Yuyuko 458.jpg",0,120
//Break Periods
//Storyboard Layer 0 (Background)
//Storyboard Layer 1 (Fail)
//Storyboard Layer 2 (Pass)
//Storyboard Layer 3 (Foreground)
//Storyboard Sound Samples

[TimingPoints]
674,333.333333333333,4,1,0,75,1,0
67340,-100,4,1,0,75,0,1
110007,-100,4,1,0,75,0,0
115173,-100,4,1,0,50,0,0

[HitObjects]
256,192,674,5,8,0:0:0:0:
256,192,1007,1,0,0:0:0:0:
256,192,1173,1,0,0:0:0:0:
256,192,1340,1,8,0:0:0:0:
256,192,1673,1,8,0:0:0:0:
256,192,1840,1,0,0:0:0:0:
256,192,1923,1,0,0:0:0:0:
256,192,2007,1,8,0:0:0:0:
256,192,2173,1,0,0:0:0:0:
256,192,2340,1,8,0:0:0:0:
256,192,2507,1,0,0:0:0:0:
256,192,2673,1,8,0:0:0:0:
256,192,3007,1,0,0:0:0:0:
256,192,3340,1,8,0:0:0:0:
256,192,3673,1,8,0:0:0:0:
256,192,3840,1,0,0:0:0:0:
256,192,4007,1,8,0:0:0:0:
256,192,4340,1,0,0:0:0:0:
256,192,4507,1,0,0:0:0:0:
256,192,4673,1,8,0:0:0:0:
256,192,4840,1,8,0:0:0:0:
256,192,5007,1,0,0:0:0:0:
256,192,5173,1,0,0:0:0:0:
256,192,5340,1,8,0:0:0:0:
256,192,5673,1,8,0:0:0:0:
256,192,6007,1,0,0:0:0:0:
256,192,6340,1,0,0:0:0:0:
256,192,6673,1,8,0:0:0:0:
256,192,7007,1,0,0:0:0:0:
256,192,7340,1,0,0:0:0:0:
256,192,7673,1,0,0:0:0:0:
256,192,8007,1,8,0:0:0:0:
256,192,8340,1,0,0:0:0:0:
256,192,8673,1,0,0:0:0:0:
256,192,8840,1,0,0:0:0:0:
256,192,9007,1,0,0:0:0:0:
256,192,9173,1,0,0:0:0:0:
256,192,9340,1,8,0:0:0:0:
256,192,9507,1,0,0:0:0:0:
256,192,9673,1,0,0:0:0:0:
256,192,9840,1,0,0:0:0:0:
256,192,10007,1,8,0:0:0:0:
256,192,10173,1,8,0:0:0:0:
256,192,10340,1,0,0:0:0:0:
256,192,10507,1,8,0:0:0:0:
256,192,10840,1,0,0:0:0:0:
256,192,11007,1,8,0:0:0:0:
256,192,11173,1,0,0:0:0:0:
256,192,11340,1,12,0:0:0:0:
256,192,11507,1,0,0:0:0:0:
256,192,11673,1,8,0:0:0:0:
256,192,11840,1,0,0:0:0:0:
256,192,11923,1,0,0:0:0:0:
256,192,12007,1,8,0:0:0:0:
256,192,12173,1,0,0:0:0:0:
256,192,12340,1,8,0:0:0:0:
256,192,12507,1,8,0:0:0:0:
256,192,12590,1,0,0:0:0:0:
256,192,12673,1,8,0:0:0:0:
256,192,13007,1,8,0:0:0:0:
256,192,13173,1,0,0:0:0:0:
256,192,13340,1,8,0:0:0:0:
256,192,13423,1,8,0:0:0:0:
256,192,13507,1,0,0:0:0:0:
256,192,13590,1,0,0:0:0:0:
256,192,13673,1,8,0:0:0:0:
256,192,13840,1,0,0:0:0:0:
256,192,14007,1,8,0:0:0:0:
256,192,14340,1,8,0:0:0:0:
256,192,14507,1,0,0:0:0:0:
256,192,14673,1,8,0:0:0:0:
256,192,14840,1,0,0:0:0:0:
256,192,15007,1,8,0:0:0:0:
256,192,15090,1,8,0:0:0:0:
256,192,15173,1,0,0:0:0:0:
256,192,15340,1,0,0:0:0:0:
256,192,15507,1,8,0:0:0:0:
256,192,15673,1,8,0:0:0:0:
256,192,15840,1,0,0:0:0:0:
256,192,16007,1,8,0:0:0:0:
256,192,16173,1,0,0:0:0:0:
256,192,16257,1,8,0:0:0:0:
256,192,16340,1,8,0:0:0:0:
256,192,16423,1,0,0:0:0:0:
256,192,16507,1,8,0:0:0:0:
256,192,16673,1,0,0:0:0:0:
256,192,17007,1,8,0:0:0:0:
256,192,17173,1,0,0:0:0:0:
256,192,17257,1,0,0:0:0:0:
256,192,17340,1,8,0:0:0:0:
256,192,17507,1,0,0:0:0:0:
256,192,17673,1,8,0:0:0:0:
256,192,17840,1,0,0:0:0:0:
256,192,18007,1,8,0:0:0:0:
256,192,18173,1,8,0:0:0:0:
256,192,18257,1,0,0:0:0:0:
256,192,18340,1,8,0:0:0:0:
256,192,18507,1,0,0:0:0:0:
256,192,18673,1,8,0:0:0:0:
256,192,18840,1,0,0:0:0:0:
256,192,18923,1,0,0:0:0:0:
256,192,19007,1,8,0:0:0:0:
256,192,19173,1,0,0:0:0:0:
256,192,19340,1,8,0:0:0:0:
256,192,19673,1,0,0:0:0:0:
256,192,19840,1,8,0:0:0:0:
256,192,19923,1,8,0:0:0:0:
256,192,20007,1,0,0:0:0:0:
256,192,20173,1,0,0:0:0:0:
256,192,20340,1,8,0:0:0:0:
256,192,20507,1,8,0:0:0:0:
256,192,20673,1,0,0:0:0:0:
256,192,20840,1,8,0:0:0:0:
256,192,21007,1,8,0:0:0:0:
256,192,21173,1,0,0:0:0:0:
256,192,21257,1,0,0:0:0:0:
256,192,21340,1,8,0:0:0:0:
256,192,21507,1,0,0:0:0:0:
256,192,21673,1,8,0:0:0:0:
256,192,21757,1,0,0:0:0:0:
256,192,21840,1,8,0:0:0:0:
256,192,21923,1,0,0:0:0:0:
256,192,22007,1,12,0:0:0:0:
256,192,22340,1,8,0:0:0:0:
256,192,22507,1,0,0:0:0:0:
256,192,22673,1,0,0:0:0:0:
256,192,22757,1,8,0:0:0:0:
256,192,22840,1,8,0:0:0:0:
256,192,22923,1,0,0:0:0:0:
256,192,23007,1,8,0:0:0:0:
256,192,23090,1,8,0:0:0:0:
256,192,23173,1,0,0:0:0:0:
256,192,23257,1,0,0:0:0:0:
256,192,23340,1,8,0:0:0:0:
256,192,23507,1,0,0:0:0:0:
256,192,23590,1,8,0:0:0:0:
256,192,23673,1,0,0:0:0:0:
256,192,23840,1,8,0:0:0:0:
256,192,23923,1,0,0:0:0:0:
256,192,24007,1,8,0:0:0:0:
256,192,24173,1,0,0:0:0:0:
256,192,24340,1,8,0:0:0:0:
256,192,24507,1,0,0:0:0:0:
256,192,24673,1,8,0:0:0:0:
256,192,24840,1,8,0:0:0:0:
256,192,24923,1,0,0:0:0:0:
256,192,25007,1,8,0:0:0:0:
256,192,25173,1,8,0:0:0:0:
256,192,25340,1,0,0:0:0:0:
256,192,25423,1,8,0:0:0:0:
256,192,25507,1,0,0:0:0:0:
256,192,25673,1,0,0:0:0:0:
256,192,25840,1,8,0:0:0:0:
256,192,26007,1,8,0:0:0:0:
256,192,26090,1,8,0:0:0:0:
256,192,26173,1,0,0:0:0:0:
256,192,26257,1,0,0:0:0:0:
256,192,26340,1,8,0:0:0:0:
256,192,26507,1,0,0:0:0:0:
256,192,26590,1,0,0:0:0:0:
256,192,26673,1,8,0:0:0:0:
256,192,26757,1,0,0:0:0:0:
256,192,26840,1,8,0:0:0:0:
256,192,27007,1,0,0:0:0:0:
256,192,27090,1,8,0:0:0:0:
256,192,27173,1,8,0:0:0:0:
256,192,27257,1,0,0:0:0:0:
256,192,27340,1,8,0:0:0:0:
256,192,27507,1,0,0:0:0:0:
256,192,27562,1,0,0:0:0:0:
256,192,27618,1,0,0:0:0:0:
256,192,27673,1,8,0:0:0:0:
256,192,27840,1,8,0:0:0:0:
256,192,27896,1,8,0:0:0:0:
256,192,27951,1,8,0:0:0:0:
256,192,28007,1,0,0:0:0:0:
256,192,28173,1,0,0:0:0:0:
256,192,28340,1,8,0:0:0:0:
256,192,28507,1,0,0:0:0:0:
256,192,28590,1,0,0:0:0:0:
256,192,28673,1,8,0:0:0:0:
256,192,28840,1,8,0:0:0:0:
256,192,28923,1,8,0:0:0:0:
256,192,29007,1,0,0:0:0:0:
256,192,29090,1,8,0:0:0:0:
256,192,29173,1,0,0:0:0:0:
256,192,29257,1,0,0:0:0:0:
256,192,29340,1,8,0:0:0:0:
256,192,29507,1,0,0:0:0:0:
256,192,29673,1,8,0:0:0:0:
256,192,29840,1,0,0:0:0:0:
256,192,30007,1,12,0:0:0:0:
256,192,30173,1,0,0:0:0:0:
256,192,30340,1,0,0:0:0:0:
256,192,30423,1,0,0:0:0:0:
256,192,30507,1,8,0:0:0:0:
256,192,30590,1,8,0:0:0:0:
256,192,30673,1,0,0:0:0:0:
256,192,30840,1,0,0:0:0:0:
256,192,31007,1,8,0:0:0:0:
256,192,31173,1,0,0:0:0:0:
256,192,31340,1,12,0:0:0:0:
256,192,31507,1,0,0:0:0:0:
256,192,31590,1,8,0:0:0:0:
256,192,31673,1,0,0:0:0:0:
256,192,31757,1,0,0:0:0:0:
256,192,31840,1,8,0:0:0:0:
256,192,31923,1,8,0:0:0:0:
256,192,32007,1,0,0:0:0:0:
256,192,32173,1,8,0:0:0:0:
256,192,32257,1,0,0:0:0:0:
256,192,32340,1,8,0:0:0:0:
256,192,32423,1,8,0:0:0:0:
256,192,32507,1,0,0:0:0:0:
256,192,32590,1,0,0:0:0:0:
256,192,32673,1,12,0:0:0:0:
256,192,32840,1,0,0:0:0:0:
256,192,32923,1,8,0:0:0:0:
256,192,33007,1,0,0:0:0:0:
256,192,33173,1,8,0:0:0:0:
256,192,33507,1,0,0:0:0:0:
256,192,33590,1,8,0:0:0:0:
256,192,33673,1,8,0:0:0:0:
256,192,33840,1,8,0:0:0:0:
256,192,34007,1,0,0:0:0:0:
256,192,34173,1,0,0:0:0:0:
256,192,34340,1,8,0:0:0:0:
256,192,34507,1,0,0:0:0:0:
256,192,34840,1,0,0:0:0:0:
256,192,34923,1,0,0:0:0:0:
256,192,35007,1,8,0:0:0:0:
256,192,35173,1,0,0:0:0:0:
256,192,35340,1,8,0:0:0:0:
256,192,35673,1,8,0:0:0:0:
256,192,35840,1,0,0:0:0:0:
256,192,36007,1,8,0:0:0:0:
256,192,36340,1,8,0:0:0:0:
256,192,36506,1,0,0:0:0:0:
256,192,36673,1,8,0:0:0:0:
256,192,36840,1,8,0:0:0:0:
256,192,36923,1,8,0:0:0:0:
256,192,37006,1,8,0:0:0:0:
256,192,37173,1,8,0:0:0:0:
256,192,37340,1,8,0:0:0:0:
256,192,37506,1,8,0:0:0:0:
256,192,37673,1,8,0:0:0:0:
256,192,37840,1,8,0:0:0:0:
256,192,38006,1,0,0:0:0:0:
256,192,38173,1,0,0:0:0:0:
256,192,38257,1,0,0:0:0:0:
256,192,38340,1,8,0:0:0:0:
256,192,38506,1,0,0:0:0:0:
256,192,38840,1,0,0:0:0:0:
256,192,38923,1,8,0:0:0:0:
256,192,39007,1,8,0:0:0:0:
256,192,39173,1,8,0:0:0:0:
256,192,39340,1,0,0:0:0:0:
256,192,39507,1,0,0:0:0:0:
256,192,39673,1,8,0:0:0:0:
256,192,39840,1,0,0:0:0:0:
256,192,40007,1,8,0:0:0:0:
256,192,40173,1,0,0:0:0:0:
256,192,40257,1,0,0:0:0:0:
256,192,40340,1,8,0:0:0:0:
256,192,40507,1,8,0:0:0:0:
256,192,40673,1,0,0:0:0:0:
256,192,40840,1,8,0:0:0:0:
256,192,41007,1,0,0:0:0:0:
256,192,41340,1,8,0:0:0:0:
256,192,41507,1,8,0:0:0:0:
256,192,41673,1,0,0:0:0:0:
256,192,41840,1,8,0:0:0:0:
256,192,42007,1,0,0:0:0:0:
256,192,42090,1,0,0:0:0:0:
256,192,42173,1,8,0:0:0:0:
256,192,42257,1,8,0:0:0:0:
256,192,42340,1,0,0:0:0:0:
256,192,42423,1,0,0:0:0:0:
256,192,42507,1,8,0:0:0:0:
256,192,42590,1,0,0:0:0:0:
256,192,42673,1,8,0:0:0:0:
256,192,42757,1,8,0:0:0:0:
256,192,42840,1,0,0:0:0:0:
256,192,42923,1,0,0:0:0:0:
256,192,43007,1,8,0:0:0:0:
256,192,43090,1,8,0:0:0:0:
256,192,43173,1,0,0:0:0:0:
256,192,43257,1,0,0:0:0:0:
256,192,43340,1,12,0:0:0:0:
256,192,43673,1,8,0:0:0:0:
256,192,44007,1,0,0:0:0:0:
256,192,44229,1,0,0:0:0:0:
256,192,44451,1,0,0:0:0:0:
256,192,44673,1,8,0:0:0:0:
256,192,45007,1,8,0:0:0:0:
256,192,45173,1,0,0:0:0:0:
256,192,45257,1,0,0:0:0:0:
256,192,45340,1,8,0:0:0:0:
256,192,45507,1,0,0:0:0:0:
256,192,45673,1,8,0:0:0:0:
256,192,45840,1,8,0:0:0:0:
256,192,46007,1,0,0:0:0:0:
256,192,46340,1,8,0:0:0:0:
256,192,46673,1,0,0:0:0:0:
256,192,47007,1,8,0:0:0:0:
256,192,47173,1,0,0:0:0:0:
256,192,47340,1,8,0:0:0:0:
256,192,47507,1,8,0:0:0:0:
256,192,47590,1,8,0:0:0:0:
256,192,47673,1,8,0:0:0:0:
256,192,47840,1,8,0:0:0:0:
256,192,48007,1,8,0:0:0:0:
256,192,48173,1,8,0:0:0:0:
256,192,48340,1,8,0:0:0:0:
256,192,48507,1,8,0:0:0:0:
256,192,48673,1,12,0:0:0:0:
256,192,48840,1,0,0:0:0:0:
256,192,49007,1,8,0:0:0:0:
256,192,49173,1,0,0:0:0:0:
256,192,49507,1,0,0:0:0:0:
256,192,49673,1,8,0:0:0:0:
256,192,50007,1,8,0:0:0:0:
256,192,50340,1,8,0:0:0:0:
256,192,50507,1,0,0:0:0:0:
256,192,50673,1,8,0:0:0:0:
256,192,50840,1,0,0:0:0:0:
256,192,50923,1,0,0:0:0:0:
256,192,51007,1,8,0:0:0:0:
256,192,51173,1,0,0:0:0:0:
256,192,51340,1,12,0:0:0:0:
256,192,51507,1,0,0:0:0:0:
256,192,51590,1,8,0:0:0:0:
256,192,51673,1,0,0:0:0:0:
256,192,51840,1,0,0:0:0:0:
256,192,51923,1,0,0:0:0:0:
256,192,52007,1,8,0:0:0:0:
256,192,52090,1,0,0:0:0:0:
256,192,52173,1,8,0:0:0:0:
256,192,52340,1,8,0:0:0:0:
256,192,52507,1,0,0:0:0:0:
256,192,52673,1,12,0:0:0:0:
256,192,52840,1,0,0:0:0:0:
256,192,52923,1,8,0:0:0:0:
256,192,53007,1,0,0:0:0:0:
256,192,53090,1,0,0:0:0:0:
256,192,53173,1,8,0:0:0:0:
256,192,53257,1,8,0:0:0:0:
256,192,53340,1,0,0:0:0:0:
256,192,53506,1,8,0:0:0:0:
256,192,53590,1,8,0:0:0:0:
256,192,53673,1,0,0:0:0:0:
256,192,53757,1,0,0:0:0:0:
256,192,53840,1,8,0:0:0:0:
256,192,53923,1,0,0:0:0:0:
256,192,54006,1,12,0:0:0:0:
256,192,54340,1,8,0:0:0:0:
256,192,54507,1,0,0:0:0:0:
256,192,54673,1,8,0:0:0:0:
256,192,55007,1,0,0:0:0:0:
256,192,55173,1,0,0:0:0:0:
256,192,55340,1,8,0:0:0:0:
256,192,55507,1,0,0:0:0:0:
256,192,55673,1,8,0:0:0:0:
256,192,55840,1,8,0:0:0:0:
256,192,56007,1,0,0:0:0:0:
256,192,56340,1,0,0:0:0:0:
256,192,56673,1,8,0:0:0:0:
256,192,56840,1,8,0:0:0:0:
256,192,57007,1,0,0:0:0:0:
256,192,57173,1,8,0:0:0:0:
256,192,57340,1,0,0:0:0:0:
256,192,57507,1,0,0:0:0:0:
256,192,57673,1,8,0:0:0:0:
256,192,57757,1,8,0:0:0:0:
256,192,57840,1,0,0:0:0:0:
256,192,58007,1,8,0:0:0:0:
256,192,58173,1,0,0:0:0:0:
256,192,58340,1,0,0:0:0:0:
256,192,58507,1,8,0:0:0:0:
256,192,58673,1,0,0:0:0:0:
256,192,59007,1,0,0:0:0:0:
256,192,59340,1,12,0:0:0:0:
256,192,59673,1,0,0:0:0:0:
256,192,60007,1,0,0:0:0:0:
256,192,60340,1,0,0:0:0:0:
256,192,60673,1,12,0:0:0:0:
256,192,61006,1,0,0:0:0:0:
256,192,61340,1,0,0:0:0:0:
256,192,61673,1,0,0:0:0:0:
256,192,62007,1,12,0:0:0:0:
256,192,62173,1,0,0:0:0:0:
256,192,62340,1,0,0:0:0:0:
256,192,62507,1,0,0:0:0:0:
256,192,62674,1,0,0:0:0:0:
256,192,62840,1,0,0:0:0:0:
256,192,63007,1,0,0:0:0:0:
256,192,63173,1,0,0:0:0:0:
256,192,63340,1,8,0:0:0:0:
256,192,63423,1,0,0:0:0:0:
256,192,63507,1,8,0:0:0:0:
256,192,63590,1,0,0:0:0:0:
256,192,63673,1,8,0:0:0:0:
256,192,63757,1,8,0:0:0:0:
256,192,63840,1,0,0:0:0:0:
256,192,63923,1,0,0:0:0:0:
256,192,64007,1,8,0:0:0:0:
256,192,64090,1,0,0:0:0:0:
256,192,64173,1,8,0:0:0:0:
256,192,64257,1,0,0:0:0:0:
256,192,64340,1,8,0:0:0:0:
256,192,64423,1,8,0:0:0:0:
256,192,64507,1,8,0:0:0:0:
256,192,64590,1,8,0:0:0:0:
256,192,64673,1,0,0:0:0:0:
256,192,64840,1,0,0:0:0:0:
256,192,65007,1,8,0:0:0:0:
256,192,65173,1,0,0:0:0:0:
256,192,65257,1,8,0:0:0:0:
256,192,65340,1,0,0:0:0:0:
256,192,65423,1,8,0:0:0:0:
256,192,65507,1,0,0:0:0:0:
256,192,65673,1,8,0:0:0:0:
256,192,65840,1,0,0:0:0:0:
256,192,66007,1,12,0:0:0:0:
256,192,66340,1,8,0:0:0:0:
256,192,66673,1,8,0:0:0:0:
256,192,67007,1,8,0:0:0:0:
256,192,67090,1,8,0:0:0:0:
256,192,67173,1,0,0:0:0:0:
256,192,67257,1,0,0:0:0:0:
256,192,67340,1,12,0:0:0:0:
256,192,67507,1,0,0:0:0:0:
256,192,67590,1,0,0:0:0:0:
256,192,67673,1,8,0:0:0:0:
256,192,67840,1,0,0:0:0:0:
256,192,68007,1,8,0:0:0:0:
256,192,68090,1,8,0:0:0:0:
256,192,68173,1,0,0:0:0:0:
256,192,68340,1,8,0:0:0:0:
256,192,68507,1,8,0:0:0:0:
256,192,68673,1,0,0:0:0:0:
256,192,69007,1,8,0:0:0:0:
256,192,69173,1,0,0:0:0:0:
256,192,69340,1,8,0:0:0:0:
256,192,69507,1,0,0:0:0:0:
256,192,69590,1,0,0:0:0:0:
256,192,69673,1,8,0:0:0:0:
256,192,69757,1,0,0:0:0:0:
256,192,69840,1,8,0:0:0:0:
256,192,70007,1,0,0:0:0:0:
256,192,70173,1,0,0:0:0:0:
256,192,70257,1,0,0:0:0:0:
256,192,70340,1,8,0:0:0:0:
256,192,70507,1,8,0:0:0:0:
256,192,70590,1,8,0:0:0:0:
256,192,70673,1,0,0:0:0:0:
256,192,70840,1,0,0:0:0:0:
256,192,71007,1,8,0:0:0:0:
256,192,71173,1,0,0:0:0:0:
256,192,71340,1,8,0:0:0:0:
256,192,71423,1,0,0:0:0:0:
256,192,71507,1,8,0:0:0:0:
256,192,71673,1,0,0:0:0:0:
256,192,71840,1,8,0:0:0:0:
256,192,72007,1,0,0:0:0:0:
256,192,72173,1,0,0:0:0:0:
256,192,72257,1,0,0:0:0:0:
256,192,72340,1,8,0:0:0:0:
256,192,72423,1,8,0:0:0:0:
256,192,72507,1,0,0:0:0:0:
256,192,72590,1,0,0:0:0:0:
256,192,72673,1,8,0:0:0:0:
256,192,73007,1,8,0:0:0:0:
256,192,73173,1,8,0:0:0:0:
256,192,73257,1,8,0:0:0:0:
256,192,73340,1,0,0:0:0:0:
256,192,73507,1,0,0:0:0:0:
256,192,73673,1,8,0:0:0:0:
256,192,74007,1,0,0:0:0:0:
256,192,74173,1,0,0:0:0:0:
256,192,74257,1,0,0:0:0:0:
256,192,74340,1,8,0:0:0:0:
256,192,74507,1,8,0:0:0:0:
256,192,74673,1,0,0:0:0:0:
256,192,74840,1,0,0:0:0:0:
256,192,74923,1,0,0:0:0:0:
256,192,75007,1,8,0:0:0:0:
256,192,75090,1,8,0:0:0:0:
256,192,75173,1,0,0:0:0:0:
256,192,75340,1,8,0:0:0:0:
256,192,75507,1,8,0:0:0:0:
256,192,75590,1,0,0:0:0:0:
256,192,75673,1,8,0:0:0:0:
256,192,75840,1,0,0:0:0:0:
256,192,76007,1,8,0:0:0:0:
256,192,76173,1,0,0:0:0:0:
256,192,76340,1,8,0:0:0:0:
256,192,76507,1,8,0:0:0:0:
256,192,76673,1,0,0:0:0:0:
256,192,76840,1,8,0:0:0:0:
256,192,76923,1,8,0:0:0:0:
256,192,77007,1,0,0:0:0:0:
256,192,77173,1,8,0:0:0:0:
256,192,77340,1,0,0:0:0:0:
256,192,77507,1,0,0:0:0:0:
256,192,77673,1,8,0:0:0:0:
256,192,78007,1,12,0:0:0:0:
256,192,78174,1,0,0:0:0:0:
256,192,78257,1,0,0:0:0:0:
256,192,78340,1,8,0:0:0:0:
256,192,78507,1,0,0:0:0:0:
256,192,78674,1,8,0:0:0:0:
256,192,78757,1,8,0:0:0:0:
256,192,78840,1,0,0:0:0:0:
256,192,79007,1,8,0:0:0:0:
256,192,79174,1,8,0:0:0:0:
256,192,79340,1,0,0:0:0:0:
256,192,79674,1,8,0:0:0:0:
256,192,79840,1,0,0:0:0:0:
256,192,80007,1,8,0:0:0:0:
256,192,80174,1,0,0:0:0:0:
256,192,80257,1,0,0:0:0:0:
256,192,80340,1,8,0:0:0:0:
256,192,80423,1,0,0:0:0:0:
256,192,80507,1,8,0:0:0:0:
256,192,80674,1,0,0:0:0:0:
256,192,80840,1,0,0:0:0:0:
256,192,80924,1,0,0:0:0:0:
256,192,81007,1,8,0:0:0:0:
256,192,81174,1,8,0:0:0:0:
256,192,81257,1,8,0:0:0:0:
256,192,81340,1,0,0:0:0:0:
256,192,81507,1,0,0:0:0:0:
256,192,81674,1,8,0:0:0:0:
256,192,81840,1,0,0:0:0:0:
256,192,82007,1,8,0:0:0:0:
256,192,82090,1,0,0:0:0:0:
256,192,82174,1,8,0:0:0:0:
256,192,82340,1,0,0:0:0:0:
256,192,82507,1,8,0:0:0:0:
256,192,82673,1,8,0:0:0:0:
256,192,82840,1,0,0:0:0:0:
256,192,82923,1,0,0:0:0:0:
256,192,83007,1,8,0:0:0:0:
256,192,83090,1,8,0:0:0:0:
256,192,83174,1,0,0:0:0:0:
256,192,83257,1,0,0:0:0:0:
256,192,83340,1,8,0:0:0:0:
256,192,83507,1,0,0:0:0:0:
256,192,83674,1,8,0:0:0:0:
256,192,83840,1,8,0:0:0:0:
256,192,83924,1,8,0:0:0:0:
256,192,84007,1,0,0:0:0:0:
256,192,84174,1,0,0:0:0:0:
256,192,84340,1,8,0:0:0:0:
256,192,84507,1,0,0:0:0:0:
256,192,84673,1,8,0:0:0:0:
256,192,84840,1,8,0:0:0:0:
256,192,84924,1,8,0:0:0:0:
256,192,85007,1,0,0:0:0:0:
256,192,85174,1,8,0:0:0:0:
256,192,85340,1,0,0:0:0:0:
256,192,85507,1,8,0:0:0:0:
256,192,85674,1,8,0:0:0:0:
256,192,85840,1,0,0:0:0:0:
256,192,86007,1,12,0:0:0:0:
256,192,86174,1,8,0:0:0:0:
256,192,86257,1,0,0:0:0:0:
256,192,86340,1,8,0:0:0:0:
256,192,86507,1,8,0:0:0:0:
256,192,86674,1,0,0:0:0:0:
256,192,86840,1,8,0:0:0:0:
256,192,87007,1,0,0:0:0:0:
256,192,87174,1,0,0:0:0:0:
256,192,87340,1,12,0:0:0:0:
256,192,87507,1,0,0:0:0:0:
256,192,87590,1,0,0:0:0:0:
256,192,87674,1,8,0:0:0:0:
256,192,87757,1,0,0:0:0:0:
256,192,87840,1,8,0:0:0:0:
256,192,88007,1,8,0:0:0:0:
256,192,88174,1,8,0:0:0:0:
256,192,88257,1,0,0:0:0:0:
256,192,88340,1,8,0:0:0:0:
256,192,88423,1,8,0:0:0:0:
256,192,88507,1,0,0:0:0:0:
256,192,88590,1,0,0:0:0:0:
256,192,88674,1,12,0:0:0:0:
256,192,89007,1,8,0:0:0:0:
256,192,89173,1,0,0:0:0:0:
256,192,89340,1,8,0:0:0:0:
256,192,89423,1,8,0:0:0:0:
256,192,89507,1,0,0:0:0:0:
256,192,89590,1,0,0:0:0:0:
256,192,89673,1,8,0:0:0:0:
256,192,89757,1,0,0:0:0:0:
256,192,89840,1,8,0:0:0:0:
256,192,89923,1,8,0:0:0:0:
256,192,90007,1,0,0:0:0:0:
256,192,90173,1,0,0:0:0:0:
256,192,90257,1,8,0:0:0:0:
256,192,90340,1,8,0:0:0:0:
256,192,90507,1,8,0:0:0:0:
256,192,90590,1,8,0:0:0:0:
256,192,90673,1,0,0:0:0:0:
256,192,90840,1,0,0:0:0:0:
256,192,91007,1,8,0:0:0:0:
256,192,91173,1,0,0:0:0:0:
256,192,91340,1,8,0:0:0:0:
256,192,91507,1,8,0:0:0:0:
256,192,91590,1,0,0:0:0:0:
256,192,91673,1,8,0:0:0:0:
256,192,91840,1,0,0:0:0:0:
256,192,92007,1,0,0:0:0:0:
256,192,92090,1,8,0:0:0:0:
256,192,92173,1,0,0:0:0:0:
256,192,92340,1,8,0:0:0:0:
256,192,92507,1,0,0:0:0:0:
256,192,92673,1,8,0:0:0:0:
256,192,92757,1,8,0:0:0:0:
256,192,92840,1,0,0:0:0:0:
256,192,92923,1,8,0:0:0:0:
256,192,93007,1,0,0:0:0:0:
256,192,93173,1,0,0:0:0:0:
256,192,93257,1,8,0:0:0:0:
256,192,93340,1,8,0:0:0:0:
256,192,93423,1,0,0:0:0:0:
256,192,93507,1,8,0:0:0:0:
256,192,93673,1,8,0:0:0:0:
256,192,93757,1,8,0:0:0:0:
256,192,93840,1,0,0:0:0:0:
256,192,93923,1,0,0:0:0:0:
256,192,94007,1,8,0:0:0:0:
256,192,94173,1,8,0:0:0:0:
256,192,94229,1,0,0:0:0:0:
256,192,94285,1,0,0:0:0:0:
256,192,94340,1,8,0:0:0:0:
256,192,94507,1,0,0:0:0:0:
256,192,94562,1,8,0:0:0:0:
256,192,94618,1,8,0:0:0:0:
256,192,94673,1,0,0:0:0:0:
256,192,94840,1,0,0:0:0:0:
256,192,95007,1,8,0:0:0:0:
256,192,95173,1,0,0:0:0:0:
256,192,95340,1,8,0:0:0:0:
256,192,95507,1,0,0:0:0:0:
256,192,95590,1,8,0:0:0:0:
256,192,95673,1,8,0:0:0:0:
256,192,95757,1,0,0:0:0:0:
256,192,95840,1,8,0:0:0:0:
256,192,95923,1,0,0:0:0:0:
256,192,96007,1,8,0:0:0:0:
256,192,96173,1,0,0:0:0:0:
256,192,96340,1,8,0:0:0:0:
256,192,96507,1,0,0:0:0:0:
256,192,96673,1,8,0:0:0:0:
256,192,96757,1,8,0:0:0:0:
256,192,96840,1,0,0:0:0:0:
256,192,97007,1,0,0:0:0:0:
256,192,97173,1,8,0:0:0:0:
256,192,97507,1,0,0:0:0:0:
256,192,97673,1,8,0:0:0:0:
256,192,97840,1,0,0:0:0:0:
256,192,98007,1,0,0:0:0:0:
256,192,98090,1,8,0:0:0:0:
256,192,98173,1,8,0:0:0:0:
256,192,98257,1,0,0:0:0:0:
256,192,98340,1,8,0:0:0:0:
256,192,98423,1,0,0:0:0:0:
256,192,98507,1,8,0:0:0:0:
256,192,98590,1,8,0:0:0:0:
256,192,98673,1,0,0:0:0:0:
256,192,98757,1,0,0:0:0:0:
256,192,98840,1,8,0:0:0:0:
256,192,98923,1,0,0:0:0:0:
256,192,99007,1,8,0:0:0:0:
256,192,99090,1,8,0:0:0:0:
256,192,99173,1,0,0:0:0:0:
256,192,99257,1,0,0:0:0:0:
256,192,99340,1,12,0:0:0:0:
256,192,99507,1,0,0:0:0:0:
256,192,99590,1,8,0:0:0:0:
256,192,99673,1,8,0:0:0:0:
256,192,99757,1,0,0:0:0:0:
256,192,99840,1,8,0:0:0:0:
256,192,100007,1,8,0:0:0:0:
256,192,100173,1,0,0:0:0:0:
256,192,100340,1,8,0:0:0:0:
256,192,100423,1,8,0:0:0:0:
256,192,100507,1,0,0:0:0:0:
256,192,100590,1,8,0:0:0:0:
256,192,100673,1,0,0:0:0:0:
256,192,100840,1,0,0:0:0:0:
256,192,101007,1,8,0:0:0:0:
256,192,101090,1,0,0:0:0:0:
256,192,101173,1,8,0:0:0:0:
256,192,101340,1,8,0:0:0:0:
256,192,101507,1,8,0:0:0:0:
256,192,101673,1,0,0:0:0:0:
256,192,101840,1,0,0:0:0:0:
256,192,102007,1,8,0:0:0:0:
256,192,102173,1,0,0:0:0:0:
256,192,102229,1,8,0:0:0:0:
256,192,102285,1,0,0:0:0:0:
256,192,102340,1,8,0:0:0:0:
256,192,102507,1,8,0:0:0:0:
256,192,102562,1,0,0:0:0:0:
256,192,102618,1,8,0:0:0:0:
256,192,102673,1,0,0:0:0:0:
256,192,102840,1,0,0:0:0:0:
256,192,102923,1,8,0:0:0:0:
256,192,103007,1,8,0:0:0:0:
256,192,103173,1,0,0:0:0:0:
256,192,103340,1,8,0:0:0:0:
256,192,103423,1,0,0:0:0:0:
256,192,103507,1,8,0:0:0:0:
256,192,103590,1,8,0:0:0:0:
256,192,103673,1,0,0:0:0:0:
256,192,103757,1,0,0:0:0:0:
256,192,103840,1,8,0:0:0:0:
256,192,103923,1,8,0:0:0:0:
256,192,104007,1,0,0:0:0:0:
256,192,104090,1,8,0:0:0:0:
256,192,104173,1,0,0:0:0:0:
256,192,104257,1,0,0:0:0:0:
256,192,104340,1,8,0:0:0:0:
256,192,104423,1,8,0:0:0:0:
256,192,104507,1,0,0:0:0:0:
256,192,104590,1,0,0:0:0:0:
256,192,104673,1,12,0:0:0:0:
256,192,105007,1,0,0:0:0:0:
256,192,105340,1,0,0:0:0:0:
256,192,105673,1,0,0:0:0:0:
256,192,106007,1,12,0:0:0:0:
256,192,106340,1,0,0:0:0:0:
256,192,106673,1,0,0:0:0:0:
256,192,107007,1,0,0:0:0:0:
256,192,107340,1,12,0:0:0:0:
256,192,107507,1,0,0:0:0:0:
256,192,107673,1,0,0:0:0:0:
256,192,107840,1,0,0:0:0:0:
256,192,108007,1,0,0:0:0:0:
256,192,108173,1,0,0:0:0:0:
256,192,108340,1,0,0:0:0:0:
256,192,108507,1,0,0:0:0:0:
256,192,108673,1,0,0:0:0:0:
256,192,108757,1,8,0:0:0:0:
256,192,108840,1,8,0:0:0:0:
256,192,108923,1,0,0:0:0:0:
256,192,109007,1,8,0:0:0:0:
256,192,109090,1,0,0:0:0:0:
256,192,109173,1,8,0:0:0:0:
256,192,109257,1,0,0:0:0:0:
256,192,109340,1,8,0:0:0:0:
256,192,109423,1,8,0:0:0:0:
256,192,109507,1,8,0:0:0:0:
256,192,109590,1,8,0:0:0:0:
256,192,109673,1,0,0:0:0:0:
256,192,109757,1,0,0:0:0:0:
256,192,109840,1,8,0:0:0:0:
256,192,109923,1,0,0:0:0:0:
256,192,110007,1,12,0:0:0:0:
256,192,110173,12,0,115173,0:0:0:0:
