osu file format v14

[General]
AudioFilename: audio.mp3
AudioLeadIn: 0
PreviewTime: 67257
Countdown: 0
SampleSet: Soft
StackLeniency: 0.2
Mode: 0
LetterboxInBreaks: 0
WidescreenStoryboard: 0

[Editor]
Bookmarks: 10840,63340
DistanceSpacing: 0.5
BeatDivisor: 4
GridSize: 32
TimelineZoom: 4.299998

[Metadata]
Title:Oriental Blossom
TitleUnicode:Oriental Blossom
Artist:Eisyo-kobu
ArtistUnicode:影翔鼓舞
Creator:CyberX
Version:Sakura
Source:SOUND VOLTEX III GRAVITY WARS
Tags:[-Chocola-]
BeatmapID:1644108
BeatmapSetID:783037

[Difficulty]
HPDrainRate:6
CircleSize:3.5
OverallDifficulty:8
ApproachRate:9.5
SliderMultiplier:3.2
SliderTickRate:1

[Events]
//Background and Video events
0,0,"20121208.png",0,0
//Break Periods
2,54207,58740
//Storyboard Layer 0 (Background)
//Storyboard Layer 1 (Fail)
//Storyboard Layer 2 (Pass)
//Storyboard Layer 3 (Foreground)
//Storyboard Sound Samples

[TimingPoints]
674,333.333333333333,4,2,1,80,1,0
674,-200,4,2,1,80,0,0
8673,-100,4,2,1,80,0,0
9007,-76.9230769230769,4,2,1,80,0,0
9340,-62.5,4,2,1,80,0,0
9673,-52.6315789473684,4,2,1,80,0,0
10007,-1000,4,2,1,80,0,0
10840,-200,4,2,1,80,0,0
11007,-200,4,2,1,80,0,1
11340,-100,4,2,1,80,0,0
16007,-66.6666666666667,4,2,1,80,0,0
17007,-100,4,2,1,80,0,0
18007,-66.6666666666667,4,2,1,80,0,0
18340,-100,4,2,1,80,0,0
21340,-66.6666666666667,4,2,1,80,0,0
22007,-66.6666666666667,4,2,1,80,0,1
27007,-66.6666666666667,4,2,1,80,0,0
27340,-66.6666666666667,4,2,1,80,0,1
32673,-142.857142857143,4,2,1,80,0,0
36673,-100,4,2,1,80,0,0
38007,-142.857142857143,4,2,1,80,0,0
43340,-100,4,2,1,80,0,0
54007,-200,4,2,1,80,0,0
59340,-142.857142857143,4,2,1,80,0,0
64673,-200,4,2,1,80,0,0
67007,-200,4,2,1,80,0,1
67340,-66.6666666666667,4,2,1,80,0,0
88673,-66.6666666666667,4,2,1,80,0,1
105007,-200,4,2,1,80,0,1
105340,-66.6666666666667,4,2,1,80,0,1
106340,-200,4,2,1,80,0,1
106673,-66.6666666666667,4,2,1,80,0,1
110007,-142.857142857143,4,2,1,80,0,0
110090,-142.857142857143,4,2,1,40,0,0

[Colours]
Combo1 : 249,236,208
Combo2 : 255,0,255
Combo3 : 255,255,255
Combo4 : 255,128,255
Combo5 : 255,128,192

[HitObjects]
57,238,674,6,0,P|41:209|79:199,1,80,8|0,0:0|0:0,0:0:0:0:
117,297,1007,5,0,0:0:0:0:
42,348,1173,1,0,0:0:0:0:
210,306,1340,6,0,P|240:327|384:306,1,160,8|0,0:0|0:0,0:0:0:0:
480,361,1840,5,0,0:0:0:0:
480,361,2007,2,0,P|468:322|485:275,1,80,8|0,0:0|0:0,0:0:0:0:
270,258,2340,2,0,P|311:245|371:255,1,80,0|0,0:0|0:0,0:0:0:0:
479,141,2673,6,0,P|405:164|304:130,1,160,8|0,0:0|0:0,0:0:0:0:
259,74,3173,1,0,0:0:0:0:
70,66,3340,6,0,P|127:40|169:42,1,80,8|0,0:0|0:0,0:0:0:0:
222,169,3673,2,0,P|181:182|121:172,1,80,0|0,0:0|0:0,0:0:0:0:
40,338,4007,6,0,P|117:289|212:286,1,160,8|0,0:0|0:0,0:0:0:0:
257,347,4507,1,0,0:0:0:0:
423,309,4673,6,0,P|382:314|354:342,1,80,8|0,0:0|0:0,0:0:0:0:
460,220,5007,2,0,P|455:179|427:151,1,80,0|0,0:0|0:0,0:0:0:0:
344,59,5340,2,0,P|317:87|313:126,1,80,8|0,0:0|0:0,0:0:0:0:
183,281,5673,6,0,P|215:210|194:153,1,120,0|0,0:0|0:0,0:0:0:0:
79,170,6007,6,0,P|70:201|101:171,1,80,8|0,0:0|0:0,0:0:0:0:
78,56,6340,2,0,P|86:25|56:54,1,80,0|0,0:0|0:0,0:0:0:0:
197,118,6673,6,0,L|305:112,1,80,10|0,0:0|0:0,0:0:0:0:
404,90,7007,2,0,P|439:58|392:56,1,120,0|0,0:0|0:0,0:0:0:0:
359,323,7340,6,0,P|349:355|381:324,1,80,8|0,0:0|0:0,0:0:0:0:
358,209,7673,2,0,P|366:179|336:207,1,80,0|0,0:0|0:0,0:0:0:0:
158,275,8007,6,0,L|265:271,1,80,10|0,0:0|0:0,0:0:0:0:
57,314,8340,2,0,P|11:319|50:344,1,120,0|0,0:0|0:0,0:0:0:0:
95,156,8673,6,0,P|74:178|3:220,1,80,8|0,0:0|0:0,0:0:0:0:
71,230,8840,6,0,P|90:195|95:156,1,80,0|0,0:0|0:0,0:0:0:0:
94,155,9007,6,0,P|102:184|103:266,1,103.999995239258,0|0,0:0|0:0,0:0:0:0:
159,233,9174,6,0,P|128:183|82:147,1,103.999995239258,0|0,0:0|0:0,0:0:0:0:
93,154,9340,6,0,P|130:149|232:166,1,128,8|0,0:0|0:0,0:0:0:0:
202,92,9507,6,0,P|134:118|82:166,1,128,0|0,0:0|0:0,0:0:0:0:
92,152,9673,6,0,P|93:111|130:6,1,151.999995941162,0|0,0:0|0:0,0:0:0:0:
38,14,9840,6,0,P|52:91|94:155,1,151.999995941162,0|0,0:0|0:0,0:0:0:0:
293,84,10007,6,0,P|313:59|321:29,1,64,8|8,0:0|0:0,0:0:0:0:
15,302,10840,6,0,P|30:287|59:279,1,40,0|0,0:0|0:0,0:0:0:0:
134,306,11007,5,0,0:0:0:0:
187,231,11091,5,0,0:0:0:0:
132,158,11174,5,0,0:0:0:0:
46,189,11257,5,0,0:0:0:0:
47,281,11340,6,0,P|110:334|268:322,1,240,12|0,0:0|0:0,0:0:0:0:
333,278,11673,5,0,0:0:0:0:
427,270,11840,1,0,0:0:0:0:
481,343,12007,5,8,0:0:0:0:
427,270,12173,1,0,0:0:0:0:
333,278,12340,5,0,0:0:0:0:
279,205,12507,1,0,0:0:0:0:
206,144,12673,6,0,L|386:138,1,160,8|0,0:0|0:0,0:0:0:0:
246,273,13007,2,0,L|66:279,1,160,0|0,0:0|0:0,0:0:0:0:
22,154,13257,5,0,0:0:0:0:
42,127,13340,2,0,L|302:118,1,240,8|0,0:0|0:0,0:0:0:0:
485,63,13673,6,0,P|428:135|344:129,1,160,0|0,0:0|0:0,0:0:0:0:
365,348,14007,2,0,P|322:283|245:272,1,160,8|0,0:0|0:0,0:0:0:0:
25,325,14340,6,0,P|89:282|100:205,1,160,0|0,0:0|0:0,0:0:0:0:
29,98,14590,1,0,0:0:0:0:
10,67,14673,2,0,L|19:289,1,160,8|0,0:0|0:0,0:0:0:0:
197,343,15007,5,0,0:0:0:0:
259,285,15173,1,0,0:0:0:0:
340,269,15340,1,8,0:0:0:0:
481,249,15507,5,0,0:0:0:0:
419,191,15673,1,0,0:0:0:0:
338,175,15840,1,0,0:0:0:0:
272,136,16007,6,0,P|334:124|418:88,1,120.000004577637,8|0,0:0|0:0,0:0:0:0:
206,44,16173,2,0,P|153:79|123:127,1,120.000004577637,0|0,0:0|0:0,0:0:0:0:
188,188,16340,6,0,P|210:250|215:328,1,120.000004577637,2|0,0:0|0:0,0:0:0:0:
19,347,16507,2,0,P|69:306|135:294,1,120.000004577637,0|0,0:0|0:0,0:0:0:0:
312,344,16673,5,8,0:0:0:0:
414,297,16840,1,0,0:0:0:0:
321,298,17007,5,2,0:0:0:0:
423,345,17174,1,0,0:0:0:0:
487,228,17340,6,0,P|395:279|261:252,1,240,8|0,0:0|0:0,0:0:0:0:
0,345,17673,2,0,P|92:294|226:321,1,240,0|0,0:0|0:0,0:0:0:0:
304,370,18007,6,0,P|220:258|230:157,1,240.000009155274,8|0,0:0|0:0,0:0:0:0:
370,39,18340,5,2,0:0:0:0:
295,95,18507,1,0,0:0:0:0:
209,86,18673,6,0,P|136:66|45:91,1,160,8|0,0:0|0:0,0:0:0:0:
333,179,19007,2,0,P|406:199|497:174,1,160,0|0,0:0|0:0,0:0:0:0:
258,280,19257,5,0,0:0:0:0:
243,259,19340,2,0,P|146:232|7:267,1,240,8|0,0:0|0:0,0:0:0:0:
16,352,19673,5,0,0:0:0:0:
13,263,19840,1,0,0:0:0:0:
10,174,20007,5,8,0:0:0:0:
130,105,20173,1,0,0:0:0:0:
35,96,20340,5,2,0:0:0:0:
146,183,20507,1,0,0:0:0:0:
0,183,20673,5,8,0:0:0:0:
155,93,20840,1,0,0:0:0:0:
32,81,21007,5,2,0:0:0:0:
176,194,21173,1,0,0:0:0:0:
256,167,21340,6,0,P|322:145|392:148,1,120.000004577637,2|0,0:0|0:0,0:0:0:0:
468,127,21507,2,0,P|402:105|332:108,1,120.000004577637,0|0,0:0|0:0,0:0:0:0:
82,263,21673,6,0,P|115:319|173:349,1,120.000004577637,8|0,0:0|0:0,0:0:0:0:
256,311,21840,2,0,P|328:297|381:315,1,120.000004577637,0|0,0:0|0:0,0:0:0:0:
473,356,22007,5,4,0:0:0:0:
473,247,22173,5,0,0:0:0:0:
470,187,22256,1,0,0:0:0:0:
468,127,22340,1,8,0:0:0:0:
473,356,22507,5,0,0:0:0:0:
473,247,22673,5,2,0:0:0:0:
470,187,22756,1,0,0:0:0:0:
468,127,22840,1,0,0:0:0:0:
341,32,23007,5,8,0:0:0:0:
343,72,23090,1,0,0:0:0:0:
344,111,23173,1,0,0:0:0:0:
346,150,23257,1,0,0:0:0:0:
347,189,23340,5,2,0:0:0:0:
265,260,23507,5,0,0:0:0:0:
267,299,23590,1,0,0:0:0:0:
268,338,23673,1,8,0:0:0:0:
371,348,23840,5,0,0:0:0:0:
371,309,23923,1,0,0:0:0:0:
369,270,24006,1,2,0:0:0:0:
161,249,24173,5,2,0:0:0:0:
163,288,24340,5,10,0:0:0:0:
164,328,24507,5,2,0:0:0:0:
473,356,24673,5,4,0:0:0:0:
262,181,24840,5,0,0:0:0:0:
264,220,24923,1,0,0:0:0:0:
265,260,25007,1,8,0:0:0:0:
473,356,25173,5,0,0:0:0:0:
259,102,25340,5,2,0:0:0:0:
261,141,25423,1,0,0:0:0:0:
262,181,25507,1,0,0:0:0:0:
473,356,25673,5,8,0:0:0:0:
256,23,25840,1,0,0:0:0:0:
25,230,26007,5,2,0:0:0:0:
84,227,26090,1,0,0:0:0:0:
144,225,26173,1,0,0:0:0:0:
204,223,26257,1,0,0:0:0:0:
263,220,26340,5,8,0:0:0:0:
473,356,26507,5,0,0:0:0:0:
413,358,26590,1,0,0:0:0:0:
353,360,26674,1,0,0:0:0:0:
148,345,26840,5,0,0:0:0:0:
261,141,27007,5,8,0:0:0:0:
320,138,27090,1,0,0:0:0:0:
380,136,27173,1,0,0:0:0:0:
440,134,27256,1,0,0:0:0:0:
500,131,27340,5,4,0:0:0:0:
204,223,27507,6,0,L|115:228,2,80.0000030517579,0|0|0,0:0|0:0|0:0,0:0:0:0:
109,242,27673,1,8,0:0:0:0:
320,138,27785,6,0,L|399:133,2,80.0000030517579,0|0|0,0:0|0:0|0:0,0:0:0:0:
415,119,27951,1,0,0:0:0:0:
24,229,28173,5,0,0:0:0:0:
500,132,28340,1,8,0:0:0:0:
116,21,28507,5,0,0:0:0:0:
118,81,28590,1,0,0:0:0:0:
120,141,28674,1,2,0:0:0:0:
208,343,28840,5,0,0:0:0:0:
206,283,28924,1,0,0:0:0:0:
204,223,29007,1,8,0:0:0:0:
318,78,29173,5,0,0:0:0:0:
320,138,29257,1,0,0:0:0:0:
322,198,29340,1,0,0:0:0:0:
328,378,29507,5,0,0:0:0:0:
198,43,29673,1,12,0:0:0:0:
24,229,30007,5,0,0:0:0:0:
103,270,30173,1,0,0:0:0:0:
151,353,30340,1,8,0:0:0:0:
41,338,30507,6,0,P|177:274|388:317,1,360.000013732911,0|0,0:0|0:0,0:0:0:0:
443,368,30840,5,0,0:0:0:0:
507,312,31007,6,0,P|396:208|182:183,1,360.000013732911,8|0,0:0|0:0,0:0:0:0:
91,184,31340,5,2,0:0:0:0:
37,100,31507,5,2,0:0:0:0:
37,100,31590,2,0,L|166:92,1,120.000004577637,2|0,0:0|0:0,0:0:0:0:
168,275,31757,5,2,0:0:0:0:
168,275,31840,2,0,L|39:283,1,120.000004577637,2|0,0:0|0:0,0:0:0:0:
323,264,32007,5,8,0:0:0:0:
391,113,32173,5,2,0:0:0:0:
398,37,32257,1,0,0:0:0:0:
320,80,32340,5,0,0:0:0:0:
339,166,32423,1,0,0:0:0:0:
426,174,32507,1,0,0:0:0:0:
464,96,32590,1,0,0:0:0:0:
398,37,32673,5,12,0:0:0:0:
472,311,32840,5,0,0:0:0:0:
424,339,32923,1,0,0:0:0:0:
368,344,33006,1,2,0:0:0:0:
268,299,33173,6,0,L|55:312,1,167.999994873047,0|0,0:0|0:0,0:0:0:0:
28,352,33507,1,0,0:0:0:0:
468,200,33673,6,0,L|255:213,1,167.999994873047,8|0,0:0|0:0,0:0:0:0:
23,227,34007,5,0,0:0:0:0:
96,148,34173,5,0,0:0:0:0:
118,96,34256,1,0,0:0:0:0:
117,40,34339,1,8,0:0:0:0:
314,112,34507,5,0,0:0:0:0:
275,151,34590,1,0,0:0:0:0:
223,173,34673,1,0,0:0:0:0:
220,60,34840,5,0,0:0:0:0:
153,343,35007,6,0,L|143:184,1,111.999996582031,8|0,0:0|0:0,0:0:0:0:
247,283,35340,6,0,P|360:230|429:243,1,167.999994873047,0|0,0:0|0:0,0:0:0:0:
1,294,35673,2,0,P|114:347|183:334,1,167.999994873047,8|0,0:0|0:0,0:0:0:0:
499,363,36007,2,0,P|429:317|346:313,1,167.999994873047,0|0,0:0|0:0,0:0:0:0:
256,365,36340,5,8,0:0:0:0:
256,365,36507,1,0,0:0:0:0:
265,159,36673,6,0,P|270:198|261:237,1,80,2|0,0:0|0:0,0:0:0:0:
182,65,36840,5,0,0:0:0:0:
257,40,36923,1,0,0:0:0:0:
336,47,37006,1,8,0:0:0:0:
182,65,37173,5,0,0:0:0:0:
336,47,37340,5,0,0:0:0:0:
217,48,37507,5,0,0:0:0:0:
297,39,37673,5,8,0:0:0:0:
257,40,37840,5,0,0:0:0:0:
192,197,38007,5,0,0:0:0:0:
40,297,38173,5,0,0:0:0:0:
70,322,38256,1,0,0:0:0:0:
107,335,38339,1,8,0:0:0:0:
232,347,38507,6,0,P|317:290|421:311,1,167.999994873047,0|0,0:0|0:0,0:0:0:0:
486,330,38840,1,2,0:0:0:0:
192,197,39007,6,0,P|106:140|2:161,1,167.999994873047,8|0,0:0|0:0,0:0:0:0:
278,147,39340,5,0,0:0:0:0:
369,133,39507,1,0,0:0:0:0:
458,149,39673,5,8,0:0:0:0:
192,197,39840,1,0,0:0:0:0:
458,149,40007,5,2,0:0:0:0:
191,53,40340,5,8,0:0:0:0:
100,39,40507,1,0,0:0:0:0:
10,55,40673,5,2,0:0:0:0:
277,103,40840,1,0,0:0:0:0:
11,55,41007,5,8,0:0:0:0:
395,283,41340,5,0,0:0:0:0:
304,269,41507,1,0,0:0:0:0:
215,285,41673,5,8,0:0:0:0:
481,333,41840,1,0,0:0:0:0:
151,348,42007,6,0,P|134:314|130:270,3,55.9999982910157,8|0|0|0,0:0|0:0|0:0|0:0,0:0:0:0:
39,274,42340,6,0,P|51:237|79:203,3,55.9999982910157,2|0|0|0,0:0|0:0|0:0|0:0,0:0:0:0:
12,142,42673,6,0,P|45:125|90:121,3,55.9999982910157,8|0|0|0,0:0|0:0|0:0|0:0,0:0:0:0:
153,200,43007,5,2,0:0:0:0:
246,196,43090,1,2,0:0:0:0:
339,193,43173,1,2,0:0:0:0:
432,190,43257,1,2,0:0:0:0:
454,288,43340,6,0,P|372:255|496:96,1,320,12|0,0:0|0:0,0:0:0:0:
250,328,44007,6,0,L|12:341,2,213.333333333333,8|0|0,0:0|0:0|0:0,0:0:0:0:
363,349,44673,5,2,0:0:0:0:
283,251,44840,1,0,0:0:0:0:
181,223,45007,1,8,0:0:0:0:
38,231,45173,5,0,0:0:0:0:
118,133,45340,1,0,0:0:0:0:
220,105,45507,1,0,0:0:0:0:
314,51,45673,6,0,P|221:103|86:69,1,240,8|0,0:0|0:0,0:0:0:0:
417,68,46007,6,0,P|367:130|262:170,1,160,2|0,0:0|0:0,0:0:0:0:
24,158,46340,2,0,P|96:190|208:178,1,160,10|0,0:0|0:0,0:0:0:0:
499,297,46673,6,0,P|419:292|325:231,1,160,2|0,0:0|0:0,0:0:0:0:
9,347,47007,2,0,P|85:326|165:246,1,160,10|0,0:0|0:0,0:0:0:0:
257,201,47340,5,2,0:0:0:0:
459,145,47507,5,0,0:0:0:0:
386,111,47590,1,0,0:0:0:0:
334,52,47673,1,8,0:0:0:0:
459,145,47840,5,0,0:0:0:0:
334,52,48007,5,0,0:0:0:0:
420,131,48174,5,0,0:0:0:0:
357,83,48340,5,8,0:0:0:0:
386,111,48507,5,0,0:0:0:0:
252,204,48673,5,4,0:0:0:0:
54,305,48840,5,0,0:0:0:0:
88,323,48923,1,0,0:0:0:0:
128,330,49006,1,8,0:0:0:0:
214,318,49173,6,0,P|319:273|452:305,1,240,0|0,0:0|0:0,0:0:0:0:
489,362,49507,1,2,0:0:0:0:
126,238,49673,6,0,P|174:142|294:89,1,240,8|0,0:0|0:0,0:0:0:0:
402,117,50007,5,2,0:0:0:0:
494,186,50173,1,0,0:0:0:0:
475,94,50340,5,8,0:0:0:0:
383,163,50506,1,0,0:0:0:0:
259,204,50673,5,0,0:0:0:0:
374,251,50840,1,0,0:0:0:0:
150,161,51007,5,8,0:0:0:0:
251,44,51340,6,0,L|259:216,1,160,0|0,0:0|0:0,0:0:0:0:
189,276,51673,5,8,0:0:0:0:
322,277,51840,1,0,0:0:0:0:
171,339,52007,5,0,0:0:0:0:
339,339,52173,1,0,0:0:0:0:
72,282,52340,5,8,0:0:0:0:
444,273,52507,1,0,0:0:0:0:
256,270,52673,5,0,0:0:0:0:
57,174,52840,5,2,0:0:0:0:
57,174,52924,2,0,P|37:133|36:86,1,80,2|0,0:0|0:0,0:0:0:0:
231,31,53090,5,2,0:0:0:0:
231,31,53174,2,0,P|254:87|252:122,1,80,2|0,0:0|0:0,0:0:0:0:
171,339,53340,5,8,0:0:0:0:
385,264,53507,5,0,0:0:0:0:
354,338,53591,1,0,0:0:0:0:
308,249,53673,5,2,0:0:0:0:
379,189,53757,1,0,0:0:0:0:
458,236,53841,1,0,0:0:0:0:
441,326,53924,1,0,0:0:0:0:
354,338,54007,5,8,0:0:0:0:
161,70,59340,6,0,P|177:142|207:86,1,167.999994873047,8|0,0:0|0:0,0:0:0:0:
57,176,59673,6,0,P|39:116|55:50,1,111.999996582031,0|0,0:0|0:0,0:0:0:0:
289,45,60007,6,0,P|307:105|291:171,1,111.999996582031,8|0,0:0|0:0,0:0:0:0:
129,305,60340,6,0,P|207:258|274:262,1,111.999996582031,0|0,0:0|0:0,0:0:0:0:
357,355,60673,6,0,P|373:282|403:338,1,167.999994873047,8|0,0:0|0:0,0:0:0:0:
417,194,61007,6,0,P|458:222|504:291,1,111.999996582031,0|0,0:0|0:0,0:0:0:0:
238,54,61340,6,0,P|197:82|151:151,1,111.999996582031,8|0,0:0|0:0,0:0:0:0:
346,24,61673,6,0,P|404:32|467:70,1,111.999996582031,0|0,0:0|0:0,0:0:0:0:
218,226,62007,5,8,0:0:0:0:
321,227,62173,1,0,0:0:0:0:
229,190,62340,5,0,0:0:0:0:
323,270,62506,1,0,0:0:0:0:
184,129,62673,5,8,0:0:0:0:
341,118,62839,1,0,0:0:0:0:
280,365,63007,5,0,0:0:0:0:
147,281,63174,1,0,0:0:0:0:
384,249,63340,5,8,0:0:0:0:
402,245,63423,1,0,0:0:0:0:
418,255,63507,1,0,0:0:0:0:
422,272,63590,1,0,0:0:0:0:
413,288,63674,5,2,0:0:0:0:
395,292,63757,1,0,0:0:0:0:
379,283,63840,1,0,0:0:0:0:
375,265,63924,1,0,0:0:0:0:
342,191,64006,5,8,0:0:0:0:
414,175,64089,1,0,0:0:0:0:
478,213,64173,1,0,0:0:0:0:
494,284,64256,1,0,0:0:0:0:
456,348,64340,5,2,0:0:0:0:
384,364,64423,1,0,0:0:0:0:
321,325,64506,1,0,0:0:0:0:
305,254,64590,1,0,0:0:0:0:
227,236,64673,6,0,L|141:245,2,80,0|0|0,0:0|0:0|0:0,0:0:0:0:
56,304,65173,1,0,0:0:0:0:
55,194,65340,6,0,L|48:127,1,40,0|0,0:0|0:0,0:0:0:0:
110,78,65507,2,0,L|103:11,1,40,0|0,0:0|0:0,0:0:0:0:
174,139,65673,5,8,0:0:0:0:
221,13,65840,1,0,0:0:0:0:
367,109,66007,5,0,0:0:0:0:
381,109,66090,1,0,0:0:0:0:
353,109,66173,1,0,0:0:0:0:
377,99,66257,1,0,0:0:0:0:
358,118,66340,5,2,0:0:0:0:
368,95,66423,1,0,0:0:0:0:
368,121,66506,1,0,0:0:0:0:
358,99,66590,1,0,0:0:0:0:
392,142,66673,5,0,0:0:0:0:
388,178,66757,1,0,0:0:0:0:
384,213,66840,1,0,0:0:0:0:
381,248,66923,1,0,0:0:0:0:
431,357,67007,5,10,0:0:0:0:
441,275,67091,5,2,0:0:0:0:
450,195,67174,5,2,0:0:0:0:
457,117,67257,5,2,0:0:0:0:
469,34,67340,6,0,L|205:48,1,240.000009155274,4|0,0:0|0:0,0:0:0:0:
76,96,67673,5,8,0:0:0:0:
170,117,67840,1,0,0:0:0:0:
19,22,68007,5,0,0:0:0:0:
76,96,68173,1,0,0:0:0:0:
65,191,68340,5,8,0:0:0:0:
157,166,68507,1,0,0:0:0:0:
255,206,68673,6,0,P|155:274|17:272,1,240.000009155274,0|0,0:0|0:0,0:0:0:0:
310,110,69007,2,0,P|347:185|296:344,1,240.000009155274,8|0,0:0|0:0,0:0:0:0:
229,37,69257,5,0,0:0:0:0:
243,12,69340,2,0,P|406:53|458:237,1,360.000013732911,2|0,0:0|0:0,0:0:0:0:
195,340,69673,6,0,P|266:247|387:264,1,240.000009155274,8|0,0:0|0:0,0:0:0:0:
70,251,70007,2,0,P|37:133|88:6,1,240.000009155274,0|0,0:0|0:0,0:0:0:0:
299,239,70340,6,0,P|177:206|127:98,1,240.000009155274,8|0,0:0|0:0,0:0:0:0:
266,77,70590,1,0,0:0:0:0:
279,118,70673,2,0,L|304:425,1,240.000009155274,2|0,0:0|0:0,0:0:0:0:
181,348,71007,5,8,0:0:0:0:
253,285,71173,1,0,0:0:0:0:
348,272,71340,1,0,0:0:0:0:
211,207,71507,5,0,0:0:0:0:
139,144,71673,1,8,0:0:0:0:
44,131,71840,1,0,0:0:0:0:
254,45,72007,6,0,P|195:32|117:52,1,120.000004577637,2|0,0:0|0:0,0:0:0:0:
254,45,72173,2,0,P|318:59|391:38,1,120.000004577637,0|0,0:0|0:0,0:0:0:0:
480,171,72340,6,0,P|422:184|363:174,1,120.000004577637,8|0,0:0|0:0,0:0:0:0:
251,162,72507,2,0,P|212:207|158:233,1,120.000004577637,0|0,0:0|0:0,0:0:0:0:
44,305,72673,5,6,0:0:0:0:
173,337,72840,1,0,0:0:0:0:
36,350,73007,5,8,0:0:0:0:
169,309,73174,1,0,0:0:0:0:
361,349,73340,6,0,P|269:369|31:265,1,360.000013732911,2|0,0:0|0:0,0:0:0:0:
175,275,73673,6,0,P|268:276|479:124,1,360.000013732911,8|0,0:0|0:0,0:0:0:0:
255,143,74007,6,0,B|206:263|323:262|258:387,1,240.000009155274,2|0,0:0|0:0,0:0:0:0:
60,74,74340,5,8,0:0:0:0:
149,37,74507,1,0,0:0:0:0:
244,45,74673,6,0,P|360:75|481:37,1,240.000009155274,0|0,0:0|0:0,0:0:0:0:
241,155,75007,2,0,P|136:214|10:208,1,240.000009155274,8|0,0:0|0:0,0:0:0:0:
347,240,75257,5,0,0:0:0:0:
347,240,75340,2,0,P|444:334|376:225,1,360.000013732911,2|0,0:0|0:0,0:0:0:0:
235,262,75673,5,8,0:0:0:0:
152,312,75840,1,0,0:0:0:0:
58,335,76007,5,0,0:0:0:0:
152,312,76173,1,0,0:0:0:0:
204,231,76340,5,8,0:0:0:0:
206,134,76507,1,0,0:0:0:0:
70,92,76673,6,0,P|96:140|163:189,1,120.000004577637,2|0,0:0|0:0,0:0:0:0:
303,180,76840,2,0,P|361:160|436:158,1,120.000004577637,0|0,0:0|0:0,0:0:0:0:
495,238,77007,6,0,P|433:242|360:224,1,120.000004577637,8|0,0:0|0:0,0:0:0:0:
344,326,77173,2,0,P|297:285|258:221,1,120.000004577637,0|0,0:0|0:0,0:0:0:0:
175,281,77340,6,0,P|170:219|188:146,1,120.000004577637,2|0,0:0|0:0,0:0:0:0:
87,129,77507,2,0,P|127:82|191:43,1,120.000004577637,0|0,0:0|0:0,0:0:0:0:
358,35,77673,5,8,0:0:0:0:
441,21,77756,1,0,0:0:0:0:
478,96,77840,1,0,0:0:0:0:
419,156,77923,1,0,0:0:0:0:
344,117,78007,5,4,0:0:0:0:
477,325,78340,6,0,P|376:348|260:273,1,240.000009155274,8|0,0:0|0:0,0:0:0:0:
164,257,78673,5,2,0:0:0:0:
183,353,78840,1,0,0:0:0:0:
52,232,79007,5,8,0:0:0:0:
71,328,79174,1,0,0:0:0:0:
33,136,79340,6,0,P|130:180|284:158,1,240.000009155274,2|0,0:0|0:0,0:0:0:0:
428,69,79673,2,0,P|375:160|431:293,1,240.000009155274,8|0,0:0|0:0,0:0:0:0:
302,369,79923,5,0,0:0:0:0:
286,358,80007,2,0,P|231:245|289:23,1,360.000013732911,2|0,0:0|0:0,0:0:0:0:
155,97,80340,5,0,0:0:0:0:
64,70,80507,1,0,0:0:0:0:
238,125,80673,6,0,P|357:84|490:113,1,240.000009155274,8|0,0:0|0:0,0:0:0:0:
235,253,81007,2,0,P|116:212|-17:241,1,240.000009155274,0|0,0:0|0:0,0:0:0:0:
137,342,81257,5,0,0:0:0:0:
171,333,81340,2,0,P|378:373|488:235,1,360.000013732911,2|0,0:0|0:0,0:0:0:0:
452,176,81673,6,0,P|371:244|407:362,1,240.000009155274,8|0,0:0|0:0,0:0:0:0:
235,253,82007,5,2,0:0:0:0:
329,134,82173,1,0,0:0:0:0:
308,213,82340,5,8,0:0:0:0:
225,73,82506,1,0,0:0:0:0:
363,36,82673,6,0,L|63:54,1,240.000009155274,2|0,0:0|0:0,0:0:0:0:
0,173,83007,2,0,P|132:205|232:152,1,240.000009155274,8|0,0:0|0:0,0:0:0:0:
292,41,83340,5,2,0:0:0:0:
301,184,83507,1,0,0:0:0:0:
313,326,83673,5,8,0:0:0:0:
292,41,83840,1,0,0:0:0:0:
404,75,84340,5,8,0:0:0:0:
413,218,84507,1,0,0:0:0:0:
425,360,84673,5,2,0:0:0:0:
404,75,84840,1,0,0:0:0:0:
178,17,85340,5,2,0:0:0:0:
187,160,85507,1,0,0:0:0:0:
199,302,85673,5,8,0:0:0:0:
178,17,85840,1,0,0:0:0:0:
8,287,86007,6,0,P|97:348|251:345,1,240.000009155274,2|0,0:0|0:0,0:0:0:0:
512,341,86340,2,0,P|423:280|269:283,1,240.000009155274,8|0,0:0|0:0,0:0:0:0:
257,129,86673,2,0,P|251:225|279:384,1,240.000009155274,0|0,0:0|0:0,0:0:0:0:
319,60,87007,5,8,0:0:0:0:
403,40,87173,1,0,0:0:0:0:
481,65,87340,5,0,0:0:0:0:
377,138,87507,5,2,0:0:0:0:
377,138,87590,2,0,P|418:158|500:157,1,120.000004577637,2|0,0:0|0:0,0:0:0:0:
127,66,87757,5,2,0:0:0:0:
127,66,87840,2,0,P|86:86|4:85,1,120.000004577637,2|0,0:0|0:0,0:0:0:0:
349,254,88007,5,8,0:0:0:0:
131,274,88173,5,0,0:0:0:0:
100,343,88257,1,0,0:0:0:0:
56,259,88340,5,2,0:0:0:0:
125,201,88423,1,0,0:0:0:0:
200,245,88507,1,0,0:0:0:0:
183,333,88590,1,0,0:0:0:0:
100,343,88673,5,12,0:0:0:0:
336,331,88840,5,0,0:0:0:0:
391,310,88923,1,0,0:0:0:0:
450,306,89007,1,2,0:0:0:0:
100,343,89173,5,0,0:0:0:0:
336,331,89340,5,8,0:0:0:0:
391,310,89423,1,0,0:0:0:0:
450,306,89506,1,0,0:0:0:0:
237,222,89673,5,2,0:0:0:0:
180,201,89756,1,0,0:0:0:0:
121,193,89839,1,0,0:0:0:0:
61,198,89922,1,0,0:0:0:0:
4,216,90007,5,8,0:0:0:0:
339,141,90173,5,0,0:0:0:0:
394,120,90256,1,0,0:0:0:0:
453,116,90339,1,2,0:0:0:0:
170,72,90507,5,0,0:0:0:0:
115,51,90590,1,0,0:0:0:0:
56,47,90673,1,8,0:0:0:0:
339,141,90840,5,0,0:0:0:0:
394,120,91007,5,8,0:0:0:0:
453,116,91173,5,0,0:0:0:0:
324,264,91340,5,4,0:0:0:0:
151,330,91507,5,0,0:0:0:0:
135,273,91590,1,0,0:0:0:0:
138,214,91673,1,8,0:0:0:0:
324,264,91840,5,0,0:0:0:0:
138,214,92007,5,2,0:0:0:0:
164,161,92090,1,0,0:0:0:0:
174,103,92173,1,0,0:0:0:0:
324,264,92340,5,8,0:0:0:0:
159,46,92507,1,0,0:0:0:0:
399,41,92673,5,2,0:0:0:0:
424,95,92756,1,0,0:0:0:0:
436,153,92839,1,0,0:0:0:0:
433,213,92922,1,0,0:0:0:0:
415,270,93006,5,8,0:0:0:0:
140,343,93173,5,0,0:0:0:0:
124,285,93256,1,0,0:0:0:0:
134,226,93339,1,2,0:0:0:0:
249,128,93507,5,0,0:0:0:0:
307,254,93673,5,8,0:0:0:0:
254,281,93756,1,0,0:0:0:0:
195,294,93839,1,0,0:0:0:0:
135,290,93922,1,0,0:0:0:0:
79,271,94006,5,2,0:0:0:0:
362,72,94173,6,0,P|401:84|451:77,2,80.0000030517579,0|0|0,0:0|0:0|0:0,0:0:0:0:
457,91,94339,1,0,0:0:0:0:
150,89,94507,6,0,P|111:101|61:94,2,80.0000030517579,0|0|0,0:0|0:0|0:0,0:0:0:0:
55,108,94673,1,0,0:0:0:0:
457,91,94840,1,0,0:0:0:0:
55,108,95007,1,8,0:0:0:0:
356,362,95173,5,0,0:0:0:0:
368,303,95256,1,0,0:0:0:0:
361,244,95340,1,2,0:0:0:0:
261,36,95507,5,0,0:0:0:0:
249,95,95590,1,0,0:0:0:0:
256,154,95673,1,8,0:0:0:0:
146,315,95840,5,0,0:0:0:0:
117,263,95923,1,0,0:0:0:0:
102,205,96006,1,2,0:0:0:0:
354,22,96173,5,0,0:0:0:0:
275,361,96340,1,8,0:0:0:0:
35,72,96673,5,2,0:0:0:0:
129,60,96840,1,0,0:0:0:0:
212,92,97007,1,8,0:0:0:0:
115,151,97173,6,0,P|177:108|455:112,1,360.000013732911,0|0,0:0|0:0,0:0:0:0:
468,131,97507,5,0,0:0:0:0:
330,184,97673,6,0,P|197:209|14:342,1,360.000013732911,8|0,0:0|0:0,0:0:0:0:
232,344,98007,5,2,0:0:0:0:
291,341,98090,1,0,0:0:0:0:
351,339,98173,1,0,0:0:0:0:
411,337,98256,1,0,0:0:0:0:
471,334,98340,5,8,0:0:0:0:
139,238,98507,5,0,0:0:0:0:
79,236,98590,1,0,0:0:0:0:
19,234,98673,1,2,0:0:0:0:
255,40,98840,5,0,0:0:0:0:
256,93,98923,1,0,0:0:0:0:
259,146,99006,5,8,0:0:0:0:
262,200,99089,1,0,0:0:0:0:
264,254,99173,1,0,0:0:0:0:
267,308,99256,1,0,0:0:0:0:
270,362,99339,5,4,0:0:0:0:
399,243,99507,5,0,0:0:0:0:
406,184,99590,1,0,0:0:0:0:
398,125,99673,1,8,0:0:0:0:
379,300,99840,5,0,0:0:0:0:
375,69,100007,1,2,0:0:0:0:
241,361,100173,5,0,0:0:0:0:
262,33,100340,1,8,0:0:0:0:
112,243,100507,5,0,0:0:0:0:
105,184,100590,1,0,0:0:0:0:
113,125,100673,1,2,0:0:0:0:
133,300,100840,5,0,0:0:0:0:
136,69,101007,1,8,0:0:0:0:
241,361,101173,5,0,0:0:0:0:
39,253,101340,5,2,0:0:0:0:
144,197,101507,1,0,0:0:0:0:
263,187,101673,5,8,0:0:0:0:
376,224,101840,1,0,0:0:0:0:
155,343,102007,5,4,0:0:0:0:
262,152,102173,5,0,0:0:0:0:
270,93,102256,1,0,0:0:0:0:
262,34,102339,1,8,0:0:0:0:
263,236,102507,5,0,0:0:0:0:
256,194,102590,1,0,0:0:0:0:
262,152,102673,1,2,0:0:0:0:
263,354,102840,5,0,0:0:0:0:
255,295,102923,1,0,0:0:0:0:
263,236,103006,1,8,0:0:0:0:
53,355,103173,6,0,P|28:291|45:229,1,120.000004577637,0|0,0:0|0:0,0:0:0:0:
56,95,103340,5,2,0:0:0:0:
101,56,103423,1,0,0:0:0:0:
160,50,103506,1,0,0:0:0:0:
211,81,103590,1,0,0:0:0:0:
223,139,103673,5,8,0:0:0:0:
202,194,103756,1,0,0:0:0:0:
167,243,103840,1,0,0:0:0:0:
165,302,103923,1,0,0:0:0:0:
196,352,104006,5,2,0:0:0:0:
253,369,104090,1,0,0:0:0:0:
311,356,104173,1,0,0:0:0:0:
351,312,104256,1,0,0:0:0:0:
334,258,104340,5,8,0:0:0:0:
363,256,104423,1,0,0:0:0:0:
393,254,104506,1,0,0:0:0:0:
423,252,104590,1,0,0:0:0:0:
453,249,104673,5,6,0:0:0:0:
470,94,104840,1,0,0:0:0:0:
254,283,105007,6,0,L|116:299,1,120,8|0,0:0|0:0,0:0:0:0:
26,218,105340,6,0,P|75:196|160:196,1,120.000004577637,2|0,0:0|0:0,0:0:0:0:
483,201,105507,2,0,P|429:206|355:248,1,120.000004577637,0|0,0:0|0:0,0:0:0:0:
111,38,105673,6,0,P|154:69|197:143,1,120.000004577637,8|0,0:0|0:0,0:0:0:0:
455,30,105840,2,0,P|411:61|368:135,1,120.000004577637,0|0,0:0|0:0,0:0:0:0:
264,365,106007,5,2,0:0:0:0:
237,216,106173,1,0,0:0:0:0:
282,31,106340,6,0,L|291:159,1,120,8|0,0:0|0:0,0:0:0:0:
176,370,106673,6,0,P|144:295|148:235,1,120.000004577637,2|0,0:0|0:0,0:0:0:0:
415,294,106840,2,0,P|454:222|456:162,1,120.000004577637,0|0,0:0|0:0,0:0:0:0:
66,261,107007,6,0,P|39:215|40:131,1,120.000004577637,8|0,0:0|0:0,0:0:0:0:
403,130,107173,2,0,P|425:81|415:-1,1,120.000004577637,0|0,0:0|0:0,0:0:0:0:
66,261,107340,6,0,P|39:215|40:131,1,120.000004577637,2|0,0:0|0:0,0:0:0:0:
69,71,107507,2,0,P|114:43|198:45,1,120.000004577637,0|0,0:0|0:0,0:0:0:0:
259,75,107673,6,0,P|286:119|284:203,1,120.000004577637,8|0,0:0|0:0,0:0:0:0:
255,264,107840,2,0,P|209:290|125:289,1,120.000004577637,0|0,0:0|0:0,0:0:0:0:
164,173,108007,6,0,P|218:140|291:126,1,120.000004577637,2|0,0:0|0:0,0:0:0:0:
341,33,108173,2,0,P|402:47|464:89,1,120.000004577637,0|0,0:0|0:0,0:0:0:0:
461,175,108340,6,0,P|494:228|508:302,1,120.000004577637,8|0,0:0|0:0,0:0:0:0:
316,323,108507,2,0,P|262:356|189:370,1,120.000004577637,0|0,0:0|0:0,0:0:0:0:
0,340,108673,5,2,0:0:0:0:
28,338,108756,1,0,0:0:0:0:
58,337,108839,1,0,0:0:0:0:
88,335,108922,1,0,0:0:0:0:
121,348,109006,5,8,0:0:0:0:
151,346,109089,1,0,0:0:0:0:
181,345,109172,1,0,0:0:0:0:
211,343,109256,1,0,0:0:0:0:
243,356,109340,5,8,0:0:0:0:
273,354,109423,1,0,0:0:0:0:
303,353,109506,1,0,0:0:0:0:
333,351,109590,1,0,0:0:0:0:
365,364,109673,5,8,0:0:0:0:
395,362,109756,1,0,0:0:0:0:
425,361,109839,1,0,0:0:0:0:
455,359,109923,1,0,0:0:0:0:
483,357,110007,5,8,0:0:0:0:
256,192,110090,12,0,115340,0:0:0:0:
