osu file format v14

[General]
AudioFilename: audio.mp3
AudioLeadIn: 0
PreviewTime: 67257
Countdown: 0
SampleSet: None
StackLeniency: 0.2
Mode: 0
LetterboxInBreaks: 0
WidescreenStoryboard: 0

[Editor]
Bookmarks: 10840,29007,41340,54673,63340
DistanceSpacing: 0.5
BeatDivisor: 8
GridSize: 4
TimelineZoom: 3

[Metadata]
Title:Oriental Blossom
TitleUnicode:Oriental Blossom
Artist:Eisyo-kobu
ArtistUnicode:影翔鼓舞
Creator:CyberX
Version:Free 1000000 vbuck if pass
Source:SOUND VOLTEX III GRAVITY WARS
Tags:[-Chocola-]
BeatmapID:1644095
BeatmapSetID:783037

[Difficulty]
HPDrainRate:6
CircleSize:4.5
OverallDifficulty:8
ApproachRate:9.8
SliderMultiplier:3.49999990463257
SliderTickRate:1

[Events]
//Background and Video events
0,0,"20121208.png",0,0
//Break Periods
2,54207,58861
//Storyboard Layer 0 (Background)
//Storyboard Layer 1 (Fail)
//Storyboard Layer 2 (Pass)
//Storyboard Layer 3 (Foreground)
//Storyboard Sound Samples

[TimingPoints]
674,333.333333333333,4,2,1,80,1,0
674,-1000,4,2,1,80,0,0
6673,-33.3333333333333,4,2,1,80,0,0
10007,-181.818181818181,4,2,1,80,0,0
10173,-153.846153846153,4,2,1,80,0,0
10340,-66.6666666666667,4,2,1,80,0,0
10507,-50,4,2,1,80,0,0
10840,-100,4,2,1,80,0,0
11340,-133.333333333333,4,2,1,80,0,0
12673,-100,4,2,1,80,0,0
14007,-666.666666666658,4,2,1,80,0,0
16382,-100,4,2,1,80,0,0
16507,-66.6666666666667,4,2,1,80,0,0
17007,-100,4,2,1,80,0,0
17340,-66.6666666666667,4,2,1,80,0,0
17673,-50,4,2,1,80,0,0
19340,-66.6666666666667,4,2,1,80,0,0
23257,-1000,4,2,1,80,0,0
26007,-125,4,2,1,80,0,0
27340,-100,4,2,1,80,0,0
29173,-133.333333333333,4,2,1,80,0,0
29340,-666.666666666658,4,2,1,80,0,0
30507,-66.6666666666667,4,2,1,80,0,0
33340,-222.222222222221,4,2,1,80,0,0
43340,-100,4,2,1,80,0,0
44673,-333.333333333333,4,2,1,80,0,0
45007,-133.333333333333,4,2,1,80,0,0
46340,-181.818181818181,4,2,1,80,0,0
46673,-285.714285714284,4,2,1,80,0,0
48340,-66.6666666666667,4,2,1,80,0,0
48673,-133.333333333333,4,2,1,80,0,0
49173,-222.222222222221,4,2,1,80,0,0
50007,-1000,4,2,1,80,0,0
53007,-133.333333333333,4,2,1,80,0,0
53257,-100,4,2,1,80,0,0
63340,-133.333333333333,4,2,1,80,0,0
66007,-35.7142857142857,4,2,1,10,0,0
66090,-34.4827586206897,4,2,1,15,0,0
66173,-34.4827586206897,4,2,1,20,0,0
66257,-33.3333333333333,4,2,1,25,0,0
66340,-32.258064516129,4,2,1,30,0,0
66423,-31.25,4,2,1,35,0,0
66507,-30.3030303030303,4,2,1,40,0,0
66590,-30.3030303030303,4,2,1,45,0,0
66673,-29.4117647058824,4,2,1,50,0,0
66757,-28.5714285714286,4,2,1,55,0,0
66840,-27.7777777777778,4,2,1,60,0,0
66923,-27.027027027027,4,2,1,65,0,0
67007,-26.3157894736842,4,2,1,70,0,0
67090,-25.6410256410256,4,2,1,75,0,0
67173,-25,4,2,1,80,0,0
69340,-1000,4,2,1,80,0,0
72340,-100,4,2,1,80,0,0
72673,-1000,4,2,1,80,0,0
72923,-1000,4,2,1,5,0,0
73007,-1000,4,2,1,80,0,0
73257,-1000,4,2,1,5,0,0
73341,-1000,4,2,1,80,0,0
73590,-1000,4,2,1,5,0,0
73674,-1000,4,2,1,80,0,0
73923,-1000,4,2,1,5,0,0
74007,-1000,4,2,1,80,0,0
74257,-1000,4,2,1,5,0,0
74341,-1000,4,2,1,80,0,0
78007,-25,4,2,1,80,0,0
80007,-1000,4,2,1,80,0,0
86507,-66.6666666666667,4,2,1,80,0,0
86840,-100,4,2,1,80,0,0
87340,-1000,4,2,1,80,0,0
88340,-66.6666666666667,4,2,1,80,0,0
90007,-1000,4,2,1,80,0,0
94007,-100,4,2,1,80,0,0
95840,-133.333333333333,4,2,1,80,0,0
96007,-285.714285714284,4,2,1,80,0,0
96673,-133.333333333333,4,2,1,80,0,0
96840,-105.263157894737,4,2,1,80,0,0
97007,-86.9565217391303,4,2,1,80,0,0
97173,-71.4285714285714,4,2,1,80,0,0
97673,-100,4,2,1,80,0,0
101007,-66.6666666666667,4,2,1,80,0,0
101340,-100,4,2,1,80,0,0
101507,-71.4285714285714,4,2,1,80,0,0
101673,-100,4,2,1,80,0,0
101840,-71.4285714285714,4,2,1,80,0,0
102007,-133.333333333333,4,2,1,80,0,0
102673,-100,4,2,1,80,0,0
104673,-399.999999999997,4,2,1,80,0,0
105007,-71.4285714285714,4,2,1,80,0,0
105173,-133.333333333333,4,2,1,80,0,0
105340,-66.6666666666667,4,2,1,80,0,0
105507,-50,4,2,1,80,0,0
105673,-40,4,2,1,80,0,0
105840,-33.3333333333333,4,2,1,80,0,0
106007,-399.999999999997,4,2,1,80,0,0
106340,-71.4285714285714,4,2,1,80,0,0
106507,-133.333333333333,4,2,1,80,0,0
106673,-66.6666666666667,4,2,1,80,0,0
106840,-50,4,2,1,80,0,0
107007,-40,4,2,1,80,0,0
107173,-33.3333333333333,4,2,1,80,0,0
107340,-399.999999999997,4,2,1,80,0,0
107673,-100,4,2,1,80,0,0
107840,-76.9230769230769,4,2,1,80,0,0
108173,-62.5,4,2,1,80,0,0
108507,-52.6315789473684,4,2,1,80,0,0
108673,-133.333333333333,4,2,1,80,0,0

[Colours]
Combo1 : 249,236,208
Combo2 : 255,0,255
Combo3 : 255,255,255
Combo4 : 255,128,255
Combo5 : 255,128,192

[HitObjects]
65,53,674,6,0,L|67:71,1,17.4999995231628
135,70,1007,2,0,L|137:88,1,17.4999995231628
207,86,1340,2,0,L|214:122,1,34.9999990463257
277,69,1840,1,0,0:0:0:0:
277,69,1923,1,0,0:0:0:0:
277,69,2007,6,0,L|275:87,1,17.4999995231628
207,86,2340,2,0,L|205:104,1,17.4999995231628
135,102,2673,2,0,L|128:138,1,34.9999990463257
114,208,3090,1,0,0:0:0:0:
114,208,3173,1,0,0:0:0:0:
114,208,3257,1,0,0:0:0:0:
112,280,3340,5,0,0:0:0:0:
162,332,3507,1,0,0:0:0:0:
106,286,3673,1,0,0:0:0:0:
33,315,3840,1,0,0:0:0:0:
14,358,4007,6,0,L|20:324,1,34.9999990463257
8,170,4507,1,0,0:0:0:0:
8,170,4590,1,0,0:0:0:0:
8,170,4673,5,0,0:0:0:0:
83,185,4840,1,0,0:0:0:0:
157,199,5007,1,0,0:0:0:0:
235,219,5173,1,0,0:0:0:0:
127,104,5340,2,0,L|128:122,1,17.4999995231628
210,123,5673,2,0,L|211:141,1,17.4999995231628
227,348,6007,5,0,0:0:0:0:
227,348,6340,1,0,0:0:0:0:
227,348,6673,6,0,P|207:229|200:84,1,262.500002861023
280,22,7007,1,0,0:0:0:0:
280,22,7090,1,0,0:0:0:0:
280,22,7173,1,0,0:0:0:0:
347,60,7340,5,0,0:0:0:0:
430,55,7507,1,0,0:0:0:0:
491,1,7673,1,0,0:0:0:0:
347,75,7840,1,0,0:0:0:0:
434,68,8007,6,0,P|433:229|408:377,1,262.500002861023
339,383,8340,1,0,0:0:0:0:
339,383,8423,1,0,0:0:0:0:
339,383,8507,1,0,0:0:0:0:
264,339,8673,5,0,0:0:0:0:
178,333,8840,1,0,0:0:0:0:
282,321,9007,1,0,0:0:0:0:
114,356,9173,1,0,0:0:0:0:
297,297,9340,2,0,B|343:188|285:106|147:187|256:267,1,262.500002861023
41,335,9507,1,0,0:0:0:0:
116,342,9673,1,0,0:0:0:0:
189,316,9840,1,0,0:0:0:0:
251,208,10007,6,0,P|233:196|197:185,1,48.1250001573563
260,214,10173,2,0,P|292:196|331:192,1,56.8749958467486
255,224,10340,2,0,P|245:299|244:374,1,131.250001430512
257,197,10507,2,0,B|328:92|249:8|249:8|145:95|225:223|256:244|240:278|247:320,1,524.999985694885
237,378,10840,6,0,L|299:372,1,43.7499988079071
235,370,10923,2,0,L|191:365,1,43.7499988079071
232,360,11007,1,0,0:0:0:0:
366,297,11173,2,0,B|364:271|390:254|390:254|401:281|386:302,1,87.4999976158143
363,180,11340,6,0,P|406:177|469:247,1,131.250001430512
468,308,11590,1,0,0:0:0:0:
460,325,11673,1,0,0:0:0:0:
363,318,11840,1,0,0:0:0:0:
283,257,12007,1,0,0:0:0:0:
172,250,12173,1,0,0:0:0:0:
68,317,12340,1,0,0:0:0:0:
166,238,12507,1,0,0:0:0:0:
203,103,12673,6,0,B|195:48|136:38|66:92|93:237|240:165|278:137|248:109|305:83|370:126,1,349.999990463257
404,180,13173,1,0,0:0:0:0:
324,318,13340,2,0,B|276:267|316:195|316:195|378:247|353:318,1,262.499992847443
352,379,13673,1,0,0:0:0:0:
352,379,13840,1,0,0:0:0:0:
56,337,14007,6,0,L|59:364,1,26.2499984836579
40,255,14340,1,0,0:0:0:0:
40,255,14507,1,0,0:0:0:0:
372,263,14674,2,0,L|369:290,1,26.2499984836579
392,182,15007,1,0,0:0:0:0:
392,182,15173,1,0,0:0:0:0:
17,174,15340,5,0,0:0:0:0:
111,112,15507,1,0,0:0:0:0:
209,118,15673,1,0,0:0:0:0:
291,184,15840,1,0,0:0:0:0:
394,194,16007,1,0,0:0:0:0:
476,136,16173,1,0,0:0:0:0:
452,113,16257,1,0,0:0:0:0:
423,99,16382,2,0,P|404:94|374:93,1,43.7499988079071
250,39,16507,2,0,P|204:62|144:113,1,131.250001430512,0|0,0:3|0:3,0:3:0:0:
139,328,16673,5,0,0:0:0:0:
139,328,17007,6,0,P|106:280|228:276,1,262.499992847443
139,328,17340,6,0,B|88:300|81:233|128:186|160:207|242:191|221:205|224:328|283:369|404:311,1,393.750004291535
139,328,17673,6,0,B|72:281|99:222|158:181|203:210|233:260|233:260|262:314|290:352|393:364|472:289|425:182,1,524.999985694885
216,21,18007,6,0,B|224:187|224:187|227:245|231:281|260:389|448:363|443:209|443:209|435:64,2,699.999980926514
370,40,18840,1,0,0:0:0:0:
362,50,18923,1,0,0:0:0:0:
354,58,19007,1,0,0:0:0:0:
274,80,19173,1,0,0:0:0:0:
186,58,19340,6,0,B|122:17|2:9|-34:120|22:187|112:177|199:128,1,393.750004291535
275,91,19673,1,0,0:0:0:0:
412,215,19840,1,0,0:0:0:0:
377,122,20007,1,0,0:0:0:0:
295,267,20173,1,0,0:0:0:0:
307,182,20340,1,0,0:0:0:0:
336,351,20507,1,0,0:0:0:0:
351,349,20590,1,0,0:0:0:0:
366,348,20673,5,0,0:0:0:0:
284,252,20840,1,0,0:0:0:0:
92,342,21007,1,0,0:0:0:0:
169,253,21173,1,0,0:0:0:0:
112,107,21340,1,0,0:0:0:0:
115,122,21423,1,0,0:0:0:0:
118,136,21507,1,0,0:0:0:0:
221,53,21673,1,0,0:0:0:0:
220,163,21840,1,0,0:0:0:0:
396,54,22007,5,0,0:0:0:0:
396,54,22090,1,0,0:0:0:0:
396,54,22173,1,0,0:0:0:0:
396,54,22257,1,0,0:0:0:0:
396,54,22340,1,0,0:0:0:0:
396,54,22423,1,0,0:0:0:0:
396,54,22507,1,0,0:0:0:0:
419,121,22590,5,0,0:0:0:0:
408,194,22673,1,0,0:0:0:0:
339,234,22757,1,0,0:0:0:0:
262,218,22840,1,0,0:0:0:0:
202,163,22923,1,0,0:0:0:0:
124,161,23007,1,0,0:0:0:0:
54,192,23090,5,0,0:0:0:0:
38,209,23173,1,0,0:0:0:0:
31,233,23257,2,0,L|35:252,1,17.4999995231628
123,123,23507,5,0,0:0:0:0:
90,107,23590,1,0,0:0:0:0:
55,110,23673,2,0,L|47:114,1,8.74999976158142
210,115,23840,5,0,0:0:0:0:
189,63,23923,1,0,0:0:0:0:
147,32,24007,2,0,L|139:36,1,8.74999976158142
229,280,24340,1,0,0:0:0:0:
310,268,24423,1,0,0:0:0:0:
395,261,24507,1,0,0:0:0:0:
144,291,24673,5,0,0:0:0:0:
395,261,24840,1,0,0:0:0:0:
310,268,24923,1,0,0:0:0:0:
229,280,25007,1,0,0:0:0:0:
480,251,25173,5,0,0:0:0:0:
229,280,25340,1,0,0:0:0:0:
310,268,25423,1,0,0:0:0:0:
395,261,25507,1,0,0:0:0:0:
144,291,25673,5,0,0:0:0:0:
480,251,25840,1,0,0:0:0:0:
197,139,26007,2,0,P|183:177|179:220,1,69.9999980926514
137,84,26173,2,0,P|101:102|69:132,1,69.9999980926514
345,88,26340,6,0,P|381:105|423:114,1,69.9999980926514
284,141,26506,2,0,P|299:178|309:192,1,34.9999990463257
291,177,26590,2,0,P|327:194|343:198,1,34.9999990463257
307,208,26673,2,0,P|355:219|405:202,1,69.9999980926514
455,179,26840,1,0,0:0:0:0:
452,200,26923,1,0,0:0:0:0:
471,70,27007,1,0,0:0:0:0:
440,307,27173,1,0,0:0:0:0:
440,307,27257,1,0,0:0:0:0:
440,307,27340,6,0,L|233:295,1,174.999995231629
174,275,27590,1,0,0:0:0:0:
180,292,27673,2,0,L|192:85,1,174.999995231629
212,26,27923,1,0,0:0:0:0:
195,32,28007,2,0,B|456:47|456:47|449:144,1,349.999990463257
305,191,28507,1,0,0:0:0:0:
312,165,28590,1,0,0:0:0:0:
329,187,28673,6,0,L|232:179,1,87.4999976158143
169,171,28840,1,0,0:0:0:0:
157,169,28923,1,0,0:0:0:0:
146,168,29007,1,0,0:0:0:0:
159,238,29090,1,0,0:0:0:0:
172,310,29173,2,0,L|182:381,1,65.6250007152558
63,339,29340,2,0,L|65:310,2,26.2499984836579
72,239,29840,1,0,0:0:0:0:
435,300,30007,5,0,0:0:0:0:
57,230,30173,1,0,0:0:0:0:
459,176,30340,1,0,0:0:0:0:
32,137,30507,2,0,B|32:219|178:265|241:171|241:171|312:66|410:86|459:159,1,525.000005722046
360,268,31007,2,0,B|376:238|358:201|358:201|324:224|324:278,1,131.250001430512
111,68,31173,2,0,B|108:95|142:118|142:118|160:81|145:53,1,131.250001430512
51,201,31340,5,0,0:0:0:0:
74,211,31423,1,0,0:0:0:0:
99,214,31507,1,0,0:0:0:0:
56,183,31590,1,0,0:0:0:0:
32,137,31673,1,0,0:0:0:0:
82,178,31756,1,0,0:0:0:0:
145,192,31840,1,0,0:0:0:0:
214,179,31923,1,0,0:0:0:0:
272,130,32007,1,0,0:0:0:0:
390,84,32090,1,0,0:0:0:0:
498,149,32173,5,0,0:0:0:0:
497,162,32214,1,0,0:0:0:0:
496,176,32256,1,0,0:0:0:0:
495,189,32298,1,0,0:0:0:0:
494,202,32339,1,0,0:0:0:0:
482,281,32507,5,0,0:0:0:0:
479,307,32549,1,0,0:0:0:0:
477,333,32590,1,0,0:0:0:0:
343,203,32673,5,0,0:0:0:0:
264,153,32840,1,0,0:0:0:0:
213,152,32923,1,0,0:0:0:0:
166,171,33007,1,0,0:0:0:0:
124,254,33173,1,0,0:0:0:0:
47,83,33340,2,0,L|54:172,2,78.7499954509737
95,27,33757,1,0,0:0:0:0:
95,27,33840,1,0,0:0:0:0:
121,267,34007,5,0,0:0:0:0:
198,196,34173,1,0,0:0:0:0:
302,207,34340,1,0,0:0:0:0:
350,299,34507,1,0,0:0:0:0:
244,373,34673,2,0,L|236:288,1,78.7499954509737
208,56,35007,2,0,L|213:106,1,39.3749977254868
222,203,35173,2,0,L|219:164,1,39.3749977254868
391,69,35340,6,0,B|400:126|377:161|359:133|340:190|354:223,2,157.499990901947
338,17,36090,1,0,0:0:0:0:
322,9,36173,1,0,0:0:0:0:
252,47,36340,1,0,0:0:0:0:
252,47,36507,1,0,0:0:0:0:
105,167,36673,5,0,0:0:0:0:
196,147,36840,1,0,0:0:0:0:
223,154,36923,1,0,0:0:0:0:
251,180,37007,1,0,0:0:0:0:
262,280,37173,1,0,0:0:0:0:
283,163,37340,1,0,0:0:0:0:
348,303,37507,1,0,0:0:0:0:
361,118,37673,1,0,0:0:0:0:
439,298,37840,1,0,0:0:0:0:
417,38,38007,5,0,0:0:0:0:
417,38,38173,1,0,0:0:0:0:
446,69,38257,1,0,0:0:0:0:
460,109,38340,1,0,0:0:0:0:
361,118,38507,5,0,0:0:0:0:
361,166,38591,1,0,0:0:0:0:
342,211,38674,1,0,0:0:0:0:
271,159,38840,5,0,0:0:0:0:
234,199,38924,1,0,0:0:0:0:
183,223,39007,1,0,0:0:0:0:
5,189,39173,1,0,0:0:0:0:
75,219,39340,5,0,0:0:0:0:
121,274,39507,1,0,0:0:0:0:
120,352,39673,1,0,0:0:0:0:
112,329,39840,1,0,0:0:0:0:
112,302,40007,1,0,0:0:0:0:
405,156,40340,1,0,0:0:0:0:
338,210,40507,1,0,0:0:0:0:
306,288,40673,5,0,0:0:0:0:
327,269,40840,1,0,0:0:0:0:
336,245,41007,1,0,0:0:0:0:
156,78,41340,1,0,0:0:0:0:
224,137,41507,1,0,0:0:0:0:
251,219,41673,1,0,0:0:0:0:
230,200,41840,1,0,0:0:0:0:
221,176,42007,6,0,P|221:150|230:123,3,39.3749977254868
196,64,42340,2,0,P|213:44|238:30,3,39.3749977254868
298,168,42673,2,0,P|315:148|340:134,3,39.3749977254868
354,68,43007,5,0,0:0:0:0:
393,66,43090,1,0,0:0:0:0:
429,80,43173,1,0,0:0:0:0:
476,135,43257,1,0,0:0:0:0:
472,213,43340,6,0,B|409:282|321:217|345:202|277:154|229:202,1,262.499992847443
174,255,43673,1,0,0:0:0:0:
174,255,43840,1,0,0:0:0:0:
268,57,44007,1,0,0:0:0:0:
293,139,44173,1,0,0:0:0:0:
255,215,44340,1,0,0:0:0:0:
160,251,44507,1,0,0:0:0:0:
66,206,44673,6,0,P|69:166|60:122,1,78.7499954509737
59,271,45007,2,0,P|81:172|66:52,1,196.875002145767
38,6,45340,1,0,0:0:0:0:
38,6,45507,1,0,0:0:0:0:
106,337,45673,1,0,0:0:0:0:
38,6,45840,1,0,0:0:0:0:
160,278,46007,6,0,P|185:216|191:74,1,196.875002145767
243,313,46340,6,0,P|260:284|300:159,1,144.375000472069
312,372,46673,6,0,P|336:347|368:291,1,91.8749946928026
394,222,47007,1,0,0:0:0:0:
395,204,47090,1,0,0:0:0:0:
393,189,47173,1,0,0:0:0:0:
343,96,47340,5,0,0:0:0:0:
343,96,47423,1,0,0:0:0:0:
343,96,47507,2,0,L|301:99,1,30.6249982309342
240,115,47673,1,0,0:0:0:0:
240,115,47756,1,0,0:0:0:0:
240,115,47840,2,0,L|198:118,1,30.6249982309342
137,134,48007,1,0,0:0:0:0:
137,134,48090,1,0,0:0:0:0:
137,134,48174,2,0,L|95:137,1,30.6249982309342
41,264,48340,5,0,0:0:0:0:
100,237,48423,1,0,0:0:0:0:
165,238,48506,1,0,0:0:0:0:
224,268,48590,1,0,0:0:0:0:
284,292,48673,6,0,P|352:285|420:228,1,131.250001430512
421,176,49007,1,0,0:0:0:0:
272,371,49173,2,0,P|320:386|361:385,1,78.7499954509737
424,360,49507,1,0,0:0:0:0:
256,217,49673,2,0,P|282:206|324:166,1,78.7499954509737
78,62,50007,6,0,L|81:100,1,34.9999990463257
89,184,50507,1,0,0:0:0:0:
238,20,50673,2,0,L|237:55,1,34.9999990463257
231,140,51173,1,0,0:0:0:0:
361,217,51340,1,0,0:0:0:0:
231,140,51507,1,0,0:0:0:0:
89,184,51673,1,0,0:0:0:0:
216,272,51840,1,0,0:0:0:0:
216,272,51923,1,0,0:0:0:0:
216,272,52007,1,0,0:0:0:0:
268,212,52173,1,0,0:0:0:0:
230,137,52340,1,0,0:0:0:0:
187,64,52507,1,0,0:0:0:0:
240,0,52673,1,0,0:0:0:0:
240,0,52757,2,0,B|249:3|249:3|256:9,1,17.4999995231628
354,40,53007,2,0,B|384:101|384:101|392:171,1,131.250001430512
456,214,53257,2,0,B|438:302|438:302|365:394,1,174.999995231629
233,301,53507,1,0,0:0:0:0:
238,275,53590,1,0,0:0:0:0:
243,249,53673,1,0,0:0:0:0:
248,223,53757,1,0,0:0:0:0:
260,201,53840,1,0,0:0:0:0:
276,180,53923,1,0,0:0:0:0:
293,159,54007,1,0,0:0:0:0:
135,90,59340,5,0,0:0:0:0:
357,71,59673,1,0,0:0:0:0:
376,293,60007,1,0,0:0:0:0:
154,312,60340,1,0,0:0:0:0:
161,79,60673,5,0,0:0:0:0:
368,97,61006,1,0,0:0:0:0:
350,304,61340,1,0,0:0:0:0:
143,286,61673,1,0,0:0:0:0:
187,74,62007,5,0,0:0:0:0:
373,123,62173,1,0,0:0:0:0:
324,309,62340,1,0,0:0:0:0:
138,260,62507,1,0,0:0:0:0:
212,72,62673,5,0,0:0:0:0:
375,148,62839,1,0,0:0:0:0:
299,311,63006,1,0,0:0:0:0:
136,235,63173,1,0,0:0:0:0:
235,76,63340,6,0,P|260:96|278:131,1,65.6250007152558
372,171,63507,2,0,P|352:196|317:214,1,65.6250007152558
277,308,63673,2,0,P|252:288|234:253,1,65.6250007152558
140,213,63840,2,0,P|160:188|195:170,1,65.6250007152558
276,145,64007,5,0,0:0:0:0:
303,212,64090,1,0,0:0:0:0:
236,239,64173,1,0,0:0:0:0:
209,172,64256,1,0,0:0:0:0:
276,176,64340,5,0,0:0:0:0:
271,212,64423,1,0,0:0:0:0:
235,207,64506,1,0,0:0:0:0:
240,171,64590,1,0,0:0:0:0:
256,192,64673,5,0,0:0:0:0:
180,204,66007,6,0,B|181:205|231:258|244:323,1,122.499992923737
180,204,66090,6,0,B|177:203|201:237|208:334,1,126.875000414848
180,204,66173,6,0,B|180:205|196:263|164:335,1,126.875000414848
180,204,66257,6,0,B|183:204|177:274|118:320,1,131.250001430512
180,204,66340,6,0,P|128:273|70:303,1,135.624997339249
180,204,66423,6,0,B|151:256|42:279,1,139.999996185303
180,204,66507,6,0,B|141:247|30:256,1,144.374997442961
180,204,66590,6,0,B|181:204|150:232|27:230,1,144.374997442961
180,204,66673,6,0,B|180:203|109:225|29:204,1,148.749998784065
180,204,66757,6,0,B|180:206|92:211|10:167,1,153.124997287989
180,204,66840,6,0,B|178:204|92:200|18:122,1,157.499990901947
180,204,66923,6,0,P|94:156|46:91,1,161.874994971752
180,204,67007,6,0,B|178:206|100:163|80:70,1,166.249991030693
180,204,67090,6,0,P|124:127|129:34,1,170.62499600172
180,204,67173,6,0,B|104:128|164:34|164:34|249:114|180:205,1,349.999990463257
512,334,67340,6,0,B|426:281|241:311|241:311|364:233|478:236|478:236|456:336|343:374|343:374|257:225|329:38,1,1049.99997138977
159,339,67673,1,0,0:0:0:0:
180,204,67840,1,0,0:0:0:0:
139,72,68007,1,0,0:0:0:0:
139,72,68090,1,0,0:0:0:0:
139,72,68173,1,0,0:0:0:0:
114,152,68340,1,0,0:0:0:0:
180,204,68507,1,0,0:0:0:0:
433,131,68673,6,0,B|330:65|239:76|239:76|251:166|327:209|327:209|370:144|356:9|356:9|420:30|461:55|461:55|528:97|514:162|496:217|405:216,1,874.999976158143
178,310,69007,1,0,0:0:0:0:
274,322,69173,1,0,0:0:0:0:
371,340,69340,6,0,L|375:368,1,26.2499992847443
440,179,69673,1,0,0:0:0:0:
246,187,69840,1,0,0:0:0:0:
68,198,70007,6,0,L|68:227,1,26.2499992847443
39,37,70340,1,0,0:0:0:0:
256,59,70507,1,0,0:0:0:0:
481,84,70673,6,0,L|484:110,1,26.2499992847443
334,292,71007,1,0,0:0:0:0:
324,172,71173,1,0,0:0:0:0:
443,314,71340,6,0,L|441:331,1,17.4999995231628
334,292,71673,2,0,L|338:309,1,17.4999995231628
237,337,72007,2,0,L|254:341,1,17.4999995231628
170,268,72257,1,0,0:0:0:0:
153,275,72340,6,0,B|89:280|0:259|0:125|115:148|121:198,1,262.499992847443
98,340,72673,6,0,L|95:368,1,26.2499992847443
264,272,73007,2,0,L|263:299,1,26.2499992847443
56,147,73340,2,0,L|54:174,1,26.2499992847443
256,106,73673,2,0,L|254:133,1,26.2499992847443
163,11,74007,2,0,L|162:38,1,26.2499992847443
147,254,74340,5,0,0:0:0:0:
146,265,74423,1,0,0:0:0:0:
146,274,74507,1,0,0:0:0:0:
151,179,74673,1,0,0:0:0:0:
141,352,74840,1,0,0:0:0:0:
392,165,75007,5,0,0:0:0:0:
399,268,75173,1,0,0:0:0:0:
388,64,75340,6,0,L|386:35,1,26.2499992847443
287,187,75673,5,0,0:0:0:0:
268,284,75840,1,0,0:0:0:0:
306,86,76007,5,0,0:0:0:0:
213,120,76173,1,0,0:0:0:0:
118,97,76340,1,0,0:0:0:0:
63,5,76507,1,0,0:0:0:0:
123,106,76673,5,0,0:0:0:0:
113,228,76840,1,0,0:0:0:0:
47,325,77007,1,0,0:0:0:0:
221,176,77173,1,0,0:0:0:0:
379,342,77340,6,0,L|377:313,1,26.2499992847443
221,176,77673,2,0,L|223:147,1,26.2499992847443
456,2,78007,6,0,B|433:168|326:202|326:202|283:135|334:51|334:51|425:119|450:228|450:228|388:269|269:305|269:305|457:320|507:340,1,1049.99997138977
203,359,78340,1,0,0:0:0:0:
161,232,78507,1,0,0:0:0:0:
178,104,78673,1,0,0:0:0:0:
178,104,78757,1,0,0:0:0:0:
178,104,78840,1,0,0:0:0:0:
225,177,79007,1,0,0:0:0:0:
161,232,79173,1,0,0:0:0:0:
271,88,79340,6,0,B|375:19|499:64|499:64|391:153|223:175|223:175|302:126|308:26|308:26|438:137|408:369,1,1049.99997138977
91,51,79673,1,0,0:0:0:0:
105,159,79840,1,0,0:0:0:0:
117,266,80007,2,0,L|89:262,1,26.2499992847443
259,40,80340,1,0,0:0:0:0:
247,184,80507,1,0,0:0:0:0:
239,329,80673,6,0,L|265:327,1,26.2499992847443
394,14,81007,1,0,0:0:0:0:
413,195,81173,1,0,0:0:0:0:
432,374,81340,6,0,L|404:371,1,26.2499992847443
249,184,81673,1,0,0:0:0:0:
413,195,81840,1,0,0:0:0:0:
330,64,82007,6,0,L|332:82,1,17.4999995231628
233,88,82340,2,0,L|231:106,1,17.4999995231628
130,55,82673,2,0,L|132:73,1,17.4999995231628
108,171,82923,1,0,0:0:0:0:
102,182,83007,1,0,0:0:0:0:
93,257,83173,1,0,0:0:0:0:
121,326,83340,5,0,0:0:0:0:
123,246,83507,1,0,0:0:0:0:
191,145,83673,1,0,0:0:0:0:
410,86,83840,1,0,0:0:0:0:
428,96,84173,1,0,0:0:0:0:
439,119,84340,5,0,0:0:0:0:
340,57,84507,1,0,0:0:0:0:
213,47,84673,1,0,0:0:0:0:
71,139,84840,1,0,0:0:0:0:
59,154,85173,1,0,0:0:0:0:
52,176,85340,5,0,0:0:0:0:
161,104,85507,1,0,0:0:0:0:
304,116,85673,1,0,0:0:0:0:
397,232,85840,1,0,0:0:0:0:
358,384,86007,6,0,L|356:374,1,8.74999976158142
268,248,86173,2,0,L|270:238,1,8.74999976158142
304,116,86340,1,0,0:0:0:0:
500,104,86507,2,0,B|391:185|242:148|242:148|318:148|379:75,1,393.750004291535
298,251,86840,2,0,B|231:201|140:224|140:224|186:224|224:268,1,262.499992847443
52,324,87173,2,0,P|98:309|143:311,1,87.4999976158143
368,360,87340,6,0,L|365:341,1,17.4999995231628
141,224,87590,2,0,L|144:205,1,17.4999995231628
414,209,87840,2,0,L|411:190,1,17.4999995231628
63,352,88090,2,0,L|66:333,1,17.4999995231628
264,325,88340,5,0,0:0:0:0:
261,259,88423,1,0,0:0:0:0:
258,193,88506,1,0,0:0:0:0:
255,128,88589,1,0,0:0:0:0:
278,81,88673,5,0,0:0:0:0:
278,81,88757,1,0,0:0:0:0:
278,81,88840,1,0,0:0:0:0:
278,81,88923,1,0,0:0:0:0:
278,81,89007,1,0,0:0:0:0:
278,81,89090,1,0,0:0:0:0:
278,81,89173,1,0,0:0:0:0:
278,81,89257,1,0,0:0:0:0:
278,81,89340,5,0,0:0:0:0:
212,78,89423,1,0,0:0:0:0:
146,75,89506,1,0,0:0:0:0:
81,72,89589,1,0,0:0:0:0:
15,70,89673,5,0,0:0:0:0:
34,136,89757,1,0,0:0:0:0:
55,201,89840,5,0,0:0:0:0:
121,204,89923,1,0,0:0:0:0:
187,207,90007,6,0,L|206:209,1,17.4999995231628
273,213,90257,1,0,0:0:0:0:
346,215,90340,2,0,L|365:217,1,17.4999995231628
432,221,90590,1,0,0:0:0:0:
512,228,90673,2,0,L|510:209,2,17.4999995231628
430,334,91173,1,0,0:0:0:0:
352,292,91340,1,0,0:0:0:0:
267,315,91507,5,0,0:0:0:0:
291,237,91590,1,0,0:0:0:0:
352,292,91673,1,0,0:0:0:0:
391,96,91840,1,0,0:0:0:0:
476,119,92007,5,0,0:0:0:0:
452,41,92090,1,0,0:0:0:0:
391,96,92173,1,0,0:0:0:0:
204,152,92340,1,0,0:0:0:0:
110,37,92507,1,0,0:0:0:0:
195,98,92673,5,0,0:0:0:0:
203,127,92757,1,0,0:0:0:0:
204,152,92840,1,0,0:0:0:0:
203,196,92923,1,0,0:0:0:0:
193,238,93007,1,0,0:0:0:0:
168,275,93090,5,0,0:0:0:0:
221,256,93173,1,0,0:0:0:0:
273,249,93257,1,0,0:0:0:0:
339,262,93340,2,0,L|344:260,1,4.37499988079071
393,304,93423,2,0,L|398:305,1,4.37499988079071
409,372,93507,2,0,L|411:376,1,4.37499988079071
296,152,93673,1,0,0:0:0:0:
272,372,93840,1,0,0:0:0:0:
464,120,94007,6,0,P|420:164|288:140,1,174.999995231629
296,152,94257,1,0,0:0:0:0:
277,140,94340,2,0,P|222:112|106:152,1,174.999995231629
106,154,94590,1,0,0:0:0:0:
98,169,94673,2,0,P|86:233|295:260,1,349.999990463257
204,22,95173,1,0,0:0:0:0:
206,44,95257,1,0,0:0:0:0:
206,63,95340,6,0,B|210:154|210:154|205:164|205:164|208:266,1,174.999995231629
247,299,95590,1,0,0:0:0:0:
259,309,95673,2,0,P|305:304|333:271,1,87.4999976158143
393,321,95840,2,0,P|408:277|391:237,1,65.6250007152558
474,216,96007,2,0,P|441:182|364:186,1,122.499992923737
158,167,96507,1,0,0:0:0:0:
174,38,96673,6,0,P|188:73|193:121,1,65.6250007152558
291,78,96840,2,0,P|277:113|249:152,1,83.1249955153467
396,185,97007,2,0,P|357:205|302:216,1,100.624999177456
31,265,97173,6,0,B|75:221|163:240|123:280|201:318|262:278,1,244.999985847474
97,105,97507,2,0,P|122:114|94:96,1,122.499992923737
197,190,97673,2,0,P|206:206|199:183,1,87.4999976158143
248,305,97840,5,0,0:0:0:0:
270,292,97923,1,0,0:0:0:0:
296,285,98006,1,0,0:0:0:0:
322,284,98090,1,0,0:0:0:0:
382,293,98173,5,0,0:0:0:0:
439,273,98256,1,0,0:0:0:0:
479,227,98339,1,0,0:0:0:0:
492,168,98423,1,0,0:0:0:0:
457,90,98506,5,0,0:0:0:0:
380,54,98589,1,0,0:0:0:0:
297,77,98673,1,0,0:0:0:0:
222,110,98756,1,0,0:0:0:0:
129,109,98839,1,0,0:0:0:0:
50,68,98922,1,0,0:0:0:0:
0,2,99007,6,0,L|10:58,1,43.7499988079071
50,68,99090,2,0,L|19:116,1,43.7499988079071
42,150,99173,2,0,L|-12:165,1,43.7499988079071
116,334,99340,6,0,L|305:318,1,174.999995231629
359,342,99590,1,0,0:0:0:0:
368,351,99673,2,0,L|371:247,1,87.4999976158143
372,186,99840,2,0,L|375:82,1,87.4999976158143
185,0,100007,2,0,L|187:87,1,87.4999976158143
189,164,100174,2,0,L|191:251,1,87.4999976158143
159,297,100340,1,0,0:0:0:0:
170,284,100423,1,0,0:0:0:0:
185,275,100506,1,0,0:0:0:0:
202,271,100589,1,0,0:0:0:0:
222,271,100673,6,0,P|271:282|329:272,1,87.4999976158143
343,348,100840,2,0,P|386:323|423:277,1,87.4999976158143
324,122,101007,2,0,P|327:185|441:122,1,262.500002861023
381,66,101257,1,0,0:0:0:0:
300,39,101340,6,0,P|254:50|215:72,1,87.4999976158143
151,36,101507,2,0,P|118:88|103:163,1,122.499992923737
355,271,101673,6,0,P|313:248|269:238,1,87.4999976158143
246,169,101840,2,0,P|187:186|126:232,1,122.499992923737
52,345,102007,6,0,P|93:299|177:309,1,131.250001430512
215,342,102257,1,0,0:0:0:0:
399,344,102340,2,0,P|352:354|277:295,1,131.250001430512
284,239,102590,1,0,0:0:0:0:
385,117,102673,6,0,P|416:176|442:309,1,174.999995231629
399,342,102923,1,0,0:0:0:0:
284,239,103007,2,0,P|297:163|274:52,1,174.999995231629
221,19,103257,1,0,0:0:0:0:
66,164,103340,5,0,0:0:0:0:
79,153,103423,1,0,0:0:0:0:
95,145,103506,1,0,0:0:0:0:
112,138,103590,1,0,0:0:0:0:
171,135,103673,5,0,0:0:0:0:
229,156,103756,1,0,0:0:0:0:
273,198,103839,1,0,0:0:0:0:
295,249,103923,5,0,0:0:0:0:
362,301,104006,1,0,0:0:0:0:
446,287,104089,1,0,0:0:0:0:
493,217,104172,1,0,0:0:0:0:
474,134,104256,1,0,0:0:0:0:
400,91,104340,6,0,P|373:110|358:139,1,43.7499988079071
372,93,104423,2,0,P|364:125|372:156,1,43.7499988079071
352,113,104507,2,0,P|368:141|395:159,1,43.7499988079071
351,141,104590,2,0,P|382:151|414:146,1,43.7499988079071
456,293,104673,6,0,L|412:297,1,43.7499988079071
264,345,104923,1,0,0:0:0:0:
279,163,105007,2,0,P|306:223|308:324,1,122.499992923737
219,231,105173,2,0,P|207:266|169:310,1,65.6250007152558
133,227,105340,2,0,P|95:232|-24:174,1,131.250001430512
91,8,105507,2,0,P|110:92|172:151,1,174.999995231629
444,61,105673,2,0,P|322:43|204:116,1,218.749994039536
278,162,105840,2,0,P|404:181|474:288,1,262.500002861023
328,294,106007,6,0,P|314:273|295:260,1,43.7499988079071
219,254,106257,1,0,0:0:0:0:
111,357,106340,2,0,P|124:340|127:213,1,122.499992923737
233,317,106507,2,0,P|225:270|210:239,1,65.6250007152558
51,116,106673,2,0,P|102:147|205:141,1,131.250001430512
239,125,106840,2,0,P|320:91|406:106,1,174.999995231629
460,348,107007,2,0,P|490:207|444:131,1,218.749994039536
239,125,107173,2,0,P|354:225|347:375,1,262.500002861023
275,336,107340,6,0,P|259:309|244:295,1,43.7499988079071
177,268,107590,1,0,0:0:0:0:
62,376,107673,2,0,P|101:341|111:278,1,87.4999976158143
112,221,107840,2,0,L|100:82,1,113.749991693497
275,336,108007,2,0,P|240:300|238:217,1,113.749991693497
247,162,108173,2,0,L|270:6,1,139.999996185303
374,359,108340,2,0,P|438:309|429:217,1,139.999996185303
434,171,108507,2,0,L|407:-9,1,166.249991030693
166,52,108673,6,0,P|176:83|177:130,3,65.6250007152558
279,123,109007,1,0,0:0:0:0:
248,179,109090,1,0,0:0:0:0:
191,210,109173,1,0,0:0:0:0:
126,205,109257,5,0,0:0:0:0:
172,161,109340,1,0,0:0:0:0:
237,160,109423,1,0,0:0:0:0:
289,198,109506,1,0,0:0:0:0:
317,257,109590,1,0,0:0:0:0:
362,303,109673,1,0,0:0:0:0:
426,317,109756,1,0,0:0:0:0:
486,296,109840,1,0,0:0:0:0:
410,242,109923,1,0,0:0:0:0:
317,257,110007,5,0,0:0:0:0:
