osu file format v14

[General]
AudioFilename: 8.mp3
AudioLeadIn: 0
PreviewTime: 67257
Countdown: 0
SampleSet: Soft
StackLeniency: 0.3
Mode: 0
LetterboxInBreaks: 0
WidescreenStoryboard: 0

[Editor]
Bookmarks: 31340,54007,67340,104673
DistanceSpacing: 1.1
BeatDivisor: 4
GridSize: 4
TimelineZoom: 1

[Metadata]
Title:Oriental Blossom
TitleUnicode:Oriental Blossom
Artist:Eisyo-kobu
ArtistUnicode:影翔鼓舞
Creator:Crystal
Version:yf & EmingK's Another
Source:SOUND VOLTEX III GRAVITY WARS
Tags:Newspaper Cup #3 3rd third sdvx 影虎。Kagetora. saka=ichi The 4th KACオリジナル楽曲コンテスト Original Song Contest konami arcade championship fourth Evil_Twilight 384059043 Pata-Mon Sadism-Bread Gaia Doj EmingK yf_bmp handsome muscle z1085684963 Karen Kashima Vert 23konG Ellyu pw384
BeatmapID:1242792
BeatmapSetID:586889

[Difficulty]
HPDrainRate:6
CircleSize:4
OverallDifficulty:7
ApproachRate:9.3
SliderMultiplier:1.8
SliderTickRate:1

[Events]
//Background and Video events
0,0,"15.jpg",0,0
//Break Periods
//Storyboard Layer 0 (Background)
//Storyboard Layer 1 (Fail)
//Storyboard Layer 2 (Pass)
//Storyboard Layer 3 (Foreground)
//Storyboard Sound Samples

[TimingPoints]
674,333.333333333333,4,2,13,70,1,0
674,-149.253731343284,4,2,13,70,0,0
10007,-149.253731343284,4,2,11,70,0,0
11007,-100,4,2,11,70,0,0
31340,-83.3333333333333,4,2,11,70,0,0
32173,-83.3333333333333,4,2,11,70,0,0
32340,-71.4285714285714,4,2,11,70,0,0
32507,-62.5,4,2,11,70,0,0
32673,-100,4,2,11,70,0,0
48007,-90.9090909090909,4,2,11,70,0,0
48173,-83.3333333333333,4,2,11,70,0,0
48340,-76.9230769230769,4,2,11,70,0,0
48673,-100,4,2,11,70,0,0
52673,-66.6666666666667,4,2,11,70,0,0
53507,-83.3333333333333,4,2,11,70,0,0
53673,-71.4285714285714,4,2,11,70,0,0
53840,-62.5,4,2,11,70,0,0
54007,-128.205128205128,4,2,13,70,0,0
59340,-128.205128205128,4,2,11,70,0,0
60507,-128.205128205128,4,2,11,40,0,0
60673,-128.205128205128,4,2,11,70,0,0
63340,-128.205128205128,4,2,12,80,0,0
64673,-128.205128205128,4,2,11,70,0,0
67340,-100,4,2,11,70,0,0
67673,-66.6666666666667,4,2,11,70,0,0
68007,-90.9090909090909,4,2,11,70,0,0
70007,-66.6666666666667,4,2,11,70,0,0
70340,-90.9090909090909,4,2,11,70,0,0
70673,-66.6666666666667,4,2,11,70,0,0
71007,-90.9090909090909,4,2,11,70,0,0
71340,-66.6666666666667,4,2,11,70,0,0
71590,-90.9090909090909,4,2,11,70,0,0
72673,-100,4,2,11,70,0,0
73007,-66.6666666666667,4,2,11,70,0,0
73673,-64.1025641025641,4,2,11,70,0,0
74340,-76.9230769230769,4,2,11,70,0,0
78007,-100,4,2,11,70,0,0
78340,-66.6666666666667,4,2,11,70,0,0
78673,-90.9090909090909,4,2,11,70,0,0
80673,-66.6666666666667,4,2,11,70,0,0
81007,-90.9090909090909,4,2,11,70,0,0
81340,-66.6666666666667,4,2,11,70,0,0
81673,-90.9090909090909,4,2,11,70,0,0
82007,-76.9230769230769,4,2,11,70,0,0
82840,-90.9090909090909,4,2,11,70,0,0
83840,-66.6666666666667,4,2,11,70,0,0
84257,-76.9230769230769,4,2,11,70,0,0
84673,-90.9090909090909,4,2,11,70,0,0
85340,-90.9090909090909,4,2,11,70,0,0
85507,-76.9230769230769,4,2,11,70,0,0
85673,-66.6666666666667,4,2,11,70,0,0
85840,-58.8235294117647,4,2,11,70,0,0
86007,-90.9090909090909,4,2,11,70,0,0
86507,-66.6666666666667,4,2,11,70,0,0
90007,-66.6666666666667,4,2,11,70,0,0
90340,-76.9230769230769,4,2,11,70,0,0
90673,-90.9090909090909,4,2,11,70,0,0
93340,-66.6666666666667,4,2,11,70,0,0
93673,-90.9090909090909,4,2,11,70,0,0
94007,-66.6666666666667,4,2,11,70,0,0
94257,-76.9230769230769,4,2,11,70,0,0
94507,-90.9090909090909,4,2,11,70,0,0
95507,-111.111111111111,4,2,11,70,0,0
95840,-142.857142857143,4,2,11,70,0,0
96673,-66.6666666666667,4,2,11,70,0,0
98007,-66.6666666666667,4,2,11,70,0,0
98840,-83.3333333333333,4,2,11,70,0,0
99007,-71.4285714285714,4,2,11,70,0,0
99173,-62.5,4,2,11,70,0,0
99340,-76.9230769230769,4,2,11,70,0,0
99673,-66.6666666666667,4,2,11,70,0,0
100340,-76.9230769230769,4,2,11,70,0,0
100673,-66.6666666666667,4,2,11,70,0,0
101340,-76.9230769230769,4,2,11,70,0,0
102507,-90.9090909090909,4,2,11,70,0,0
102840,-90.9090909090909,4,2,11,70,0,0
104673,-100,4,2,11,80,0,0
108673,-100,4,2,12,80,0,0
109340,-58.8235294117647,4,2,12,70,0,0
109507,-58.8235294117647,4,2,11,70,0,0
110090,-58.8235294117647,4,2,11,20,0,0

[Colours]
Combo1 : 80,175,85
Combo2 : 239,65,135
Combo3 : 222,226,65
Combo4 : 174,69,201

[HitObjects]
240,252,674,6,0,B|332:288|324:220|416:256,1,180.899991443024,6|0,0:0|0:0,0:0:0:0:
460,324,1340,2,0,P|482:299|496:256,1,60.2999971476747,0|0,3:0|0:0,0:0:0:0:
444,88,1673,1,0,0:0:0:0:
488,156,1840,1,2,0:0:0:0:
488,156,1923,1,0,0:0:0:0:
488,156,2007,6,0,P|420:164|376:128,1,120.599994295349,6|0,0:0|0:0,0:0:0:0:
340,64,2507,1,0,0:0:0:0:
244,145,2673,2,0,P|273:147|304:136,1,60.2999971476747,0|0,3:0|0:0,0:0:0:0:
180,196,3007,2,0,P|150:198|96:172,1,90.4499957215121,2|0,0:0|0:0,0:0:0:0:
80,180,3340,5,2,0:0:0:0:
8,140,3507,1,0,0:0:0:0:
80,100,3673,1,0,0:0:0:0:
8,60,3840,1,0,0:0:0:0:
196,0,4007,2,0,L|77:19,1,120.599994295349,0|0,3:0|0:0,0:0:0:0:
77,19,4423,1,0,0:0:0:0:
77,19,4507,1,0,0:0:0:0:
256,108,4673,5,6,0:0:0:0:
340,128,4840,1,2,0:0:0:0:
420,108,5007,1,2,0:0:0:0:
480,48,5173,1,2,0:0:0:0:
508,212,5340,6,0,P|458:180|400:191,1,120.599994295349,0|2,3:0|0:0,0:0:0:0:
400,191,6007,6,0,L|424:252,1,60.2999971476747,2|0,1:2|0:0,0:0:0:0:
336,244,6340,2,0,L|271:234,1,60.2999971476747,0|0,1:0|0:0,0:0:0:0:
320,164,6673,2,0,L|360:112,1,60.2999971476747,8|0,1:2|0:0,0:0:0:0:
380,316,7007,2,0,P|380:352|372:380,1,60.0000022888184,2|0,1:2|0:0,0:0:0:0:
356,384,7257,1,0,0:0:0:0:
356,384,7340,6,0,L|280:380,1,60.2999971476747,6|0,1:2|0:0,0:0:0:0:
180,309,7673,2,0,P|209:309|236:324,1,60.2999971476747,0|0,1:2|0:0,0:0:0:0:
112,360,8007,2,0,P|85:374|56:374,1,60.0000022888184,10|0,1:2|0:0,0:0:0:0:
0,236,8340,2,0,P|-8:176|8:136,1,90.4499957215121,0|0,1:0|0:0,0:0:0:0:
48,92,8673,5,0,1:0:0:0:
112,148,8840,1,0,1:0:0:0:
120,232,9007,1,0,1:0:0:0:
68,296,9173,1,0,1:0:0:0:
48,92,9340,5,8,1:2:0:0:
128,148,9507,1,0,1:0:0:0:
224,144,9673,1,0,1:0:0:0:
296,84,9840,1,0,1:0:0:0:
48,92,10007,6,0,L|4:48,2,60.2999971476747,2|2|2,1:2|0:0|0:0,0:0:0:0:
119,232,10507,2,0,L|132:96,1,120.599994295349,2|4,0:0|0:3,0:0:0:0:
287,6,11007,6,0,P|283:46|303:94,1,90,8|2,1:0|0:0,0:0:0:0:
491,174,11340,6,0,P|448:165|380:220,1,135,6|0,0:0|0:0,0:0:0:0:
319,268,11673,2,0,P|277:278|233:269,1,90,12|0,1:2|0:0,0:0:0:0:
80,152,12007,1,2,0:0:0:0:
117,230,12173,1,4,3:0:0:0:
120,384,12340,1,8,1:0:0:0:
157,306,12507,1,2,3:0:0:0:
272,192,12673,6,0,P|285:145|240:56,1,135,2|0,3:2|0:0,0:0:0:0:
232,52,13007,1,8,1:0:0:0:
164,148,13173,1,4,0:3:0:0:
272,192,13340,2,0,L|374:178,1,90,2|8,0:0|3:0,0:0:0:0:
361,179,13590,1,8,3:0:0:0:
361,179,13673,6,0,L|436:192,1,45,8|0,1:0|0:0,0:0:0:0:
284,108,13840,1,8,3:0:0:0:
467,8,14007,2,0,L|460:97,1,90,2|0,3:2|0:0,0:0:0:0:
272,192,14340,6,0,L|316:253,1,45,8|0,1:0|0:0,0:0:0:0:
195,121,14507,1,8,3:0:0:0:
380,3,14673,2,0,L|372:92,1,90,2|4,3:2|0:3,0:0:0:0:
184,208,15007,6,0,L|171:282,1,45,8|0,1:0|0:0,0:0:0:0:
107,137,15173,1,6,3:0:0:0:
272,192,15340,5,2,2:0:0:0:
184,208,15507,1,4,0:3:0:0:
208,32,15673,5,8,1:0:0:0:
296,16,15840,1,8,3:0:0:0:
107,137,16007,6,0,P|58:131|16:96,1,90,6|4,3:0|3:0,0:0:0:0:
12,80,16257,1,8,0:0:0:0:
12,48,16340,1,8,1:0:0:0:
195,121,16507,1,2,3:2:0:0:
96,228,16673,5,2,0:0:0:0:
208,304,16840,1,0,0:0:0:0:
340,272,17007,2,0,L|355:183,1,90,8|0,1:0|0:0,0:0:0:0:
492,136,17340,2,0,P|501:191|494:224,1,90,2|4,0:0|3:0,0:0:0:0:
336,360,17673,2,0,P|329:315|339:272,1,90,8|2,1:0|3:0,0:0:0:0:
404,112,18007,5,2,0:0:0:0:
280,164,18173,1,0,0:0:0:0:
192,60,18340,2,0,L|101:54,1,90,8|4,1:0|0:3,0:0:0:0:
0,136,18673,2,0,L|89:130,1,90,2|0,0:0|3:0,0:0:0:0:
102,54,18923,1,0,3:0:0:0:
102,54,19007,5,8,1:0:0:0:
268,84,19173,1,2,3:0:0:0:
420,28,19340,2,0,L|509:19,1,90,2|0,0:0|3:0,0:0:0:0:
384,196,19673,5,8,1:0:0:0:
268,84,19840,2,0,L|236:124,1,45,0|2,3:0|3:3,0:0:0:0:
164,208,20007,2,0,L|72:217,1,90,2|4,3:2|3:0,0:0:0:0:
44,220,20257,1,0,3:0:0:0:
12,224,20340,1,8,1:0:0:0:
144,128,20507,1,4,0:3:0:0:
156,296,20673,5,2,3:2:0:0:
244,320,20840,1,6,3:0:0:0:
320,144,21007,5,8,1:0:0:0:
408,120,21173,1,2,3:0:0:0:
488,296,21340,5,2,3:2:0:0:
364,372,21507,1,8,0:1:0:0:
380,344,21590,1,8,0:0:0:0:
396,320,21673,2,0,L|304:240,1,90,8|8,1:0|0:0,0:0:0:0:
256,267,21923,1,8,0:0:0:0:
256,267,22007,6,0,P|190:284|100:216,1,180,4|8,1:2|1:0,0:0:0:0:
40,160,22507,1,2,0:0:0:0:
84,84,22673,5,0,0:0:0:0:
114,94,22757,1,2,0:0:0:0:
146,92,22840,1,4,0:3:0:0:
174,73,22923,1,0,0:0:0:0:
187,42,23007,5,8,1:0:0:0:
216,8,23090,1,2,0:0:0:0:
258,0,23173,1,2,0:0:0:0:
295,23,23257,1,0,0:0:0:0:
308,64,23340,6,0,P|348:76|408:52,1,90,4|2,0:3|0:0,0:0:0:0:
504,40,23590,1,0,2:0:0:0:
504,40,23673,6,0,P|473:68|464:132,1,90,8|4,1:0|2:3,0:0:0:0:
424,220,23923,1,0,2:0:0:0:
424,220,24007,6,0,P|414:179|363:139,1,90,2|4,2:2|2:3,0:0:0:0:
304,144,24257,1,4,2:3:0:0:
304,144,24340,2,0,L|252:156,1,45,8|0,1:0|0:0,0:0:0:0:
300,228,24507,2,0,L|352:216,1,45,2|0,2:2|0:0,0:0:0:0:
216,228,24673,5,4,0:3:0:0:
108,136,24840,1,2,0:0:0:0:
67,133,24923,1,0,0:0:0:0:
24,128,25007,1,8,1:0:0:0:
205,13,25173,5,2,0:0:0:0:
24,128,25340,1,2,2:0:0:0:
67,133,25423,1,2,2:0:0:0:
108,136,25507,1,4,0:3:0:0:
216,228,25673,5,8,1:0:0:0:
108,136,25840,1,4,0:3:0:0:
205,13,26007,5,2,2:0:0:0:
236,18,26090,1,0,0:0:0:0:
267,22,26173,1,0,0:0:0:0:
298,26,26257,1,0,0:0:0:0:
329,31,26340,2,0,P|322:80|336:128,1,90,8|2,1:0|0:2,0:0:0:0:
348,140,26590,1,0,0:0:0:0:
372,156,26673,5,4,0:3:0:0:
424,72,26840,1,2,0:0:0:0:
232,118,27007,1,8,1:0:0:0:
201,123,27090,1,2,0:0:0:0:
170,127,27173,1,2,0:0:0:0:
139,131,27257,1,0,0:0:0:0:
108,136,27340,5,4,0:3:0:0:
36,248,27507,2,0,L|3:241,2,30,2|2|0,0:0|2:0|0:0,0:0:0:0:
56,252,27673,1,8,1:2:0:0:
184,300,27840,2,0,L|217:293,2,30,0|2|2,2:0|0:0|2:0,0:0:0:0:
164,304,28007,1,0,0:0:0:0:
232,118,28173,5,4,0:3:0:0:
276,246,28340,1,8,1:0:0:0:
364,146,28507,1,2,2:2:0:0:
348,300,28673,6,0,P|294:332|251:332,1,90,4|2,0:3|2:0,0:0:0:0:
224,324,28923,1,2,2:0:0:0:
181,338,29007,1,8,1:0:0:0:
155,359,29090,1,2,0:0:0:0:
121,361,29173,1,2,2:0:0:0:
92,347,29257,1,2,2:0:0:0:
80,328,29340,6,0,L|100:220,1,90,2|4,0:0|0:3,0:0:0:0:
96,239,29590,1,4,0:3:0:0:
96,239,29673,2,0,B|60:156|60:156|72:80,1,135,8|0,1:0|0:0,0:0:0:0:
88,40,30007,6,0,P|132:72|132:132,1,90,4|2,0:0|0:0,0:0:0:0:
96,239,30340,1,8,1:0:0:0:
66,112,30507,2,0,L|264:96,1,180,2|4,0:0|0:3,0:0:0:0:
323,83,31007,1,8,1:0:0:0:
389,171,31173,1,2,1:2:0:0:
323,83,31340,6,0,P|354:84|380:105,2,53.9999983520508,4|0|4,1:2|0:0|0:3,0:0:0:0:
389,171,31590,2,0,P|372:198|341:209,2,53.9999983520508,4|0|4,1:2|0:2|0:3,0:0:0:0:
280,189,31840,2,0,P|263:160|269:127,1,53.9999983520508,4|0,1:2|0:0,0:0:0:0:
208,57,32007,5,4,1:2:0:0:
191,55,32090,1,2,0:2:0:0:
176,53,32173,2,0,P|206:57|263:68,1,53.9999983520508,0|0,1:0|1:0,0:0:0:0:
159,131,32340,6,0,P|173:159|188:214,1,62.9999980773926,0|0,1:0|1:0,0:0:0:0:
88,180,32507,6,0,P|70:207|30:248,1,72,0|0,1:0|1:0,0:0:0:0:
20,120,32673,5,4,0:0:0:0:
96,16,32840,1,2,3:0:0:0:
96,16,32923,1,2,3:0:0:0:
96,16,33007,2,0,P|88:35|88:64,1,45,8|0,1:0|0:0,0:0:0:0:
88,180,33173,1,2,3:0:0:0:
117,159,33257,2,0,P|183:158|226:208,1,135,0|8,3:0|3:0,0:0:0:0:
188,360,33673,1,8,1:0:0:0:
152,232,33840,1,2,0:0:0:0:
284,264,34007,5,0,1:1:0:0:
208,284,34173,1,2,2:0:0:0:
344,364,34340,5,8,1:0:0:0:
420,384,34507,1,2,2:0:0:0:
512,224,34673,5,2,3:0:0:0:
436,196,34840,1,8,3:0:0:0:
404,172,34923,1,8,3:0:0:0:
388,136,35007,1,8,1:0:0:0:
224,64,35173,1,2,3:0:0:0:
148,228,35340,6,0,P|85:246|31:208,1,135,2|0,3:2|0:0,0:0:0:0:
108,83,35673,2,0,P|114:127|98:168,1,90,8|2,1:0|0:0,0:0:0:0:
32,209,35923,1,0,0:0:0:0:
32,209,36007,1,0,0:0:0:0:
52,35,36173,1,4,0:3:0:0:
184,151,36340,2,0,L|272:135,1,90,8|2,1:0|3:0,0:0:0:0:
432,108,36673,5,4,0:3:0:0:
348,28,36840,1,0,3:0:0:0:
360,64,36923,1,0,3:0:0:0:
344,100,37007,1,8,3:1:0:0:
356,140,37090,1,0,3:0:0:0:
340,176,37173,1,10,3:0:0:0:
352,216,37257,1,8,3:0:0:0:
332,252,37340,6,0,L|364:288,1,45,0|0,3:0|3:0,0:0:0:0:
216,384,37507,2,0,L|208:340,1,45,2|0,3:0|0:0,0:0:0:0:
304,340,37673,6,0,L|296:384,1,45,8|0,1:0|0:0,0:0:0:0:
150,285,37840,2,0,L|180:252,1,45,10|0,3:0|0:0,0:0:0:0:
256,116,38007,5,4,2:3:0:0:
80,156,38173,1,2,3:0:0:0:
80,156,38257,1,8,3:0:0:0:
80,156,38340,2,0,P|38:155|0:124,1,90,8|8,1:2|3:0,0:0:0:0:
64,84,38590,1,2,3:0:0:0:
64,84,38673,2,0,L|136:76,1,45,0|0,0:0|0:0,0:0:0:0:
196,48,38840,1,4,3:0:0:0:
192,60,38923,1,0,3:0:0:0:
188,72,39007,1,8,1:0:0:0:
256,216,39173,1,2,3:0:0:0:
404,152,39340,5,4,0:3:0:0:
328,128,39507,1,0,3:0:0:0:
476,20,39673,2,0,P|485:64|471:106,1,90,8|2,1:0|3:0,0:0:0:0:
328,128,40007,1,2,0:0:0:0:
416,232,40173,1,4,0:3:0:0:
452,216,40257,1,4,0:3:0:0:
476,184,40340,1,8,1:0:0:0:
480,304,40507,1,2,3:3:0:0:
372,352,40673,6,0,L|276:344,1,90,4|2,0:3|3:0,0:0:0:0:
148,292,41007,2,0,P|96:292|48:356,1,135,8|2,1:0|3:0,0:0:0:0:
32,336,41340,2,0,L|20:236,1,90,2|8,3:2|3:0,0:0:0:0:
124,364,41673,2,0,P|161:376|214:370,1,90,8|2,1:0|0:0,0:0:0:0:
356,272,42007,5,8,0:3:0:0:
352,260,42090,1,0,0:0:0:0:
348,248,42173,1,2,0:0:0:0:
344,236,42257,1,2,0:0:0:0:
340,224,42340,1,8,1:1:0:0:
336,212,42423,1,0,0:0:0:0:
332,200,42507,1,2,0:0:0:0:
328,188,42590,1,2,0:0:0:0:
324,176,42673,5,2,0:0:0:0:
360,160,42757,1,2,0:0:0:0:
400,164,42840,1,4,0:3:0:0:
432,188,42923,1,2,0:0:0:0:
448,224,43007,1,8,1:0:0:0:
444,264,43090,1,2,1:2:0:0:
416,296,43173,1,8,1:0:0:0:
376,308,43257,1,8,1:0:0:0:
336,300,43340,6,0,B|315:328|315:328|308:384,1,90,4|0,1:0|3:0,0:0:0:0:
256,280,43673,1,8,1:0:0:0:
168,380,43840,1,2,3:0:0:0:
184,380,43923,1,2,3:0:0:0:
198,381,44007,6,0,B|192:336|192:336|172:308,1,60,10|0,3:0|0:0,0:0:0:0:
136,268,44229,6,0,L|60:276,1,60,2|0,3:0|0:0,0:0:0:0:
32,216,44451,6,0,B|38:171|38:171|58:143,1,60,8|0,3:0|0:0,0:0:0:0:
108,116,44673,6,0,L|199:111,1,90,2|2,3:0|3:0,0:0:0:0:
256,60,45007,1,8,1:0:0:0:
156,192,45173,1,2,3:0:0:0:
36,84,45340,1,2,3:0:0:0:
56,52,45423,1,0,3:0:0:0:
40,16,45507,1,0,3:0:0:0:
20,48,45590,1,2,3:0:0:0:
36,84,45673,5,8,1:0:0:0:
197,111,45840,1,10,3:0:0:0:
197,111,45923,1,0,3:0:0:0:
197,111,46007,2,0,P|260:140|324:96,1,135,2|0,3:2|0:0,0:0:0:0:
328,92,46340,2,0,L|432:100,1,90,8|0,1:0|0:0,0:0:0:0:
456,272,46673,2,0,P|396:240|328:276,1,135,2|0,3:2|0:0,0:0:0:0:
324,280,47007,2,0,L|220:272,1,90,8|0,1:0|0:0,0:0:0:0:
116,192,47340,6,0,L|176:188,1,45,2|0,3:2|3:0,0:0:0:0:
236,180,47507,1,2,3:0:0:0:
116,192,47673,1,8,1:0:0:0:
280,182,47840,6,0,L|220:178,1,45,8|8,3:0|3:0,0:0:0:0:
96,88,48007,6,0,L|145:121,1,49.5000015106202,8|0,3:0|2:0,0:0:0:0:
328,158,48173,6,0,L|278:181,1,53.9999983520508,10|8,3:0|3:0,0:0:0:0:
200,308,48340,6,0,L|203:249,1,58.4999973220826,8|0,1:0|2:0,0:0:0:0:
240,8,48507,1,10,3:0:0:0:
256,56,48590,1,2,0:2:0:0:
272,104,48673,6,0,P|324:104|364:72,1,90,4|2,1:2|3:0,0:0:0:0:
392,16,49007,1,8,1:0:0:0:
400,192,49173,2,0,L|404:288,1,90,2|0,3:0|0:0,0:0:0:0:
408,360,49507,1,4,0:3:0:0:
220,296,49673,2,0,P|247:326|340:324,1,135,8|2,1:0|3:0,0:0:0:0:
335,326,50007,5,2,3:2:0:0:
172,364,50173,1,2,3:0:0:0:
31,267,50340,2,0,P|10:228|6:184,1,90,8|10,1:0|3:0,0:0:0:0:
44,0,50673,1,0,3:0:0:0:
52,36,50757,1,2,3:0:0:0:
60,72,50840,1,10,3:0:0:0:
68,108,50923,1,0,3:0:0:0:
76,144,51007,1,8,1:0:0:0:
96,328,51173,1,0,3:0:0:0:
96,328,51257,1,0,3:0:0:0:
96,328,51340,5,4,1:2:0:0:
256,372,51507,2,0,L|304:360,1,45,10|0,3:0|0:0,0:0:0:0:
416,328,51673,1,8,1:0:0:0:
416,328,52007,6,0,L|368:316,1,45,2|0,3:2|0:0,0:0:0:0:
256,284,52173,1,10,3:0:0:0:
96,244,52340,6,0,L|144:232,1,45,8|0,1:0|0:0,0:0:0:0:
256,200,52507,1,2,3:0:0:0:
424,204,52673,6,0,B|371:218|327:171|327:171|350:179|365:170,1,135.000005149842,4|4,1:2|0:3,0:0:0:0:
477,87,52923,2,0,B|516:125|497:187|497:187|493:163|477:155,1,135.000005149842,4|4,1:2|0:3,0:0:0:0:
349,100,53173,2,0,B|362:47|425:32|425:32|406:48|407:66,1,135.000005149842,4|0,1:2|1:0,0:0:0:0:
418,144,53423,5,0,0:0:0:0:
416,128,53507,6,0,P|420:159|424:216,1,53.9999983520508,0|0,1:0|1:0,0:0:0:0:
353,174,53673,6,0,P|329:195|280:224,1,62.9999980773926,0|0,1:0|1:0,0:0:0:0:
232,168,53840,6,0,P|201:158|151:130,1,72,0|0,1:0|1:0,0:0:0:0:
124,52,54007,6,0,P|170:14|253:12,1,140,4|0,2:1|3:0,0:0:0:0:
312,96,54507,1,0,0:0:0:0:
232,168,54673,2,0,L|154:145,1,70,2|0,0:0|0:0,0:0:0:0:
80,216,55007,2,0,L|3:216,1,70,0|0,3:0|0:0,0:0:0:0:
44,116,55340,5,2,0:0:0:0:
168,244,55507,2,0,P|156:276|119:303,2,70.2000023565675,0|0|0,0:0|3:0|0:0,0:0:0:0:
220,72,56007,2,0,L|210:2,2,70.2000023565675,2|0|0,0:0|0:0|3:0,0:0:0:0:
324,192,56507,1,0,0:0:0:0:
324,192,56590,1,0,0:0:0:0:
324,192,56673,6,0,P|365:175|399:176,1,70.2000023565675,2|0,0:0|0:0,0:0:0:0:
468,232,57007,1,0,3:0:0:0:
380,276,57173,1,0,0:0:0:0:
232,164,57340,2,0,P|177:196|84:180,1,140.400004713135,2|0,0:0|3:0,0:0:0:0:
28,128,57840,1,2,0:0:0:0:
68,332,58007,5,2,0:0:0:0:
220,296,58173,2,0,L|144:292,2,70.2000023565675,0|0|0,0:0|3:0|0:0,0:0:0:0:
324,192,58673,2,0,L|400:188,2,70.2000023565675,2|2|0,0:0|0:0|3:0,0:0:0:0:
220,296,59173,1,2,0:0:0:0:
220,296,59257,1,0,0:0:0:0:
220,296,59340,6,0,P|250:321|296:328,1,70.2000023565675,4|0,1:2|0:0,0:0:0:0:
214,215,59673,2,0,P|177:232|132:226,1,70.2000023565675,0|0,1:0|0:0,0:0:0:0:
208,134,60007,2,0,P|247:141|289:123,1,70.2000023565675,0|0,1:0|0:0,0:0:0:0:
202,53,60340,2,0,P|162:49|125:21,1,70.2000023565675,0|0,1:0|2:0,0:0:0:0:
406,34,60673,6,0,P|372:44|347:68,1,70.2000023565675,4|0,1:2|0:0,0:0:0:0:
275,132,61006,2,0,P|310:132|341:149,1,70.2000023565675,0|0,1:0|0:0,0:0:0:0:
402,230,61340,2,0,P|368:222|335:230,1,70.2000023565675,0|0,1:0|0:0,0:0:0:0:
263,329,61673,2,0,P|294:312|329:311,1,70.2000023565675,0|0,1:2|2:0,0:0:0:0:
468,368,62007,5,4,1:2:0:0:
384,372,62173,1,0,1:0:0:0:
329,311,62340,1,0,1:0:0:0:
334,230,62507,1,0,1:0:0:0:
404,180,62673,5,0,1:0:0:0:
416,96,62840,1,0,1:0:0:0:
356,36,63007,1,0,1:0:0:0:
272,44,63173,1,0,1:0:0:0:
220,112,63340,5,4,2:2:0:0:
207,148,63423,1,0,2:0:0:0:
181,177,63507,1,0,2:0:0:0:
146,194,63590,1,0,2:0:0:0:
108,196,63673,1,0,2:0:0:0:
71,184,63757,1,0,2:0:0:0:
43,159,63840,1,0,2:0:0:0:
25,124,63923,1,0,2:0:0:0:
24,85,64007,1,0,2:0:0:0:
35,49,64090,1,0,2:0:0:0:
60,20,64173,1,0,2:0:0:0:
95,3,64257,1,0,2:0:0:0:
134,0,64340,1,0,2:2:0:0:
170,13,64423,1,0,2:0:0:0:
200,38,64507,1,0,2:2:0:0:
216,73,64590,1,0,2:0:0:0:
220,112,64673,5,0,1:0:0:0:
292,156,64840,1,0,1:0:0:0:
224,312,65007,2,0,L|130:307,1,70,8|0,1:0|2:0,0:0:0:0:
88,272,65257,2,0,L|28:284,1,35.1000011782837,0|0,1:0|1:0,0:0:0:0:
104,196,65423,1,0,1:0:0:0:
104,196,65507,2,0,L|69:202,1,35.1000011782837,0|0,2:0|0:0,0:0:0:0:
172,232,65673,1,0,1:0:0:0:
123,118,65840,2,0,L|88:124,1,35.1000011782837,0|0,0:0|0:0,0:0:0:0:
224,108,66007,5,0,1:0:0:0:
212,104,66090,1,2,0:0:0:0:
200,100,66173,1,2,0:0:0:0:
188,96,66257,1,2,0:0:0:0:
176,92,66340,1,2,0:0:0:0:
164,88,66423,1,2,0:0:0:0:
152,84,66507,1,2,0:0:0:0:
140,80,66590,1,2,0:0:0:0:
128,76,66673,5,0,0:0:0:0:
92,60,66757,1,2,0:0:0:0:
52,64,66840,1,2,0:0:0:0:
20,88,66923,1,2,0:0:0:0:
4,128,67007,5,0,1:0:0:0:
40,152,67090,1,0,1:0:0:0:
80,144,67173,1,0,1:0:0:0:
108,112,67257,1,0,1:0:0:0:
104,72,67340,6,0,P|116:124|124:76,1,135,4|0,1:1|0:0,0:0:0:0:
32,28,67673,6,0,P|4:115|80:200,1,202.500007724762,12|0,1:2|2:0,0:0:0:0:
244,208,68007,6,0,P|204:192|140:200,1,99.0000030212403,2|2,0:2|3:0,0:0:0:0:
48,344,68340,2,0,P|82:317|107:257,1,99.0000030212403,8|2,1:0|3:0,0:0:0:0:
156,0,68673,6,0,P|161:70|84:132,1,148.50000453186,2|0,0:2|0:0,0:0:0:0:
149,196,69007,2,0,L|277:188,1,99.0000030212403,8|12,1:0|3:0,0:0:0:0:
408,296,69340,1,2,3:2:0:0:
283,339,69507,6,0,L|331:331,1,49.5000015106202,6|8,3:0|3:0,0:0:0:0:
339,251,69673,6,0,L|271:263,1,49.5000015106202,8|0,1:0|0:0,0:0:0:0:
235,331,69840,2,0,L|284:339,1,49.5000015106202,2|0,3:0|0:0,0:0:0:0:
380,167,70007,6,0,L|205:197,1,135.000005149842,2|0,3:2|0:0,0:0:0:0:
143,115,70257,1,2,3:3:0:0:
143,115,70340,6,0,L|211:127,1,49.5000015106202,8|0,1:0|0:0,0:0:0:0:
247,191,70507,2,0,L|199:199,1,49.5000015106202,8|0,0:3|0:0,0:0:0:0:
111,31,70673,6,0,L|287:61,1,135.000005149842,2|4,3:2|0:3,0:0:0:0:
348,0,70923,1,8,3:0:0:0:
348,0,71007,6,0,L|318:62,1,49.5000015106202,0|0,1:0|0:0,0:0:0:0:
265,98,71173,2,0,L|235:35,1,49.5000015106202,4|0,0:3|0:0,0:0:0:0:
408,60,71340,6,0,L|378:236,1,135.000005149842,2|8,3:2|3:3,0:0:0:0:
439,297,71590,1,0,3:0:0:0:
439,297,71673,6,0,L|376:267,1,49.5000015106202,8|0,1:0|0:0,0:0:0:0:
341,214,71840,2,0,L|403:184,1,49.5000015106202,8|0,3:0|3:0,0:0:0:0:
428,380,72007,6,0,L|365:350,1,49.5000015106202,4|0,3:3|0:0,0:0:0:0:
256,312,72173,5,2,3:3:0:0:
256,312,72257,1,2,3:0:0:0:
256,312,72340,2,0,P|207:310|168:339,1,99.0000030212403,8|2,1:0|0:2,0:0:0:0:
107,217,72673,6,0,P|94:249|137:219,1,135,2|0,3:2|0:0,0:0:0:0:
31,181,73007,6,0,P|8:243|31:305,1,135.000005149842,8|8,1:0|3:0,0:0:0:0:
103,348,73257,1,0,0:0:0:0:
103,348,73340,6,0,P|135:350|175:333,1,67.5000025749208,2|0,3:2|0:0,0:0:0:0:
288,284,73507,2,0,P|256:272|223:274,1,67.5000025749208,4|0,0:3|0:0,0:0:0:0:
31,305,73673,6,0,L|188:344,1,140.400004713135,0|2,1:0|3:0,0:0:0:0:
248,352,73923,1,0,3:0:0:0:
248,352,74007,6,0,P|345:343|357:246,1,210.600007069702,2|0,2:2|0:0,0:0:0:0:
290,51,74340,6,0,P|272:74|263:102,1,58.4999973220826,10|0,1:2|0:0,0:0:0:0:
357,246,74507,1,4,0:3:0:0:
192,126,74673,2,0,P|208:150|231:169,1,58.4999973220826,2|0,3:2|0:0,0:0:0:0:
392,122,74840,2,0,P|365:113|336:113,1,58.4999973220826,6|2,2:3|3:0,0:0:0:0:
229,246,75007,1,8,1:2:0:0:
200,52,75173,2,0,P|168:56|132:80,1,58.4999973220826,2|2,3:0|3:0,0:0:0:0:
48,188,75340,6,0,L|176:212,1,116.999994644165,2|0,3:2|3:0,0:0:0:0:
226,304,75590,1,2,3:2:0:0:
226,304,75673,6,0,L|229:245,1,58.4999973220826,10|0,1:2|2:0,0:0:0:0:
303,17,75840,1,0,3:0:0:0:
319,65,75923,1,2,3:2:0:0:
335,113,76007,6,0,P|362:122|391:122,1,58.4999973220826,2|0,3:2|2:0,0:0:0:0:
282,222,76173,2,0,P|254:230|231:247,1,58.4999973220826,4|0,3:3|2:0,0:0:0:0:
263,101,76340,2,0,P|279:78|288:50,1,58.4999973220826,8|0,1:0|2:0,0:0:0:0:
349,188,76507,2,0,P|348:216|357:244,1,58.4999973220826,2|0,3:0|2:0,0:0:0:0:
230,168,76673,6,0,P|213:144|189:127,1,58.4999973220826,4|0,3:0|0:0,0:0:0:0:
24,140,76840,1,8,3:0:0:0:
24,140,77007,1,8,1:0:0:0:
24,140,77173,6,0,P|47:123|64:99,1,58.4999973220826,8|8,0:1|1:0,0:0:0:0:
144,12,77340,1,8,1:1:0:0:
144,12,77507,1,4,3:0:0:0:
144,12,77673,6,0,L|136:76,1,58.4999973220826,8|8,1:0|3:0,0:0:0:0:
96,192,77840,1,2,3:0:0:0:
96,192,77923,1,2,3:0:0:0:
96,192,78007,6,0,P|148:180|100:172,1,135,4|2,3:1|0:2,0:0:0:0:
52,264,78340,6,0,P|139:292|224:216,1,202.500007724762,12|0,1:2|3:0,0:0:0:0:
232,56,78673,6,0,P|216:96|224:160,1,99.0000030212403,2|6,3:2|3:0,0:0:0:0:
368,252,79007,2,0,P|341:218|281:193,1,99.0000030212403,8|2,1:0|3:0,0:0:0:0:
24,8,79340,6,0,P|94:3|156:80,1,148.50000453186,2|0,3:2|0:0,0:0:0:0:
232,56,79673,2,0,L|360:48,1,99.0000030212403,8|12,1:0|3:0,0:0:0:0:
492,76,80007,1,2,3:2:0:0:
448,64,80090,1,0,3:0:0:0:
404,76,80173,1,2,3:3:0:0:
380,112,80257,1,0,3:3:0:0:
380,156,80340,6,0,L|392:224,1,49.5000015106202,8|0,1:0|0:0,0:0:0:0:
456,260,80507,2,0,L|464:211,1,49.5000015106202,2|0,3:0|0:0,0:0:0:0:
296,115,80673,6,0,L|326:290,1,135.000005149842,4|0,3:0|0:0,0:0:0:0:
244,352,80923,1,2,3:3:0:0:
244,352,81007,6,0,L|256:284,1,49.5000015106202,8|0,1:0|0:0,0:0:0:0:
320,248,81173,2,0,L|328:296,1,49.5000015106202,8|0,3:0|3:0,0:0:0:0:
160,384,81340,6,0,L|190:208,1,135.000005149842,2|4,3:2|0:3,0:0:0:0:
78,174,81590,1,8,3:0:0:0:
78,174,81673,6,0,L|146:186,1,49.5000015106202,8|0,1:0|0:0,0:0:0:0:
182,250,81840,2,0,L|134:258,1,49.5000015106202,4|0,2:3|0:0,0:0:0:0:
52,104,82007,6,0,P|40:80|40:24,1,58.4999973220826,2|0,3:2|0:0,0:0:0:0:
176,104,82173,2,0,P|199:116|232:161,1,58.4999973220826,2|0,3:2|0:0,0:0:0:0:
78,174,82340,2,0,P|51:177|-1:160,1,58.4999973220826,8|0,1:0|0:0,0:0:0:0:
112,60,82507,2,0,P|131:41|184:23,1,58.4999973220826,2|2,3:2|3:0,0:0:0:0:
152,176,82673,2,0,P|147:202|114:247,1,58.4999973220826,2|0,3:2|0:0,0:0:0:0:
0,276,82840,5,4,3:3:0:0:
36,296,82923,1,2,3:0:0:0:
56,332,83007,2,0,P|116:364|164:348,1,99.0000030212403,8|2,1:0|3:2,0:0:0:0:
352,268,83340,5,2,3:0:0:0:
223,355,83507,2,0,P|203:311|207:262,1,99.0000030212403,8|8,3:0|1:0,0:0:0:0:
417,222,83840,6,0,P|391:338|279:297,1,270.000010299683,8|2,3:0|3:3,0:0:0:0:
352,268,84257,1,2,3:3:0:0:
352,268,84340,6,0,P|356:308|340:344,1,58.4999973220826,8|0,1:0|0:0,0:0:0:0:
288,164,84507,2,0,P|292:204|276:240,1,58.4999973220826,2|0,3:0|3:0,0:0:0:0:
224,12,84673,6,0,P|220:60|240:105,1,99.0000030212403,4|8,3:0|3:3,0:0:0:0:
368,160,85007,1,8,1:0:0:0:
180,152,85173,1,8,3:0:0:0:
180,152,85257,1,8,3:0:0:0:
180,152,85340,6,0,P|176:192|192:228,1,49.5000015106202,2|0,3:2|0:0,0:0:0:0:
107,227,85507,6,0,P|113:256|107:285,1,58.4999973220826,6|0,3:0|0:0,0:0:0:0:
188,280,85673,6,0,P|184:320|200:356,1,67.5000025749208,8|0,1:0|0:0,0:0:0:0:
31,307,85840,6,0,P|36:345|22:380,1,76.5000014591217,2|0,3:0|3:2,0:0:0:0:
192,345,86007,5,4,3:2:0:0:
28,228,86173,2,0,P|1:166|12:112,1,99.0000030212403,2|8,3:2|1:0,0:0:0:0:
202,18,86507,6,0,P|108:7|71:94,1,202.500007724762,2|0,3:2|2:0,0:0:0:0:
148,76,86840,6,0,P|136:44|96:24,1,67.5000025749208,6|0,3:2|0:0,0:0:0:0:
128,152,87007,2,0,P|106:178|108:223,1,67.5000025749208,8|0,1:2|0:0,0:0:0:0:
204,132,87173,2,0,P|237:137|275:112,1,67.5000025749208,2|0,1:2|0:0,0:0:0:0:
420,32,87340,6,0,B|367:18|323:65|323:65|346:57|361:66,1,135.000005149842,4|0,1:2|0:0,0:0:0:0:
473,149,87590,2,0,B|512:111|493:49|493:49|489:73|473:81,1,135.000005149842,4|0,1:2|0:0,0:0:0:0:
348,136,87840,2,0,P|371:164|407:172,1,67.5000025749208,4|0,1:2|0:0,0:0:0:0:
477,136,88007,6,0,P|489:102|478:66,1,67.5000025749208,8|0,1:0|0:0,0:0:0:0:
412,28,88173,6,0,P|376:33|351:61,1,67.5000025749208,8|0,1:0|1:0,0:0:0:0:
348,136,88340,6,0,P|371:164|407:172,1,67.5000025749208,0|0,1:0|1:0,0:0:0:0:
412,100,88507,5,0,1:0:0:0:
412,100,88590,1,0,1:0:0:0:
412,99,88673,6,0,P|355:251|448:384,1,337.500012874604,4|0,3:2|0:0,0:0:0:0:
512,336,89173,1,4,0:3:0:0:
400,172,89340,5,2,0:0:0:0:
362,159,89423,1,2,0:0:0:0:
322,162,89507,1,4,0:3:0:0:
288,185,89590,1,0,0:0:0:0:
271,223,89673,5,8,1:0:0:0:
235,266,89757,1,2,0:0:0:0:
184,275,89840,1,2,0:0:0:0:
137,247,89923,1,2,0:0:0:0:
121,196,90007,6,0,L|132:40,1,135.000005149842,4|2,0:3|0:0,0:0:0:0:
236,60,90257,5,2,0:0:0:0:
264,62,90340,2,0,P|222:79|165:78,1,58.4999973220826,8|0,1:0|0:0,0:0:0:0:
32,44,90507,5,4,0:3:0:0:
17,53,90590,1,2,0:0:0:0:
2,63,90673,2,0,P|38:71|88:61,1,49.5000015106202,0|0,0:3|0:0,0:0:0:0:
123,168,90840,5,8,3:3:0:0:
122,183,90923,1,10,3:0:0:0:
121,196,91007,2,0,L|125:139,1,49.5000015106202,8|0,1:0|2:0,0:0:0:0:
133,11,91173,2,0,L|129:68,1,49.5000015106202,2|0,3:0|2:0,0:0:0:0:
116,284,91340,6,0,L|184:284,1,49.5000015106202,2|0,3:2|0:0,0:0:0:0:
256,236,91507,1,2,3:0:0:0:
256,280,91590,1,2,3:0:0:0:
256,324,91673,1,8,1:0:0:0:
346,284,91840,2,0,L|396:284,1,49.5000015106202,2|0,3:0|0:0,0:0:0:0:
256,236,92007,5,2,3:0:0:0:
256,280,92090,1,2,3:0:0:0:
256,324,92173,1,4,3:3:0:0:
165,284,92340,6,0,L|116:284,1,49.5000015106202,8|0,1:0|0:0,0:0:0:0:
396,284,92507,2,0,L|346:284,1,49.5000015106202,2|0,3:2|0:0,0:0:0:0:
192,148,92673,5,2,3:2:0:0:
230,161,92757,1,2,3:2:0:0:
270,158,92840,1,4,2:3:0:0:
304,135,92923,1,2,2:2:0:0:
321,97,93007,5,8,1:0:0:0:
357,54,93090,1,2,3:0:0:0:
408,45,93173,1,2,3:0:0:0:
455,73,93257,1,2,3:0:0:0:
471,124,93340,6,0,L|468:276,1,135.000005149842,0|0,1:0|1:3,0:0:0:0:
396,284,93590,5,0,0:0:0:0:
396,284,93673,2,0,L|396:211,1,49.5000015106202,8|0,1:0|0:0,0:0:0:0:
169,125,93840,1,2,0:0:0:0:
169,125,93923,1,2,0:0:0:0:
169,125,94007,6,0,L|303:134,1,135.000005149842,0|2,1:2|0:0,0:0:0:0:
305,240,94257,5,2,0:0:0:0:
303,268,94340,2,0,P|286:226|287:169,1,58.4999973220826,8|0,1:2|0:0,0:0:0:0:
321,36,94507,5,2,2:0:0:0:
312,21,94590,1,2,0:0:0:0:
302,6,94673,2,0,P|294:42|304:92,1,49.5000015106202,0|0,0:0|0:0,0:0:0:0:
197,127,94840,5,4,0:3:0:0:
182,126,94923,1,4,0:3:0:0:
169,125,95007,2,0,L|226:129,1,49.5000015106202,8|0,1:0|2:0,0:0:0:0:
354,137,95173,2,0,L|297:133,1,49.5000015106202,2|0,2:2|2:0,0:0:0:0:
80,120,95340,5,4,2:3:0:0:
116,220,95507,5,2,2:0:0:0:
115,230,95590,1,2,2:0:0:0:
114,239,95673,2,0,L|116:198,1,40.4999987640381,8|2,1:0|0:0,0:0:0:0:
176,324,95840,5,2,2:0:0:0:
176,331,95923,1,2,2:0:0:0:
177,338,96007,2,0,L|174:306,1,31.4999990386963,2|0,0:0|2:0,0:0:0:0:
166,93,96173,6,0,L|168:124,1,31.4999990386963,4|0,0:3|2:0,0:0:0:0:
244,104,96340,2,0,L|246:135,1,31.4999990386963,8|0,1:0|2:0,0:0:0:0:
320,116,96507,1,0,1:0:0:0:
320,116,96590,1,0,1:0:0:0:
320,116,96673,5,4,0:0:0:0:
356,328,96840,2,0,P|340:268|356:168,1,135.000005149842,2|8,0:0|1:0,0:0:0:0:
460,4,97173,2,0,P|472:88|396:224,1,202.500007724762,2|0,0:0|0:0,0:0:0:0:
346,196,97507,1,4,0:3:0:0:
256,3,97673,2,0,P|240:63|256:163,1,135.000005149842,8|2,1:0|1:2,0:0:0:0:
445,276,98007,5,0,1:2:0:0:
445,276,98090,2,0,P|457:310|446:346,1,67.5000025749208,2|0,0:0|1:2,0:0:0:0:
380,384,98257,5,2,0:0:0:0:
380,384,98340,2,0,P|344:379|319:351,1,67.5000025749208,2|2,1:2|0:2,0:0:0:0:
315,276,98507,6,0,P|336:249|368:239,1,67.5000025749208,2|0,0:2|2:0,0:0:0:0:
421,140,98673,5,0,1:2:0:0:
421,140,98757,1,2,1:2:0:0:
421,140,98840,2,0,P|425:171|429:228,1,53.9999983520508,0|0,1:0|1:0,0:0:0:0:
341,144,99007,6,0,P|317:165|268:194,1,62.9999980773926,0|0,1:0|1:0,0:0:0:0:
275,88,99173,6,0,P|244:78|194:50,1,72,0|0,1:0|1:0,0:0:0:0:
295,0,99340,6,0,L|368:12,1,58.4999973220826,4|2,0:0|0:0,0:0:0:0:
421,140,99507,2,0,L|481:96,1,58.4999973220826,2|2,0:0|0:0,0:0:0:0:
275,88,99673,6,0,L|140:112,1,135.000005149842,8|2,1:0|0:0,0:0:0:0:
291,182,100007,1,4,0:3:0:0:
291,182,100090,1,2,0:0:0:0:
291,182,100173,1,4,0:3:0:0:
208,20,100340,6,0,L|150:29,1,58.4999973220826,8|2,1:0|0:0,0:0:0:0:
68,176,100507,2,0,L|20:141,1,58.4999973220826,2|2,0:0|0:0,0:0:0:0:
158,158,100673,6,0,L|290:181,1,135.000005149842,4|2,0:3|0:0,0:0:0:0:
68,176,101007,1,8,1:0:0:0:
68,176,101090,1,2,0:0:0:0:
68,176,101173,1,4,0:3:0:0:
179,298,101340,6,0,P|190:271|191:242,1,58.4999973220826,2|0,2:2|0:0,0:0:0:0:
127,109,101507,6,0,P|147:130|157:157,1,58.4999973220826,4|0,0:3|0:0,0:0:0:0:
54,282,101673,6,0,P|81:271|102:251,1,58.4999973220826,8|0,1:0|0:0,0:0:0:0:
116,24,101840,6,0,P|145:24|171:36,1,58.4999973220826,2|0,0:0|0:0,0:0:0:0:
290,181,102007,5,4,2:3:0:0:
356,76,102173,5,2,2:0:0:0:
380,76,102257,1,2,2:0:0:0:
404,76,102340,2,0,P|362:93|305:92,1,58.4999973220826,8|0,1:2|0:0,0:0:0:0:
187,138,102507,5,2,2:0:0:0:
172,147,102590,1,2,2:0:0:0:
157,157,102673,2,0,P|193:165|243:155,1,49.5000015106202,2|0,0:0|0:0,0:0:0:0:
290,181,102840,5,4,0:3:0:0:
289,196,102923,1,2,2:0:0:0:
288,209,103007,2,0,L|292:152,1,49.5000015106202,8|0,1:0|2:0,0:0:0:0:
264,28,103173,2,0,L|260:85,1,49.5000015106202,4|2,0:3|0:0,0:0:0:0:
192,241,103340,5,0,0:3:0:0:
204,237,103423,1,0,0:0:0:0:
216,233,103507,1,4,0:3:0:0:
228,229,103590,1,2,0:0:0:0:
240,225,103673,1,8,1:1:0:0:
252,221,103757,1,0,0:0:0:0:
264,217,103840,1,2,0:0:0:0:
276,213,103923,1,2,0:0:0:0:
288,209,104007,5,2,0:0:0:0:
304,245,104090,1,2,0:0:0:0:
300,285,104173,1,4,0:3:0:0:
276,317,104257,1,2,0:0:0:0:
240,333,104340,1,10,1:2:0:0:
200,329,104423,1,2,1:2:0:0:
168,301,104507,1,8,1:0:0:0:
156,261,104590,1,8,1:0:0:0:
168,220,104673,6,0,P|137:163|138:128,1,90,4|2,1:2|2:0,0:0:0:0:
152,116,104923,1,2,2:0:0:0:
152,116,105007,2,0,P|163:56|158:28,1,90,8|0,1:0|0:0,0:0:0:0:
28,64,105340,1,8,1:0:0:0:
152,116,105507,1,2,0:0:0:0:
44,168,105673,1,0,1:0:0:0:
168,220,105840,1,2,0:0:0:0:
288,160,106007,6,0,P|345:129|380:130,1,90,4|2,1:2|0:0,0:0:0:0:
392,144,106257,1,2,0:0:0:0:
392,144,106341,2,0,P|451:155|479:150,1,90,8|0,1:0|0:0,0:0:0:0:
444,20,106674,1,8,1:0:0:0:
392,144,106841,1,2,0:0:0:0:
340,36,107007,1,8,1:0:0:0:
288,160,107174,1,2,0:0:0:0:
116,64,107340,5,12,1:2:0:0:
204,44,107507,1,2,1:2:0:0:
204,44,107590,1,2,0:2:0:0:
204,44,107673,2,0,P|204:71|196:108,1,45,0|0,1:0|0:0,0:0:0:0:
140,148,107840,1,0,1:0:0:0:
304,244,108007,1,2,1:2:0:0:
304,244,108090,1,2,0:2:0:0:
304,244,108173,2,0,P|276:244|240:236,1,45,0|0,1:0|0:0,0:0:0:0:
180,224,108340,1,0,1:0:0:0:
288,160,108507,1,2,1:2:0:0:
400,276,108673,5,4,1:2:0:0:
388,272,108756,1,0,2:0:0:0:
376,268,108839,1,0,2:2:0:0:
364,264,108923,1,0,2:0:0:0:
352,260,109006,1,0,2:2:0:0:
340,256,109089,1,0,2:2:0:0:
328,252,109173,1,0,2:2:0:0:
316,248,109256,1,0,2:0:0:0:
304,244,109339,5,2,2:2:0:0:
288,280,109423,1,2,2:2:0:0:
292,320,109506,1,2,2:2:0:0:
316,352,109589,1,2,2:2:0:0:
352,368,109673,1,2,1:2:0:0:
392,364,109756,1,2,1:2:0:0:
424,336,109839,1,2,1:2:0:0:
436,296,109923,1,2,1:2:0:0:
428,256,110007,5,4,1:2:0:0:
256,192,110090,12,2,115173,0:2:0:0:
