osu file format v14

[General]
AudioFilename: 8.mp3
AudioLeadIn: 0
PreviewTime: 67257
Countdown: 0
SampleSet: Soft
StackLeniency: 0.3
Mode: 0
LetterboxInBreaks: 0
WidescreenStoryboard: 0

[Editor]
DistanceSpacing: 0.7
BeatDivisor: 4
GridSize: 8
TimelineZoom: 2.4

[Metadata]
Title:Oriental Blossom
TitleUnicode:Oriental Blossom
Artist:Eisyo-kobu
ArtistUnicode:影翔鼓舞
Creator:Crystal
Version:hm's Insane
Source:SOUND VOLTEX III GRAVITY WARS
Tags:Newspaper Cup #3 3rd third sdvx 影虎。Kagetora. saka=ichi The 4th KACオリジナル楽曲コンテスト Original Song Contest konami arcade championship fourth Evil_Twilight 384059043 Pata-Mon Sadism-Bread Gaia Doj EmingK yf_bmp handsome muscle z1085684963 Karen Kashima Vert 23konG Ellyu pw384
BeatmapID:1242788
BeatmapSetID:586889

[Difficulty]
HPDrainRate:7
CircleSize:4
OverallDifficulty:8
ApproachRate:9
SliderMultiplier:1.6
SliderTickRate:1

[Events]
//Background and Video events
0,0,"oriental.jpg",0,0
//Break Periods
2,54207,58020
//Storyboard Layer 0 (Background)
//Storyboard Layer 1 (Fail)
//Storyboard Layer 2 (Pass)
//Storyboard Layer 3 (Foreground)
//Storyboard Sound Samples

[TimingPoints]
674,333.333333333333,4,2,0,80,1,0
674,-166.666666666667,4,2,0,80,0,0
9007,-142.857142857143,4,2,0,80,0,0
9340,-125,4,2,0,80,0,0
9673,-111.111111111111,4,2,0,80,0,0
10007,-100,4,2,0,80,0,0
10840,-100,4,1,21,80,0,0
11007,-76.9230769230769,4,1,21,80,0,0
11340,-90.9090909090909,4,2,24,80,0,0
37007,-90.9090909090909,4,2,25,80,0,0
38007,-90.9090909090909,4,2,24,80,0,0
47673,-90.9090909090909,4,2,25,80,0,0
48673,-90.9090909090909,4,2,24,80,0,0
59340,-166.666666666667,4,2,24,80,0,0
60007,-142.857142857143,4,2,24,80,0,0
60673,-125,4,2,24,80,0,0
61340,-111.111111111111,4,2,24,80,0,0
62007,-100,4,2,24,80,0,0
62673,-90.9090909090909,4,2,24,80,0,0
63340,-83.3333333333333,4,2,24,80,0,0
64673,-83.3333333333333,4,2,22,40,0,0
66007,-83.3333333333333,4,2,24,40,0,0
66173,-83.3333333333333,4,2,24,45,0,0
66340,-83.3333333333333,4,2,24,50,0,0
66507,-83.3333333333333,4,2,24,55,0,0
66673,-83.3333333333333,4,2,24,60,0,0
66840,-83.3333333333333,4,2,24,65,0,0
67007,-83.3333333333333,4,2,24,70,0,0
67173,-83.3333333333333,4,2,24,75,0,0
67340,-83.3333333333333,4,2,24,80,0,0
88673,-83.3333333333333,4,2,24,80,0,1
110007,-83.3333333333333,4,2,24,80,0,0

[Colours]
Combo1 : 32,162,223
Combo2 : 116,237,186
Combo3 : 205,208,66
Combo4 : 243,54,83

[HitObjects]
236,266,674,6,0,B|182:293|136:263|136:263|96:276|96:276|52:263,1,191.999994140625,6|0,0:0|0:0,0:0:0:0:
188,192,1673,2,0,L|193:125,1,47.9999985351563,2|0,0:0|0:0,0:0:0:0:
176,122,1923,1,0,0:0:0:0:
176,122,2007,6,0,L|284:113,1,95.9999970703126,0|0,0:0|0:0,0:0:0:0:
386,294,2673,2,0,L|321:287,1,47.9999985351563,2|0,0:0|0:0,0:0:0:0:
248,307,3007,2,0,P|244:274|249:246,1,47.9999985351563,8|0,0:0|0:0,0:0:0:0:
346,172,3340,6,0,P|356:138|244:53,1,191.999994140625,6|0,0:0|0:0,0:0:0:0:
76,144,4340,2,0,L|274:133,1,191.999994140625,2|0,0:0|0:0,0:0:0:0:
472,225,5340,2,0,L|368:211,1,95.9999970703126,2|8,0:0|0:0,0:0:0:0:
107,272,6007,5,6,0:0:0:0:
112,109,6340,1,0,0:0:0:0:
218,239,6673,2,0,P|255:252|299:243,1,71.9999978027344,8|0,0:0|0:0,0:0:0:0:
302,241,7007,1,2,0:0:0:0:
405,112,7340,5,2,0:0:0:0:
400,275,7673,1,0,0:0:0:0:
294,149,8006,2,0,P|257:132|218:138,1,71.9999978027344,8|0,0:0|0:0,0:0:0:0:
210,143,8340,1,2,0:0:0:0:
248,311,8673,6,0,L|248:247,1,47.9999985351563,2|0,0:0|0:0,0:0:0:0:
111,251,9007,2,0,L|118:183,1,55.9999982910157,2|0,0:0|0:0,0:0:0:0:
323,216,9340,2,0,L|318:138,1,64,8|0,0:0|0:0,0:0:0:0:
81,117,9673,2,0,L|93:32,1,71.9999978027344,2|0,0:0|0:0,0:0:0:0:
269,37,10007,5,2,0:0:0:0:
214,205,10173,1,0,0:0:0:0:
268,42,10340,1,0,0:0:0:0:
371,186,10507,1,0,0:0:0:0:
372,192,10840,5,8,0:0:0:0:
151,135,11007,2,0,P|141:224|171:289,1,155.999992858887,2|0,0:0|0:0,0:0:0:0:
191,302,11340,6,0,P|243:294|289:298,1,88.000002685547,4|0,0:0|0:0,0:0:0:0:
397,348,11673,1,8,0:0:0:0:
379,222,11840,1,0,0:0:0:0:
379,222,11923,1,0,0:0:0:0:
379,222,12007,2,0,P|371:169|379:123,1,88.000002685547,0|6,0:0|0:0,0:0:0:0:
434,39,12340,2,0,P|386:85|307:76,1,132.00000402832,8|0,0:0|0:0,0:0:0:0:
295,65,12673,6,0,B|250:52|250:52|191:65,1,88.000002685547,4|0,0:0|0:0,0:0:0:0:
167,187,13007,1,8,0:0:0:0:
249,133,13173,1,2,0:0:0:0:
112,106,13340,2,0,P|74:158|125:274,1,176.000005371094,0|8,0:0|0:0,0:0:0:0:
248,244,13840,1,0,0:0:0:0:
337,142,14007,6,0,L|161:188,1,176.000005371094,4|8,0:0|0:0,0:0:0:0:
322,299,14507,1,0,0:0:0:0:
418,199,14674,2,0,L|242:245,1,176.000005371094,0|8,0:0|0:0,0:0:0:0:
392,355,15173,1,0,0:0:0:0:
490,256,15340,6,0,L|382:286,1,88.000002685547,4|0,0:0|0:0,0:0:0:0:
247,243,15673,2,0,L|139:213,1,88.000002685547,8|0,0:0|0:0,0:0:0:0:
316,188,16007,2,0,P|336:234|277:331,1,132.00000402832
297,338,16340,2,0,L|189:308,1,88.000002685547,10|0,0:0|0:0,0:0:0:0:
97,192,16673,6,0,P|64:238|79:314,1,132.00000402832,4|0,0:0|0:0,0:0:0:0:
91,325,17007,1,8,0:0:0:0:
148,262,17173,1,0,0:0:0:0:
172,164,17340,2,0,L|167:69,1,88.000002685547,0|6,0:0|0:0,0:0:0:0:
297,25,17673,2,0,L|292:112,1,88.000002685547,8|0,0:0|0:0,0:0:0:0:
270,230,18007,6,0,P|328:274|419:230,2,176.000005371094,4|8|0,0:0|0:0|0:0,0:0:0:0:
359,78,19007,1,8,0:0:0:0:
344,189,19173,1,8,0:0:0:0:
283,49,19340,6,0,P|352:-5|432:43,1,176.000005371094,4|8,0:0|0:0,0:0:0:0:
344,189,19840,1,0,0:0:0:0:
211,124,20007,2,0,P|186:91|191:31,1,88.000002685547,8|6,0:0|0:0,0:0:0:0:
204,228,20340,2,0,P|151:211|123:169,1,88.000002685547,8|8,0:0|0:0,0:0:0:0:
46,77,20673,5,4,0:0:0:0:
9,184,20840,1,0,0:0:0:0:
88,264,21007,1,8,0:0:0:0:
3,337,21173,1,8,0:0:0:0:
170,320,21340,2,0,P|222:312|282:346,1,88.000002685547,0|6,0:0|0:0,0:0:0:0:
381,358,21673,2,0,B|403:291|403:291|364:198,1,132.00000402832,10|0,0:0|0:0,0:0:0:0:
303,116,22007,6,0,P|291:166|392:231,1,176.000005371094,4|8,0:0|0:0,0:0:0:0:
381,66,22507,1,0,0:0:0:0:
228,38,22673,1,0,0:0:0:0:
202,44,22757,1,0,0:0:0:0:
176,51,22840,1,6,0:0:0:0:
150,58,22923,1,0,0:0:0:0:
124,66,23007,2,0,L|70:55,3,44.0000013427735,8|0|0|0,0:0|0:0|0:0|0:0,0:0:0:0:
35,126,23340,6,0,P|16:175|42:233,1,88.000002685547,4|0,0:0|0:0,0:0:0:0:
66,220,23590,1,0,0:0:0:0:
115,229,23673,2,0,P|133:286|110:328,1,88.000002685547,8|0,0:0|0:0,0:0:0:0:
81,322,23923,1,0,0:0:0:0:
40,339,24007,2,0,L|258:334,1,176.000005371094,0|10,0:0|0:0,0:0:0:0:
220,183,24673,5,4,0:0:0:0:
288,272,24840,1,0,0:0:0:0:
288,272,24923,1,0,0:0:0:0:
288,272,25007,2,0,L|415:260,1,88.000002685547,8|0,0:0|0:0,0:0:0:0:
435,159,25340,2,0,L|371:142,2,44.0000013427735,0|0|6,0:0|0:0|0:0,0:0:0:0:
252,137,25673,1,8,0:0:0:0:
320,34,25840,1,0,0:0:0:0:
152,71,26007,5,0,0:0:0:0:
129,91,26090,1,0,0:0:0:0:
124,121,26173,1,0,0:0:0:0:
136,149,26257,1,0,0:0:0:0:
162,164,26340,2,0,L|109:173,3,44.0000013427735,8|0|0|0,0:0|0:0|0:0|0:0,0:0:0:0:
79,261,26673,2,0,L|178:246,1,88.000002685547,8|14,0:0|0:0,0:0:0:0:
258,183,27007,5,10,0:0:0:0:
272,205,27090,1,0,0:0:0:0:
279,230,27173,1,0,0:0:0:0:
278,256,27257,1,0,0:0:0:0:
271,281,27340,6,0,L|366:280,1,88.000002685547,4|0,0:0|0:0,0:0:0:0:
406,294,27590,1,0,0:0:0:0:
462,309,27673,2,0,P|473:264|447:193,1,88.000002685547,8|0,0:0|0:0,0:0:0:0:
489,188,27923,1,0,0:0:0:0:
512,150,28007,2,0,L|316:137,1,176.000005371094,0|8,0:0|0:0,0:0:0:0:
227,131,28507,1,0,0:0:0:0:
137,203,28673,6,0,P|110:143|113:110,1,88.000002685547,4|0,0:0|0:0,0:0:0:0:
128,71,28923,1,0,0:0:0:0:
153,63,29007,1,8,0:0:0:0:
178,55,29090,1,0,0:0:0:0:
203,47,29173,1,0,0:0:0:0:
228,39,29257,1,0,0:0:0:0:
253,32,29340,2,0,L|441:51,1,176.000005371094,8|10,0:0|0:0,0:0:0:0:
297,296,30007,6,0,L|302:203,1,88.000002685547,4|0,0:0|0:0,0:0:0:0:
192,288,30340,1,8,0:0:0:0:
386,186,30507,2,0,P|345:127|238:145,1,176.000005371094,0|6,0:0|0:0,0:0:0:0:
124,216,31007,2,0,P|181:238|222:218,1,88.000002685547,8|0,0:0|0:0,0:0:0:0:
248,135,31340,6,0,B|255:84|255:84|234:39,1,88.000002685547,4|0,0:0|0:0,0:0:0:0:
168,24,31590,2,0,L|70:32,1,88.000002685547,0|0,0:0|0:0,0:0:0:0:
23,94,31840,2,0,L|83:105,1,44.0000013427735,0|0,0:0|0:0,0:0:0:0:
160,120,32007,2,0,L|158:164,3,44.0000013427735,8|0|6|0,0:0|0:0|0:0|0:0,0:0:0:0:
92,211,32340,1,10,0:0:0:0:
95,237,32423,1,8,0:0:0:0:
99,263,32507,1,10,0:0:0:0:
103,288,32590,1,8,0:0:0:0:
85,318,32673,6,0,P|142:334|192:314,1,88.000002685547,4|0,0:0|0:0,0:0:0:0:
197,303,32923,1,0,0:0:0:0:
197,303,33007,1,8,0:0:0:0:
293,204,33173,2,0,P|279:265|371:341,1,176.000005371094,0|6,0:0|0:0,0:0:0:0:
456,240,33673,2,0,L|368:250,1,88.000002685547,8|0,0:0|0:0,0:0:0:0:
205,193,34007,6,0,L|292:203,1,88.000002685547,4|0,0:0|0:0,0:0:0:0:
338,99,34340,1,8,0:0:0:0:
238,104,34507,1,0,0:0:0:0:
407,30,34673,2,0,B|438:87|438:87|417:153,1,132.00000402832,8|0,0:0|0:0,0:0:0:0:
392,172,35007,2,0,P|369:216|391:256,1,88.000002685547,8|0,0:0|0:0,0:0:0:0:
479,276,35340,6,0,L|313:259,1,132.00000402832,4|0,0:0|0:0,0:0:0:0:
298,197,35673,2,0,P|268:244|289:321,1,132.00000402832,8|0,0:0|0:0,0:0:0:0:
337,367,36007,2,0,P|257:382|211:333,1,132.00000402832
167,272,36340,2,0,B|84:285|84:285|71:321|122:335,1,132.00000402832,8|0,0:0|0:0,0:0:0:0:
8,243,36673,6,0,P|32:184|15:136,1,88.000002685547,4|0,0:0|0:0,0:0:0:0:
31,118,36923,1,0,0:0:0:0:
66,92,37007,2,0,L|186:87,1,88.000002685547,12|6,0:0|0:0,0:0:0:0:
249,46,37340,2,0,P|264:93|246:143,1,88.000002685547,12|6,0:0|0:0,0:0:0:0:
232,165,37590,1,0,0:0:0:0:
196,189,37673,2,0,P|182:232|222:282,1,88.000002685547,12|12,0:0|0:0,0:0:0:0:
325,213,38007,6,0,L|331:307,1,88.000002685547,4|0,0:0|0:0,0:0:0:0:
319,320,38257,1,0,0:0:0:0:
319,320,38340,1,8,0:0:0:0:
406,246,38507,2,0,P|458:235|503:336,1,176.000005371094,0|6,0:0|0:0,0:0:0:0:
491,196,39007,2,0,L|483:108,1,88.000002685547,8|0,0:0|0:0,0:0:0:0:
399,28,39340,5,4,0:0:0:0:
378,143,39507,1,0,0:0:0:0:
373,36,39673,1,8,0:0:0:0:
362,125,39840,1,0,0:0:0:0:
281,90,40007,6,0,L|123:104,1,132.00000402832
149,101,40340,1,8,0:0:0:0:
230,7,40507,1,0,0:0:0:0:
306,190,40673,2,0,L|220:175,1,88.000002685547,4|0,0:0|0:0,0:0:0:0:
119,212,41007,2,0,P|106:155|162:96,1,132.00000402832,8|0,0:0|0:0,0:0:0:0:
149,101,41340,1,0,0:0:0:0:
220,175,41507,1,6,0:0:0:0:
60,142,41673,2,0,L|-52:162,1,88.000002685547,8|8,0:0|0:0,0:0:0:0:
45,264,42007,6,0,L|37:323,3,44.0000013427735,4|0|0|0,0:0|0:0|0:0|0:0,0:0:0:0:
123,295,42340,2,0,L|115:354,3,44.0000013427735,8|0|2|0,0:0|0:0|0:0|0:0,0:0:0:0:
205,276,42673,2,0,L|197:335,3,44.0000013427735,0|0|6|0,0:0|0:0|0:0|0:0,0:0:0:0:
278,312,43007,6,0,L|270:371,1,44.0000013427735,8|8,0:0|0:0,0:0:0:0:
358,284,43173,2,0,L|350:343,1,44.0000013427735,8|8,0:0|0:0,0:0:0:0:
446,291,43340,6,0,B|440:228|440:228|409:197|409:197|400:122,1,176.000005371094,4|8,0:0|0:0,0:0:0:0:
504,147,43840,1,0,0:0:0:0:
438,230,44007,2,0,P|403:240|354:225,1,88.000002685547,8|6,0:0|0:0,0:0:0:0:
332,210,44257,1,0,0:0:0:0:
314,190,44340,2,0,P|294:147|299:98,1,88.000002685547,8|0,0:0|0:0,0:0:0:0:
400,46,44673,6,0,P|341:74|244:8,1,176.000005371094,4|8,0:0|0:0,0:0:0:0:
132,43,45173,1,2,0:0:0:0:
118,151,45340,2,0,B|137:193|137:193|123:274,1,88.000002685547,8|6,0:0|0:0,0:0:0:0:
11,352,45673,2,0,B|-8:310|-8:310|6:229,1,88.000002685547,8|0,0:0|0:0,0:0:0:0:
129,234,46007,6,0,P|52:202|43:115,1,176.000005371094,4|8,0:0|0:0,0:0:0:0:
118,151,46507,1,0,0:0:0:0:
187,286,46673,2,0,P|147:312|107:309,1,88.000002685547,0|6,0:0|0:0,0:0:0:0:
220,155,47007,2,0,P|271:157|307:186,1,88.000002685547,8|0,0:0|0:0,0:0:0:0:
340,313,47340,6,0,B|387:302|387:302|415:248,1,88.000002685547,4|0,0:0|0:0,0:0:0:0:
405,233,47590,1,0,0:0:0:0:
402,197,47673,2,0,L|491:211,1,88.000002685547,12|6,0:0|0:0,0:0:0:0:
452,76,48007,2,0,L|365:89,1,88.000002685547,12|6,0:0|0:0,0:0:0:0:
328,96,48257,1,0,0:0:0:0:
317,61,48340,2,0,B|298:25|298:25|251:14,1,88.000002685547,12|6,0:0|0:0,0:0:0:0:
152,125,48673,6,0,P|195:132|237:118,2,88.000002685547,4|0|8,0:0|0:0|0:0,0:0:0:0:
144,0,49173,2,0,B|162:46|162:46|151:130|151:130|169:181,1,176.000005371094,0|6,0:0|0:0,0:0:0:0:
269,255,49673,2,0,P|229:272|187:261,1,88.000002685547,8|0,0:0|0:0,0:0:0:0:
106,228,50007,6,0,B|185:259|185:259|213:371,1,176.000005371094,4|8,0:0|0:0,0:0:0:0:
109,319,50507,1,2,0:0:0:0:
280,307,50673,2,0,P|329:341|432:293,1,176.000005371094,0|8,0:0|0:0,0:0:0:0:
355,141,51173,1,0,0:0:0:0:
351,248,51340,5,4,0:0:0:0:
245,198,51507,1,0,0:0:0:0:
245,198,51590,1,0,0:0:0:0:
245,198,51673,2,0,P|231:135|242:107,1,88.000002685547,8|0,0:0|0:0,0:0:0:0:
329,49,52007,2,0,L|382:52,2,44.0000013427735,0|0|6,0:0|0:0|0:0,0:0:0:0:
218,20,52340,1,8,0:0:0:0:
330,49,52507,1,0,0:0:0:0:
153,81,52673,6,0,B|120:105|120:105|59:98,1,88.000002685547,4|0,0:0|0:0,0:0:0:0:
18,146,52923,2,0,P|-2:192|13:237,1,88.000002685547,0|0,0:0|0:0,0:0:0:0:
64,271,53173,2,0,L|118:260,1,44.0000013427735,0|0,0:0|0:0,0:0:0:0:
183,269,53340,2,0,L|189:226,3,44.0000013427735,0|0|6|0,0:0|0:0|0:0|0:0,0:0:0:0:
186,352,53673,1,10,0:0:0:0:
212,350,53757,1,8,0:0:0:0:
235,337,53840,1,10,0:0:0:0:
254,318,53923,1,8,0:0:0:0:
263,292,54007,5,4,0:0:0:0:
0,205,59340,6,0,L|8:136,1,47.9999985351563,12|0,0:0|0:0,0:0:0:0:
82,287,59673,2,0,L|76:219,1,47.9999985351563,0|0,0:0|0:0,0:0:0:0:
141,113,60007,6,0,L|146:195,1,55.9999982910157,0|0,0:0|0:0,0:0:0:0:
221,31,60340,2,0,L|213:106,1,55.9999982910157,0|0,0:0|0:0,0:0:0:0:
255,238,60673,6,0,L|264:163,1,64,12|0,0:0|0:0,0:0:0:0:
352,318,61007,2,0,L|343:243,1,64,0|0,0:0|0:0,0:0:0:0:
382,99,61340,6,0,L|394:185,1,71.9999978027344,0|0,0:0|0:0,0:0:0:0:
488,26,61673,2,0,L|477:114,1,71.9999978027344,0|0,0:0|0:0,0:0:0:0:
485,198,62007,5,12,0:0:0:0:
429,275,62173,1,0,0:0:0:0:
333,288,62340,1,2,0:0:0:0:
256,229,62507,1,0,0:0:0:0:
236,125,62673,6,0,L|248:68,1,44.0000013427735,12|0,0:0|0:0,0:0:0:0:
359,147,62840,2,0,L|343:207,1,44.0000013427735,0|0,0:0|0:0,0:0:0:0:
249,125,63007,2,0,L|261:68,1,44.0000013427735,2|0,0:0|0:0,0:0:0:0:
372,147,63174,2,0,L|356:207,1,44.0000013427735,0|0,0:0|0:0,0:0:0:0:
276,274,63340,6,0,L|286:317,6,23.9999992675781,8|0|0|0|0|0|0,0:0|0:0|0:0|0:0|0:0|0:0|0:0,0:0:0:0:
201,251,63673,6,0,L|211:294,6,23.9999992675781,8|0|0|0|0|0|0,0:0|0:0|0:0|0:0|0:0|0:0|0:0,0:0:0:0:
120,225,64007,6,0,L|130:268,6,23.9999992675781,8|0|0|0|0|0|0,0:0|0:0|0:0|0:0|0:0|0:0|0:0,0:0:0:0:
45,202,64340,6,0,L|55:245,6,23.9999992675781,8|0|0|0|0|0|0,0:0|0:0|0:0|0:0|0:0|0:0|0:0,0:0:0:0:
63,116,64673,6,0,L|41:10,1,95.9999970703126,4|0,0:0|0:0,0:0:0:0:
168,147,65007,1,8,0:0:0:0:
145,53,65173,2,0,L|133:-3,4,47.9999985351563,2|0|0|0|2,0:0|0:0|0:0|0:0|0:0,0:0:0:0:
259,121,65673,2,0,L|237:15,1,95.9999970703126,8|0,0:0|0:0,0:0:0:0:
362,12,66007,6,0,P|367:38|360:70,3,47.9999985351563,0|0|0|0,0:0|0:0|0:0|0:0,0:0:0:0:
351,103,66340,2,0,P|346:129|353:161,3,47.9999985351563,0|0|0|0,0:0|0:0|0:0|0:0,0:0:0:0:
377,186,66673,2,0,P|382:212|375:244,3,47.9999985351563,0|0|0|0,0:0|0:0|0:0|0:0,0:0:0:0:
349,270,67007,6,0,P|344:296|351:328,1,47.9999985351563,8|8,0:0|0:0,0:0:0:0:
424,351,67173,2,0,P|426:327|421:303,1,47.9999985351563,8|8,0:0|0:0,0:0:0:0:
271,311,67340,6,0,L|170:318,1,95.9999970703126,4|0,0:0|0:0,0:0:0:0:
51,238,67673,1,8,0:0:0:0:
175,194,67840,1,0,0:0:0:0:
175,194,67923,1,0,0:0:0:0:
175,194,68007,2,0,P|182:142|171:96,1,95.9999970703126,0|6,0:0|0:0,0:0:0:0:
81,83,68340,2,0,B|131:80|131:80|169:101|169:101|231:97,1,143.999995605469,8|0,0:0|0:0,0:0:0:0:
238,65,68673,6,0,P|263:17|303:-1,1,95.9999970703126,4|0,0:0|0:0,0:0:0:0:
424,150,69007,1,8,0:0:0:0:
319,81,69173,1,2,0:0:0:0:
476,66,69340,2,0,P|511:107|473:235,1,191.999994140625,0|8,0:0|0:0,0:0:0:0:
315,196,69840,1,0,0:0:0:0:
219,165,70007,6,0,B|297:113|297:113|406:132,1,191.999994140625,4|8,0:0|0:0,0:0:0:0:
332,275,70507,1,0,0:0:0:0:
236,244,70674,2,0,B|314:192|314:192|423:211,1,191.999994140625,0|8,0:0|0:0,0:0:0:0:
349,355,71173,1,0,0:0:0:0:
250,325,71340,6,0,L|335:272,1,95.9999970703126,4|0,0:0|0:0,0:0:0:0:
471,170,71673,2,0,P|483:215|460:257,1,95.9999970703126,8|2,0:0|0:0,0:0:0:0:
346,141,72007,2,0,B|306:134|306:134|249:146|249:146|197:135,1,143.999995605469,0|0,0:0|0:0,0:0:0:0:
167,111,72340,2,0,P|135:155|155:234,1,95.9999970703126,10|0,0:0|0:0,0:0:0:0:
186,292,72673,6,0,L|342:284,1,143.999995605469,4|0,0:0|0:0,0:0:0:0:
329,284,73007,1,8,0:0:0:0:
225,212,73173,1,0,0:0:0:0:
259,317,73340,2,0,P|289:359|340:365,1,95.9999970703126,8|2,0:0|0:0,0:0:0:0:
402,262,73673,2,0,P|372:220|321:214,1,95.9999970703126,8|0,0:0|0:0,0:0:0:0:
210,112,74007,6,0,L|10:140,2,191.999994140625,4|8|8,0:0|0:0|0:0,0:0:0:0:
414,92,75007,1,8,0:0:0:0:
510,145,75173,1,0,0:0:0:0:
343,134,75340,6,0,P|331:77|452:18,1,191.999994140625,4|8,0:0|0:0,0:0:0:0:
510,145,75840,1,0,0:0:0:0:
387,216,76007,2,0,L|266:204,1,95.9999970703126,0|6,0:0|0:0,0:0:0:0:
417,333,76340,2,0,L|512:323,1,95.9999970703126,8|8,0:0|0:0,0:0:0:0:
510,145,76673,5,4,0:0:0:0:
387,216,76840,1,0,0:0:0:0:
509,243,77007,1,8,0:0:0:0:
439,94,77173,1,0,0:0:0:0:
309,216,77340,2,0,P|366:295|386:294,1,95.9999970703126,8|2,0:0|0:0,0:0:0:0:
510,145,77673,2,0,L|356:154,1,143.999995605469,10|0,0:0|0:0,0:0:0:0:
341,123,78007,6,0,L|220:98,1,95.9999970703126,4|0,0:0|0:0,0:0:0:0:
122,145,78340,1,8,0:0:0:0:
229,229,78507,1,0,0:0:0:0:
229,229,78590,1,0,0:0:0:0:
229,229,78673,2,0,P|236:274|207:319,1,95.9999970703126,0|6,0:0|0:0,0:0:0:0:
8,274,79007,2,0,L|164:262,1,143.999995605469,8|0,0:0|0:0,0:0:0:0:
211,315,79340,6,0,B|257:326|257:326|315:309,1,95.9999970703126,4|0,0:0|0:0,0:0:0:0:
293,135,79673,1,8,0:0:0:0:
257,237,79840,1,2,0:0:0:0:
378,141,80007,2,0,P|359:80|236:71,1,191.999994140625,0|8,0:0|0:0,0:0:0:0:
257,237,80507,1,0,0:0:0:0:
106,181,80673,6,0,L|292:134,1,191.999994140625,4|8,0:0|0:0,0:0:0:0:
221,339,81173,1,0,0:0:0:0:
70,283,81340,2,0,L|257:237,1,191.999994140625,0|8,0:0|0:0,0:0:0:0:
380,206,81840,1,0,0:0:0:0:
478,267,82007,6,0,B|485:295|485:295|467:364,1,95.9999970703126,4|0,0:0|0:0,0:0:0:0:
460,146,82340,2,0,B|453:118|453:118|471:49,1,95.9999970703126,8|2,0:0|0:0,0:0:0:0:
380,206,82673,2,0,B|349:182|349:182|310:66,1,143.999995605469,0|0,0:0|0:0,0:0:0:0:
300,52,83007,2,0,P|237:36|202:54,1,95.9999970703126,10|0,0:0|0:0,0:0:0:0:
128,168,83340,6,0,L|135:288,2,95.9999970703126,4|0|8,0:0|0:0|0:0,0:0:0:0:
59,311,83840,2,0,P|128:351|218:277,1,191.999994140625,0|6,0:0|0:0,0:0:0:0:
281,151,84340,6,0,L|289:272,2,95.9999970703126,8|2|4,0:0|0:0|0:0,0:0:0:0:
212,295,84840,2,0,P|281:335|371:261,1,191.999994140625,0|0,0:0|0:0,0:0:0:0:
434,139,85340,6,0,L|441:260,2,95.9999970703126,0|6|8,0:0|0:0|0:0,0:0:0:0:
365,278,85840,1,2,0:0:0:0:
512,127,86007,6,0,P|487:76|434:57,1,95.9999970703126,4|0,0:0|0:0,0:0:0:0:
324,39,86340,1,8,0:0:0:0:
272,179,86507,2,0,P|352:200|439:125,1,191.999994140625,0|2,0:0|0:0,0:0:0:0:
324,39,87007,2,0,L|221:61,1,95.9999970703126,8|0,0:0|0:0,0:0:0:0:
103,76,87340,6,0,B|89:126|89:126|125:202,1,95.9999970703126,4|0,0:0|0:0,0:0:0:0:
182,175,87590,2,0,P|195:237|165:275,1,95.9999970703126,0|0,0:0|0:0,0:0:0:0:
101,263,87840,2,0,L|45:256,1,47.9999985351563,0|0,0:0|0:0,0:0:0:0:
0,339,88007,2,0,L|62:335,3,47.9999985351563,8|0|2|0,0:0|0:0|0:0|0:0,0:0:0:0:
121,343,88340,1,10,0:0:0:0:
154,346,88423,1,8,0:0:0:0:
187,349,88507,1,10,0:0:0:0:
220,352,88590,1,8,0:0:0:0:
273,371,88673,6,0,P|330:331|304:225,1,191.999994140625,4|8,0:0|0:0,0:0:0:0:
203,122,89173,1,0,0:0:0:0:
316,63,89340,1,0,0:0:0:0:
346,76,89423,1,0,0:0:0:0:
379,75,89507,1,6,0:0:0:0:
406,56,89590,1,0,0:0:0:0:
419,25,89673,2,0,L|475:12,3,47.9999985351563,8|0|8|0,0:0|0:0|0:0|0:0,0:0:0:0:
502,82,90007,6,0,B|515:127|515:127|491:175,1,95.9999970703126,4|0,0:0|0:0,0:0:0:0:
453,189,90257,1,0,0:0:0:0:
414,214,90340,2,0,B|401:259|401:259|425:307,1,95.9999970703126,8|0,0:0|0:0,0:0:0:0:
461,323,90590,1,0,0:0:0:0:
499,348,90673,2,0,L|292:330,1,191.999994140625,0|10,0:0|0:0,0:0:0:0:
89,169,91340,5,4,0:0:0:0:
194,222,91507,1,0,0:0:0:0:
194,222,91590,1,0,0:0:0:0:
194,222,91673,2,0,P|204:168|196:124,1,95.9999970703126,8|0,0:0|0:0,0:0:0:0:
75,61,92007,2,0,P|73:41|73:13,2,47.9999985351563,0|0|6,0:0|0:0|0:0,0:0:0:0:
89,169,92340,1,8,0:0:0:0:
194,222,92507,1,8,0:0:0:0:
276,129,92673,5,4,0:0:0:0:
309,122,92757,1,0,0:0:0:0:
341,130,92840,1,0,0:0:0:0:
366,151,92923,1,0,0:0:0:0:
381,180,93007,2,0,L|377:235,3,47.9999985351563,8|0|0|0,0:0|0:0|0:0|0:0,0:0:0:0:
411,271,93340,1,8,0:0:0:0:
467,155,93507,1,6,0:0:0:0:
511,265,93673,5,10,0:0:0:0:
507,301,93757,1,0,0:0:0:0:
495,332,93840,1,8,0:0:0:0:
470,354,93923,1,0,0:0:0:0:
438,367,94007,6,0,L|330:351,1,95.9999970703126,4|0,0:0|0:0,0:0:0:0:
314,334,94257,1,0,0:0:0:0:
284,317,94340,2,0,L|176:333,1,95.9999970703126,8|0,0:0|0:0,0:0:0:0:
160,348,94590,1,0,0:0:0:0:
130,365,94673,2,0,B|82:280|82:280|102:180,1,191.999994140625,0|8,0:0|0:0,0:0:0:0:
166,263,95173,1,0,0:0:0:0:
26,196,95340,6,0,P|27:158|67:115,1,95.9999970703126,4|0,0:0|0:0,0:0:0:0:
97,108,95590,1,0,0:0:0:0:
129,100,95673,1,8,0:0:0:0:
161,92,95757,1,0,0:0:0:0:
193,84,95840,1,0,0:0:0:0:
225,77,95923,1,0,0:0:0:0:
258,80,96007,2,0,P|336:93|456:117,1,191.999994140625,8|10,0:0|0:0,0:0:0:0:
263,299,96673,5,4,0:0:0:0:
379,278,96840,1,0,0:0:0:0:
224,272,97007,1,8,0:0:0:0:
414,194,97173,2,0,P|463:234|428:354,1,191.999994140625,0|6,0:0|0:0,0:0:0:0:
278,241,97673,1,8,0:0:0:0:
379,278,97840,1,0,0:0:0:0:
278,357,98007,6,0,L|244:302,3,47.9999985351563,4|0|0|0,0:0|0:0|0:0|0:0,0:0:0:0:
199,316,98340,2,0,L|185:252,3,47.9999985351563,8|0|0|0,0:0|0:0|0:0|0:0,0:0:0:0:
140,249,98673,2,0,L|149:185,3,47.9999985351563,0|0|6|0,0:0|0:0|0:0|0:0,0:0:0:0:
111,164,99007,5,10,0:0:0:0:
103,131,99090,1,8,0:0:0:0:
95,98,99173,1,10,0:0:0:0:
87,65,99257,1,8,0:0:0:0:
122,17,99340,6,0,L|250:16,1,95.9999970703126,4|0,0:0|0:0,0:0:0:0:
261,7,99590,1,0,0:0:0:0:
304,32,99673,2,0,P|318:82|295:132,1,95.9999970703126,8|2,0:0|0:0,0:0:0:0:
198,249,100007,2,0,P|183:204|197:158,1,95.9999970703126,8|2,0:0|0:0,0:0:0:0:
326,201,100340,1,10,0:0:0:0:
358,209,100423,1,0,0:0:0:0:
390,217,100507,1,0,0:0:0:0:
422,225,100590,1,0,0:0:0:0:
474,203,100673,6,0,L|480:307,1,95.9999970703126,4|0,0:0|0:0,0:0:0:0:
297,368,101007,2,0,L|302:272,1,95.9999970703126,8|2,0:0|0:0,0:0:0:0:
351,87,101340,1,8,0:0:0:0:
388,259,101507,1,6,0:0:0:0:
256,135,101673,1,10,0:0:0:0:
426,171,101840,1,2,0:0:0:0:
221,224,102007,6,0,P|173:228|126:210,1,95.9999970703126,4|0,0:0|0:0,0:0:0:0:
96,223,102257,1,0,0:0:0:0:
64,235,102340,2,0,B|42:194|42:194|48:134,1,95.9999970703126,8|2,0:0|0:0,0:0:0:0:
41,111,102590,1,0,0:0:0:0:
31,79,102673,2,0,L|128:69,1,95.9999970703126,8|2,0:0|0:0,0:0:0:0:
151,45,102923,1,0,0:0:0:0:
175,21,103007,2,0,L|277:32,1,95.9999970703126,10|0,0:0|0:0,0:0:0:0:
381,28,103340,6,0,L|375:90,3,47.9999985351563,4|0|0|0,0:0|0:0|0:0|0:0,0:0:0:0:
429,102,103673,2,0,L|423:164,3,47.9999985351563,8|0|2|0,0:0|0:0|0:0|0:0,0:0:0:0:
476,174,104007,2,0,L|470:236,3,47.9999985351563,8|0|6|0,0:0|0:0|0:0|0:0,0:0:0:0:
392,233,104340,5,10,0:0:0:0:
404,264,104424,1,8,0:0:0:0:
416,294,104507,1,10,0:0:0:0:
428,324,104590,1,8,0:0:0:0:
384,362,104673,6,0,L|250:335,1,95.9999970703126,4|0,0:0|0:0,0:0:0:0:
256,314,104923,1,0,0:0:0:0:
228,294,105007,2,0,L|122:309,1,95.9999970703126,8|2,0:0|0:0,0:0:0:0:
0,188,105340,1,8,0:0:0:0:
140,216,105507,1,6,0:0:0:0:
239,110,105673,2,0,L|133:125,1,95.9999970703126,10|0,0:0|0:0,0:0:0:0:
32,15,106007,6,0,P|77:47|142:37,1,95.9999970703126,4|0,0:0|0:0,0:0:0:0:
155,25,106257,1,0,0:0:0:0:
196,7,106340,2,0,P|241:10|289:40,1,95.9999970703126,8|2,0:0|0:0,0:0:0:0:
358,168,106673,1,8,0:0:0:0:
390,0,106840,1,6,0:0:0:0:
453,158,107007,2,0,P|445:213|396:256,1,95.9999970703126,10|0,0:0|0:0,0:0:0:0:
244,250,107340,6,0,L|248:303,1,47.9999985351563,4|0,0:0|0:0,0:0:0:0:
196,288,107507,2,0,L|200:341,1,47.9999985351563,0|0,0:0|0:0,0:0:0:0:
145,182,107673,6,0,L|149:129,1,47.9999985351563,8|0,0:0|0:0,0:0:0:0:
97,144,107840,2,0,L|101:91,1,47.9999985351563,2|0,0:0|0:0,0:0:0:0:
0,289,108007,6,0,L|3:336,1,47.9999985351563
48,251,108174,2,0,L|51:298,1,47.9999985351563,4|0,0:0|0:0,0:0:0:0:
191,344,108340,6,0,L|187:296,1,47.9999985351563,8|0,0:0|0:0,0:0:0:0:
239,306,108507,2,0,L|235:258,1,47.9999985351563,2|0,0:0|0:0,0:0:0:0:
268,136,108673,6,0,L|272:83,3,47.9999985351563,4|0|0|0,0:0|0:0|0:0|0:0,0:0:0:0:
348,180,109007,2,0,L|352:127,3,47.9999985351563,12|0|0|0,0:0|0:0|0:0|0:0,0:0:0:0:
428,221,109340,5,4,0:0:0:0:
453,242,109423,1,0,0:0:0:0:
458,275,109507,1,0,0:0:0:0:
452,307,109590,1,0,0:0:0:0:
429,331,109673,1,12,0:0:0:0:
396,341,109757,1,8,0:0:0:0:
363,332,109840,1,8,0:0:0:0:
342,305,109923,1,8,0:0:0:0:
337,271,110007,5,4,0:0:0:0:
