osu file format v14

[General]
AudioFilename: 8.mp3
AudioLeadIn: 0
PreviewTime: 67257
Countdown: 0
SampleSet: Soft
StackLeniency: 0.6
Mode: 0
LetterboxInBreaks: 0
WidescreenStoryboard: 0

[Editor]
Bookmarks: 11340,32673,43340,54007,67340,88673,110007
DistanceSpacing: 1.1
BeatDivisor: 4
GridSize: 32
TimelineZoom: 1.8

[Metadata]
Title:Oriental Blossom
TitleUnicode:Oriental Blossom
Artist:Eisyo-kobu
ArtistUnicode:影翔鼓舞
Creator:Crystal
Version:Pata-Mon's Hyper
Source:SOUND VOLTEX III GRAVITY WARS
Tags:Newspaper Cup #3 3rd third sdvx 影虎。Kagetora. saka=ichi The 4th KACオリジナル楽曲コンテスト Original Song Contest konami arcade championship fourth Evil_Twilight 384059043 Pata-Mon Sadism-Bread Gaia Doj EmingK yf_bmp handsome muscle z1085684963 Karen Kashima Vert 23konG Ellyu pw384
BeatmapID:1245583
BeatmapSetID:586889

[Difficulty]
HPDrainRate:5
CircleSize:3.8
OverallDifficulty:6.5
ApproachRate:8
SliderMultiplier:1.5
SliderTickRate:1

[Events]
//Background and Video events
0,0,"BG-Pata.jpg",0,0
//Break Periods
//Storyboard Layer 0 (Background)
//Storyboard Layer 1 (Fail)
//Storyboard Layer 2 (Pass)
//Storyboard Layer 3 (Foreground)
//Storyboard Sound Samples

[TimingPoints]
674,333.333333333333,4,2,8,60,1,0
674,-125,4,2,8,60,0,0
6007,-125,4,2,9,60,0,0
10007,-125,4,2,0,60,0,0
10840,-125,4,2,8,60,0,0
11340,-100,4,2,8,60,0,0
54007,-100,4,2,2,70,0,0
59340,-100,4,2,9,60,0,0
62007,-100,4,2,8,60,0,0
104673,-100,4,2,9,60,0,0
108673,-100,4,2,8,60,0,0
110007,-100,4,2,0,60,0,0
110090,-100,4,2,0,40,0,0
110673,-100,4,2,0,35,0,0
111340,-100,4,2,0,30,0,0
112007,-100,4,2,0,25,0,0
112673,-100,4,2,0,20,0,0
113340,-100,4,2,0,15,0,0
114007,-100,4,2,0,10,0,0
114673,-100,4,2,0,5,0,0
115173,-100,4,2,0,10,0,0

[Colours]
Combo1 : 191,255,127
Combo2 : 255,128,255
Combo3 : 159,159,255

[HitObjects]
10,76,674,6,0,P|58:41|144:36,1,120,2|0,0:0|0:0,0:0:0:0:
190,56,1173,1,2,0:0:0:0:
109,163,1340,1,8,0:0:0:0:
113,167,1673,1,0,0:0:0:0:
184,134,1840,2,0,P|208:126|265:121,1,60,2|0,0:0|0:0,0:0:0:0:
146,238,2173,1,2,0:0:0:0:
217,205,2340,2,0,P|242:198|285:197,1,60,2|0,0:0|0:0,0:0:0:0:
179,309,2673,2,0,P|246:278|332:278,1,120,8|0,0:0|0:0,0:0:0:0:
391,153,3340,6,0,P|324:122|238:122,1,120,2|0,0:0|0:0,0:0:0:0:
203,134,3840,1,2,0:0:0:0:
298,38,4007,1,8,0:0:0:0:
302,42,4340,1,0,0:0:0:0:
226,59,4507,2,0,L|151:36,1,60,2|0,0:0|0:0,0:0:0:0:
279,117,4840,1,2,0:0:0:0:
203,134,5007,2,0,L|128:111,1,60,2|0,0:0|0:0,0:0:0:0:
256,192,5340,1,8,0:0:0:0:
302,42,5673,1,2,0:0:0:0:
224,40,6007,5,2,0:0:0:0:
154,75,6340,1,2,0:0:0:0:
256,192,6673,1,8,0:0:0:0:
109,138,7007,1,2,0:0:0:0:
102,216,7340,1,2,0:0:0:0:
133,288,7673,1,2,0:0:0:0:
256,192,8007,1,8,0:0:0:0:
194,336,8340,1,2,0:0:0:0:
272,347,8673,6,0,P|323:332|370:299,1,60,2|2,0:0|0:0,0:0:0:0:
387,277,9007,2,0,P|408:226|410:164,1,60,2|2,0:0|0:0,0:0:0:0:
278,137,9340,2,0,P|257:188|255:250,1,60,8|2,0:0|0:0,0:0:0:0:
344,96,9673,2,0,P|335:67|322:40,1,60,2|2,0:0|0:0,0:0:0:0:
192,128,10007,1,2,0:0:0:0:
192,128,10840,1,2,0:0:0:0:
344,96,11007,1,8,0:0:0:0:
348,100,11340,6,0,P|357:144|356:222,1,75,6|0,0:0|0:0,0:0:0:0:
290,220,11673,2,0,P|281:264|282:342,1,75,8|0,0:0|0:0,0:0:0:0:
308,372,12007,1,0,0:0:0:0:
389,384,12173,1,2,0:0:0:0:
441,320,12340,2,0,P|450:276|449:198,1,75,8|0,0:0|0:0,0:0:0:0:
430,166,12673,5,2,0:0:0:0:
434,170,13007,1,8,0:0:0:0:
466,94,13173,1,2,0:0:0:0:
408,35,13340,2,0,P|376:26|305:25,1,75,0|2,0:0|0:0,0:0:0:0:
186,62,13673,1,8,0:0:0:0:
268,72,13840,1,0,0:0:0:0:
300,148,14007,6,0,P|306:185|307:248,1,75,2|0,0:0|0:0,0:0:0:0:
143,202,14340,1,8,0:0:0:0:
225,212,14507,1,0,0:0:0:0:
258,288,14674,2,0,P|264:325|265:388,1,75,0|2,0:0|0:0,0:0:0:0:
94,268,15007,1,8,0:0:0:0:
192,136,15173,1,2,0:0:0:0:
225,212,15340,6,0,P|139:199|116:168,1,75,0|2,0:0|0:0,0:0:0:0:
323,80,15673,2,0,P|409:93|432:124,1,75,8|0,0:0|0:0,0:0:0:0:
274,146,16007,1,2,0:0:0:0:
278,150,16173,1,2,0:0:0:0:
290,4,16340,1,8,0:0:0:0:
323,80,16507,1,0,0:0:0:0:
241,70,16673,6,0,P|203:70|154:79,1,75,2|0,0:0|0:0,0:0:0:0:
79,205,17007,2,0,P|98:172|114:125,1,75,8|0,0:0|0:0,0:0:0:0:
85,59,17340,1,0,0:0:0:0:
4,42,17507,1,2,0:0:0:0:
166,76,17673,1,8,0:0:0:0:
170,80,18007,6,0,P|240:79|343:56,1,150,2|8,0:0|0:0,0:0:0:0:
389,21,18507,1,2,0:0:0:0:
460,63,18673,2,0,P|472:111|471:171,1,75,0|2,0:0|0:0,0:0:0:0:
439,266,19007,1,8,0:0:0:0:
503,214,19174,1,0,0:0:0:0:
370,222,19340,6,0,B|303:207|290:253|221:233,1,150,2|8,0:0|0:0,0:0:0:0:
171,169,19840,1,0,0:0:0:0:
253,156,20007,1,0,0:0:0:0:
141,247,20174,1,2,0:0:0:0:
119,104,20340,1,8,0:0:0:0:
223,234,20507,1,2,0:0:0:0:
89,182,20673,6,0,P|37:117|41:73,1,75,0|2,0:0|0:0,0:0:0:0:
202,104,21007,2,0,P|195:137|171:169,1,75,8|0,0:0|0:0,0:0:0:0:
119,104,21340,1,2,0:0:0:0:
123,108,21507,1,2,0:0:0:0:
199,21,21673,2,0,P|243:9|311:11,1,75,8|0,0:0|0:0,0:0:0:0:
480,66,22007,6,0,P|400:79|309:48,1,150,6|8,0:0|0:0,0:0:0:0:
272,8,22507,1,0,0:0:0:0:
206,56,22673,2,0,L|191:122,3,37.5,0|0|2|0,0:0|0:0|0:0|0:0,0:0:0:0:
218,129,23007,2,0,L|203:195,3,37.5,8|0|0|0,0:0|0:0|0:0|0:0,0:0:0:0:
230,202,23340,5,2,0:0:0:0:
158,243,23507,2,0,L|101:243,2,37.5,0|0|8,0:0|0:0|0:0,0:0:0:0:
230,284,23840,2,0,L|287:284,2,37.5,2|0|0,0:0|0:0|0:0,0:0:0:0:
158,325,24173,1,2,0:0:0:0:
230,202,24340,2,0,P|178:163|105:180,1,75,8|0,0:0|0:0,0:0:0:0:
14,167,24673,5,2,0:0:0:0:
91,136,24840,2,0,L|89:90,2,37.5,0|0|8,0:0|0:0|0:0,0:0:0:0:
170,161,25173,1,0,0:0:0:0:
247,130,25340,2,0,L|245:84,2,37.5,0|0|2,0:0|0:0|0:0,0:0:0:0:
170,161,25673,2,0,L|166:69,1,75,8|2,0:0|0:0,0:0:0:0:
235,212,26007,6,0,L|237:258,3,37.5,0|0|2|0,0:0|0:0|0:0|0:0,0:0:0:0:
215,285,26340,2,0,P|132:288|80:258,1,75,8|0,0:0|0:0,0:0:0:0:
70,248,26673,1,2,0:0:0:0:
74,252,26840,1,2,0:0:0:0:
170,161,27007,2,0,L|168:115,3,37.5,8|0|0|0,0:0|0:0|0:0|0:0,0:0:0:0:
138,95,27340,5,2,0:0:0:0:
204,45,27507,2,0,L|250:43,2,37.5,0|0|8,0:0|0:0|0:0,0:0:0:0:
138,95,27840,2,0,L|92:97,2,37.5
214,127,28173,1,2,0:0:0:0:
65,171,28340,2,0,P|19:81|35:46,1,75,8|0,0:0|0:0,0:0:0:0:
148,177,28673,5,2,0:0:0:0:
102,246,28840,1,0,0:0:0:0:
106,250,28923,1,0,0:0:0:0:
110,254,29007,2,0,L|45:260,3,37.5,8|0|2|0,0:0|0:0|0:0|0:0,0:0:0:0:
31,261,29340,1,0,0:0:0:0:
0,184,29507,1,2,0:0:0:0:
0,338,29673,1,8,0:0:0:0:
4,342,30007,5,6,0:0:0:0:
0,184,30173,1,0,0:0:0:0:
31,261,30340,1,8,0:0:0:0:
31,107,30507,2,0,P|149:73|266:181,1,150,0|2,0:0|0:0,0:0:0:0:
267,186,31007,1,8,0:0:0:0:
126,215,31173,1,2,0:0:0:0:
250,105,31340,6,0,P|328:130|350:186,1,75,12|2,0:0|0:0,0:0:0:0:
344,157,31590,2,0,P|343:217|292:264,1,75,8|2,0:0|0:0,0:0:0:0:
307,258,31840,2,0,P|234:262|188:210,1,75,8|8,0:0|0:0,0:0:0:0:
267,186,32173,2,0,L|194:178,1,37.5,8|8,0:0|0:0,0:0:0:0:
188,177,32340,2,0,L|115:169,1,37.5,2|2,0:0|0:0,0:0:0:0:
109,168,32507,2,0,L|36:160,1,37.5,8|8,0:0|0:0,0:0:0:0:
30,159,32673,6,0,L|30:266,1,75,6|0,0:0|0:0,0:0:0:0:
60,262,32923,1,0,0:0:0:0:
64,266,33007,2,0,L|64:373,1,75,8|0,0:0|0:0,0:0:0:0:
94,369,33257,1,0,0:0:0:0:
98,373,33340,1,0,0:0:0:0:
145,305,33507,1,2,0:0:0:0:
111,198,33673,1,8,0:0:0:0:
115,202,34007,6,0,P|181:199|225:146,1,75,2|0,0:0|0:0,0:0:0:0:
307,154,34340,1,8,0:0:0:0:
337,231,34507,2,0,P|271:228|227:175,1,75,2|0,0:0|0:0,0:0:0:0:
187,196,34840,1,2,0:0:0:0:
307,154,35007,2,0,P|314:100|273:45,1,75,8|0,0:0|0:0,0:0:0:0:
158,112,35340,6,0,L|305:122,1,75,2|0,0:0|0:0,0:0:0:0:
84,75,35673,2,0,P|77:129|118:184,1,75,8|0,0:0|0:0,0:0:0:0:
151,267,36007,2,0,P|158:213|117:158,1,75,0|2,0:0|0:0,0:0:0:0:
82,313,36340,1,8,0:0:0:0:
225,304,36507,1,2,0:0:0:0:
156,350,36673,5,0,0:0:0:0:
294,258,36840,1,2,3:2:0:0:
298,262,36923,1,0,3:0:0:0:
302,266,37007,2,0,L|411:260,1,75,8|0,3:2|3:0,0:0:0:0:
225,304,37340,1,2,3:2:0:0:
220,221,37507,1,2,3:2:0:0:
377,262,37673,1,8,3:2:0:0:
382,345,37840,1,0,3:0:0:0:
447,183,38007,6,0,L|338:177,1,75,2|0,0:0|0:0,0:0:0:0:
333,193,38257,1,0,0:0:0:0:
337,197,38340,2,0,L|228:191,1,75,8|0,0:0|0:0,0:0:0:0:
223,207,38590,1,0,0:0:0:0:
227,211,38673,1,0,0:0:0:0:
276,276,38840,1,2,0:0:0:0:
321,114,39007,1,8,0:0:0:0:
325,118,39340,6,0,L|216:112,1,75,2|0,0:0|0:0,0:0:0:0:
138,187,39673,1,8,0:0:0:0:
221,191,39840,2,0,L|330:197,1,75,2|0,0:0|0:0,0:0:0:0:
378,201,40173,1,2,0:0:0:0:
426,56,40340,2,0,L|420:165,1,75,8|0,0:0|0:0,0:0:0:0:
378,201,40673,6,0,L|373:310,1,75,2|0,0:0|0:0,0:0:0:0:
412,350,41007,1,8,0:0:0:0:
508,60,41340,2,0,L|502:169,1,75,0|2,0:0|0:0,0:0:0:0:
460,205,41673,2,0,L|455:314,1,75,8|2,0:0|0:0,0:0:0:0:
422,131,42007,6,0,L|313:125,1,75,0|2,0:0|0:0,0:0:0:0:
282,178,42340,2,0,L|173:172,1,75,8|0,0:0|0:0,0:0:0:0:
74,260,42673,1,2,0:0:0:0:
146,117,42840,1,2,0:0:0:0:
146,230,43007,2,0,L|117:162,1,37.5,8|8,0:0|0:0,0:0:0:0:
91,184,43173,2,0,L|62:116,1,37.5,8|8,0:0|0:0,0:0:0:0:
64,110,43340,6,0,P|119:39|168:37,1,75,6|0,0:0|0:0,0:0:0:0:
184,44,43673,2,0,P|226:97|214:163,1,75,8|0,0:0|0:0,0:0:0:0:
292,154,44007,2,0,P|331:153|394:138,1,75,0|2,0:0|0:0,0:0:0:0:
399,121,44257,1,0,0:0:0:0:
403,125,44340,2,0,P|442:125|505:141,1,75,8|0,0:0|0:0,0:0:0:0:
429,262,44673,6,0,P|390:262|327:246,1,75,2|0,0:0|0:0,0:0:0:0:
210,256,45007,1,8,0:0:0:0:
282,215,45173,1,2,0:0:0:0:
282,133,45340,2,0,P|269:97|250:65,1,75,0|2,0:0|0:0,0:0:0:0:
282,215,45673,1,8,0:0:0:0:
286,219,46007,6,0,B|219:234|206:188|137:208,2,150,2|8|0,0:0|0:0|0:0,0:0:0:0:
259,140,46840,1,2,0:0:0:0:
169,285,47007,1,8,0:0:0:0:
286,219,47173,1,2,0:0:0:0:
139,208,47340,6,0,P|116:221|94:259,3,37.5,0|0|2|0,0:0|0:0|3:2|3:0,0:0:0:0:
89,265,47673,2,0,P|100:330|146:364,1,75,8|0,3:2|3:0,0:0:0:0:
251,294,48007,1,2,3:2:0:0:
169,285,48173,1,2,3:2:0:0:
293,364,48340,1,8,3:2:0:0:
375,355,48506,1,0,0:0:0:0:
267,222,48673,6,0,P|252:266|254:311,1,75,6|0,0:0|0:0,0:0:0:0:
308,150,49007,1,8,0:0:0:0:
267,78,49173,2,0,P|252:34|254:-11,1,75
308,150,49507,1,2,0:0:0:0:
390,150,49673,2,0,L|516:150,1,75,8|0,0:0|0:0,0:0:0:0:
365,6,50007,6,0,P|350:50|352:95,1,75,2|0,0:0|0:0,0:0:0:0:
349,222,50341,1,8,0:0:0:0:
390,150,50507,1,2,0:0:0:0:
390,294,50673,2,0,P|387:331|374:366,1,75,0|2,0:0|0:0,0:0:0:0:
349,222,51007,1,8,0:0:0:0:
353,226,51340,6,0,L|227:226,1,75,6|0,0:0|0:0,0:0:0:0:
163,291,51673,2,0,P|194:215|61:161,1,150,8|0,0:0|0:0,0:0:0:0:
112,226,52173,1,2,0:0:0:0:
132,84,52340,1,8,0:0:0:0:
0,137,52507,1,2,0:0:0:0:
163,161,52673,6,0,L|269:147,1,75,12|2,0:0|0:0,0:0:0:0:
257,188,52923,2,0,L|363:202,1,75,8|2,0:0|0:0,0:0:0:0:
351,161,53173,2,0,L|457:147,1,75,8|8,0:0|0:0,0:0:0:0:
491,56,53507,2,0,L|483:122,1,37.5,8|8,0:0|0:0,0:0:0:0:
506,129,53673,2,0,L|506:196,1,37.5,2|8,0:0|0:0,0:0:0:0:
486,203,53840,2,0,L|494:269,1,37.5,8|8,0:0|0:0,0:0:0:0:
512,276,54007,5,2,3:2:0:0:
446,324,54507,1,2,3:2:0:0:
380,276,55007,1,2,3:2:0:0:
314,324,55507,1,2,3:2:0:0:
248,276,56007,1,2,3:2:0:0:
248,276,56673,5,2,3:2:0:0:
314,324,57174,1,2,3:2:0:0:
380,276,57673,1,2,3:2:0:0:
355,198,58173,1,2,3:2:0:0:
273,198,58673,1,2,3:2:0:0:
273,198,59340,5,12,0:0:0:0:
355,198,59673,1,8,0:0:0:0:
355,116,60007,1,8,0:0:0:0:
273,116,60340,1,8,0:0:0:0:
191,280,60673,5,12,0:0:0:0:
273,280,61006,1,8,0:0:0:0:
273,198,61340,1,8,0:0:0:0:
191,198,61673,1,8,0:0:0:0:
109,362,62007,5,6,0:0:0:0:
113,366,62173,1,2,0:0:0:0:
191,362,62340,1,2,0:0:0:0:
195,366,62506,1,2,0:0:0:0:
191,280,62674,1,2,0:0:0:0:
195,284,62840,1,2,0:0:0:0:
109,280,63007,1,2,0:0:0:0:
113,284,63173,1,2,0:0:0:0:
277,303,63340,6,0,L|277:265,15,37.5,6|8|8|8|8|8|8|8|8|8|8|8|8|8|8|8,0:0|0:0|0:0|0:0|0:0|0:0|0:0|0:0|0:0|0:0|0:0|0:0|0:0|0:0|0:0|0:0,0:0:0:0:
307,237,64673,6,0,L|307:141,1,75,2|2,0:0|0:0,0:0:0:0:
241,37,65007,2,0,L|241:133,1,75,8|2,0:0|0:0,0:0:0:0:
224,150,65257,2,0,L|224:246,1,75,8|2,0:0|0:0,0:0:0:0:
207,263,65507,1,2,0:0:0:0:
307,162,65673,2,0,L|307:258,1,75,8|2,0:0|0:0,0:0:0:0:
290,275,65923,1,8,0:0:0:0:
294,279,66007,6,0,P|435:238|307:162,1,375,2|0,0:0|0:0,0:0:0:0:
243,215,67007,2,0,L|184:208,1,37.5,8|8,0:0|0:0,0:0:0:0:
165,206,67173,2,0,L|106:199,1,37.5,8|8,0:0|0:0,0:0:0:0:
87,197,67340,6,0,P|64:135|99:73,1,75,6|0,0:0|0:0,0:0:0:0:
106,277,67673,2,0,P|64:327|-7:328,1,75,8|0,0:0|0:0,0:0:0:0:
27,253,68007,1,0,0:0:0:0:
87,197,68173,1,2,0:0:0:0:
185,301,68340,2,0,P|141:373|88:407,1,75,8|0,0:0|0:0,0:0:0:0:
166,221,68673,5,2,0:0:0:0:
170,225,69007,1,8,0:0:0:0:
277,274,69173,1,2,0:0:0:0:
247,197,69340,2,0,L|247:101,1,75,0|2,0:0|0:0,0:0:0:0:
359,287,69673,1,8,0:0:0:0:
277,274,69840,1,0,0:0:0:0:
329,210,70007,6,0,L|329:114,1,75,2|0,0:0|0:0,0:0:0:0:
441,300,70340,1,8,0:0:0:0:
359,287,70507,1,0,0:0:0:0:
411,223,70673,2,0,L|411:127,1,75,0|2,0:0|0:0,0:0:0:0:
389,364,71007,1,8,0:0:0:0:
329,210,71173,1,2,0:0:0:0:
493,236,71340,6,0,L|493:332,1,75,0|2,0:0|0:0,0:0:0:0:
329,210,71673,2,0,L|325:109,1,75,8|0,0:0|0:0,0:0:0:0:
411,223,72007,1,2,0:0:0:0:
415,227,72173,1,2,0:0:0:0:
277,274,72340,1,8,0:0:0:0:
247,197,72507,1,0,0:0:0:0:
359,287,72673,6,0,P|298:354|261:355,1,75,2|0,0:0|0:0,0:0:0:0:
198,250,73007,2,0,P|217:217|247:197,1,75,8|0,0:0|0:0,0:0:0:0:
329,210,73340,1,0,0:0:0:0:
277,274,73507,1,2,0:0:0:0:
299,133,73673,1,8,0:0:0:0:
303,137,74007,6,0,P|254:62|153:90,1,150,2|8,0:0|0:0,0:0:0:0:
220,138,74507,1,0,0:0:0:0:
335,213,74673,2,0,P|374:178|379:106,1,75,0|2,0:0|0:0,0:0:0:0:
220,138,75007,2,0,P|246:197|313:219,1,75,8|0,0:0|0:0,0:0:0:0:
137,139,75340,6,0,P|172:239|310:303,1,150,2|8,0:0|0:0,0:0:0:0:
284,280,75840,1,0,0:0:0:0:
253,203,76007,1,0,0:0:0:0:
233,346,76174,1,2,0:0:0:0:
366,291,76340,1,8,0:0:0:0:
202,269,76507,1,2,0:0:0:0:
315,357,76673,6,0,P|388:371|434:339,1,75,0|2,0:0|0:0,0:0:0:0:
372,216,77007,2,0,L|366:290,1,75,8|0,0:0|0:0,0:0:0:0:
435,163,77340,1,2,0:0:0:0:
439,167,77507,1,2,0:0:0:0:
294,188,77673,2,0,L|288:262,1,75,8|0,0:0|0:0,0:0:0:0:
357,135,78007,6,0,P|259:113|220:225,1,150,6|8,0:0|0:0,0:0:0:0:
178,206,78507,1,0,0:0:0:0:
96,198,78673,2,0,P|64:148|87:72,1,75,0|2,0:0|0:0,0:0:0:0:
178,206,79007,1,8,0:0:0:0:
47,265,79173,1,0,0:0:0:0:
145,131,79340,5,2,0:0:0:0:
149,135,79673,1,8,0:0:0:0:
129,273,79840,1,2,0:0:0:0:
178,206,80007,2,0,P|221:191|283:191,1,75,0|2,0:0|0:0,0:0:0:0:
374,259,80340,1,8,0:0:0:0:
333,188,80507,1,0,0:0:0:0:
292,117,80673,6,0,P|358:110|408:154,1,75,2|0,0:0|0:0,0:0:0:0:
250,188,81007,1,8,0:0:0:0:
209,117,81173,1,0,0:0:0:0:
168,46,81340,2,0,P|234:39|284:83,1,75,0|2,0:0|0:0,0:0:0:0:
126,117,81673,1,8,0:0:0:0:
85,46,81840,1,2,0:0:0:0:
209,117,82007,5,0,0:0:0:0:
167,188,82173,1,2,0:0:0:0:
292,117,82340,2,0,P|332:199|319:234,1,75,8|0,0:0|0:0,0:0:0:0:
209,117,82673,1,2,0:0:0:0:
334,46,82840,1,2,0:0:0:0:
332,178,83007,2,0,P|313:242|250:271,1,75,8|0,0:0|0:0,0:0:0:0:
167,188,83340,5,2,0:0:0:0:
250,188,83507,1,0,0:0:0:0:
208,259,83673,1,8,0:0:0:0:
126,248,83840,2,0,P|140:213|167:188,1,75
250,188,84173,1,2,0:0:0:0:
126,117,84340,1,8,0:0:0:0:
209,117,84507,1,0,0:0:0:0:
73,169,84673,6,0,P|99:138|126:117,1,75,2|0,0:0|0:0,0:0:0:0:
209,117,85007,2,0,P|238:140|262:169,1,75,8|2,0:0|0:0,0:0:0:0:
209,233,85340,1,0,0:0:0:0:
126,233,85507,1,2,0:0:0:0:
167,304,85673,1,8,0:0:0:0:
84,304,85840,1,0,0:0:0:0:
250,304,86007,6,0,L|384:308,1,75,6|0,0:0|0:0,0:0:0:0:
464,220,86340,1,8,0:0:0:0:
424,292,86507,2,0,P|382:219|464:137,1,150,0|2,0:0|0:0,0:0:0:0:
506,61,87007,1,8,0:0:0:0:
464,220,87173,1,2,0:0:0:0:
425,83,87340,6,0,L|323:55,1,75,12|2,0:0|0:0,0:0:0:0:
319,39,87590,2,0,L|401:50,1,75,8|2,0:0|0:0,0:0:0:0:
359,24,87840,2,0,L|257:-4,1,75,8|8,0:0|0:0,0:0:0:0:
206,25,88173,2,0,L|206:67,1,37.5,8|8,0:0|0:0,0:0:0:0:
238,89,88340,2,0,L|238:131,1,37.5,2|8,0:0|0:0,0:0:0:0:
206,153,88507,2,0,L|206:195,1,37.5,8|8,0:0|0:0,0:0:0:0:
238,217,88673,6,0,P|311:242|422:253,1,150,6|8,0:0|0:0,0:0:0:0:
455,212,89173,1,0,0:0:0:0:
455,294,89340,1,0,0:0:0:0:
383,171,89507,1,2,0:0:0:0:
383,335,89673,1,8,0:0:0:0:
387,339,90007,6,0,P|345:336|296:318,1,75,2|0,0:0|0:0,0:0:0:0:
294,216,90340,1,8,0:0:0:0:
244,282,90507,2,0,P|208:292|170:294,1,75,2|0,0:0|0:0,0:0:0:0:
89,278,90840,1,2,0:0:0:0:
143,142,91007,2,0,P|148:195|132:239,1,75,8|0,0:0|0:0,0:0:0:0:
89,79,91340,5,2,0:0:0:0:
170,64,91507,2,0,L|194:-3,2,37.5,0|0|8,0:0|0:0|0:0,0:0:0:0:
224,127,91840,1,0,0:0:0:0:
305,112,92007,2,0,L|329:45,2,37.5,0|0|2,0:0|0:0|0:0,0:0:0:0:
332,253,92340,1,8,0:0:0:0:
278,190,92507,1,2,0:0:0:0:
359,175,92673,6,0,P|388:193|408:220,3,37.5,0|0|2|0,0:0|0:0|0:0|0:0,0:0:0:0:
413,238,93007,2,0,P|410:280|365:329,1,75,8|0,0:0|0:0,0:0:0:0:
332,253,93340,1,2,0:0:0:0:
475,178,93507,1,2,0:0:0:0:
393,308,93673,2,0,P|341:335|284:320,1,75,8|0,0:0|0:0,0:0:0:0:
241,170,94007,6,0,L|315:172,1,75,2|0,0:0|0:0,0:0:0:0:
350,196,94257,1,0,0:0:0:0:
354,200,94340,2,0,L|428:202,1,75,8|0,0:0|0:0,0:0:0:0:
463,226,94590,1,0,0:0:0:0:
467,230,94673,1,0,0:0:0:0:
403,283,94840,1,2,0:0:0:0:
381,120,95007,2,0,L|455:122,1,75,8|0,0:0|0:0,0:0:0:0:
316,172,95340,6,0,L|242:170,1,75,2|0,0:0|0:0,0:0:0:0:
205,149,95590,1,0,0:0:0:0:
209,153,95673,2,0,L|172:152,3,37.5,8|0|2|0,0:0|0:0|0:0|0:0,0:0:0:0:
135,173,96007,1,0,0:0:0:0:
189,235,96173,1,2,0:0:0:0:
192,72,96340,1,8,0:0:0:0:
196,76,96673,6,0,L|270:78,1,75,2|0,0:0|0:0,0:0:0:0:
411,81,97007,1,8,0:0:0:0:
341,124,97173,2,0,P|314:206|414:267,1,150,0|2,0:0|0:0,0:0:0:0:
505,287,97673,1,8,0:0:0:0:
394,187,97840,6,0,L|198:194,1,150,2|2,0:0|0:0,0:0:0:0:
110,248,98340,2,0,L|207:251,1,75,8|0,0:0|0:0,0:0:0:0:
335,336,98673,1,2,0:0:0:0:
244,192,98840,1,2,0:0:0:0:
234,316,99007,2,0,L|281:270,1,37.5,8|8,0:0|0:0,0:0:0:0:
290,261,99173,2,0,L|337:215,1,37.5,8|8,0:0|0:0,0:0:0:0:
346,206,99340,6,0,P|341:155|305:110,1,75,6|0,0:0|0:0,0:0:0:0:
298,107,99590,1,0,0:0:0:0:
302,111,99673,1,8,0:0:0:0:
171,174,99840,2,0,P|176:225|212:270,1,75
219,105,100173,1,2,0:0:0:0:
89,187,100340,2,0,P|96:239|121:288,1,75,8|0,0:0|0:0,0:0:0:0:
273,269,100673,6,0,P|266:217|241:168,1,75,2|0,0:0|0:0,0:0:0:0:
212,324,101007,1,8,0:0:0:0:
342,315,101173,1,2,0:0:0:0:
355,233,101340,2,0,P|345:194|321:140,1,75,0|2,0:0|0:0,0:0:0:0:
187,173,101673,2,0,P|221:187|261:197,1,75,8|0,0:0|0:0,0:0:0:0:
156,96,102007,5,2,0:0:0:0:
74,83,102173,2,0,L|35:115,2,37.5,0|0|8,0:0|0:0|0:0,0:0:0:0:
105,160,102507,2,0,L|66:192,2,37.5
136,237,102840,2,0,L|97:269,2,37.5,2|0|8,0:0|0:0|0:0,0:0:0:0:
276,220,103173,1,2,0:0:0:0:
211,270,103340,6,0,P|214:307|224:343,1,75,0|2,0:0|0:0,0:0:0:0:
276,220,103673,2,0,P|286:183|289:146,1,75,8|0,0:0|0:0,0:0:0:0:
223,2,104007,1,2,0:0:0:0:
361,104,104173,1,2,0:0:0:0:
235,83,104340,2,0,L|299:62,1,37.5,8|8,0:0|0:0,0:0:0:0:
296,38,104507,2,0,L|360:17,1,37.5,8|8,0:0|0:0,0:0:0:0:
371,15,104673,6,0,P|412:17|478:42,1,75,12|0,0:0|0:0,0:0:0:0:
346,178,105007,2,0,P|305:176|239:151,1,75,8|0,0:0|0:0,0:0:0:0:
440,109,105340,2,0,P|438:150|413:216,1,75,8|0,0:0|0:0,0:0:0:0:
277,84,105673,2,0,P|279:43|304:-23,1,75,8|0,0:0|0:0,0:0:0:0:
346,178,106007,6,0,P|305:176|239:151,1,75,12|0,0:0|0:0,0:0:0:0:
119,69,106340,2,0,P|160:71|226:96,1,75,8|0,0:0|0:0,0:0:0:0:
178,237,106673,2,0,P|180:196|205:130,1,75,8|0,0:0|0:0,0:0:0:0:
287,10,107007,2,0,P|285:51|260:117,1,75,8|0,0:0|0:0,0:0:0:0:
119,69,107340,5,12,0:0:0:0:
123,73,107507,1,8,0:0:0:0:
287,10,107673,1,8,0:0:0:0:
291,14,107840,1,8,0:0:0:0:
346,178,108007,1,8,0:0:0:0:
350,182,108174,1,8,0:0:0:0:
178,237,108340,1,8,0:0:0:0:
182,241,108507,1,8,0:0:0:0:
237,128,108673,6,0,L|288:128,3,37.5,12|8|8|8,0:0|0:0|0:0|0:0,0:0:0:0:
305,99,109007,2,0,L|356:99,3,37.5,8|8|8|8,0:0|0:0|0:0|0:0,0:0:0:0:
373,70,109340,2,0,L|424:70,3,37.5,8|8|8|8,0:0|0:0|0:0|0:0,0:0:0:0:
441,41,109673,2,0,L|492:41,3,37.5,8|8|8|8,0:0|0:0|0:0|0:0,0:0:0:0:
509,12,110007,5,6,0:0:0:0:
256,192,110090,12,2,115173,0:0:0:0:
