osu file format v14

[General]
AudioFilename: 8.mp3
AudioLeadIn: 0
PreviewTime: 67257
Countdown: 0
SampleSet: Soft
StackLeniency: 0.7
Mode: 0
LetterboxInBreaks: 0
WidescreenStoryboard: 0

[Editor]
Bookmarks: 59340
DistanceSpacing: 1.11
BeatDivisor: 4
GridSize: 32
TimelineZoom: 2.999999

[Metadata]
Title:Oriental Blossom
TitleUnicode:Oriental Blossom
Artist:Eisyo-kobu
ArtistUnicode:影翔鼓舞
Creator:Crystal
Version:Karen & Kashima's Insane
Source:SOUND VOLTEX III GRAVITY WARS
Tags:Newspaper Cup #3 3rd third sdvx 影虎。Kagetora. saka=ichi The 4th KACオリジナル楽曲コンテスト Original Song Contest konami arcade championship fourth Evil_Twilight 384059043 Pata-Mon Sadism-Bread Gaia Doj EmingK yf_bmp handsome muscle z1085684963 Karen Kashima Vert 23konG Ellyu pw384
BeatmapID:1242789
BeatmapSetID:586889

[Difficulty]
HPDrainRate:5.5
CircleSize:3.8
OverallDifficulty:7.4
ApproachRate:9
SliderMultiplier:1.8
SliderTickRate:1

[Events]
//Background and Video events
0,0,"ka.jpg",0,0
//Break Periods
//Storyboard Layer 0 (Background)
//Storyboard Layer 1 (Fail)
//Storyboard Layer 2 (Pass)
//Storyboard Layer 3 (Foreground)
//Storyboard Sound Samples

[TimingPoints]
674,333.333333333333,4,2,31,50,1,0
674,-200,4,2,31,50,0,0
6007,-133.333333333333,4,2,31,60,0,0
6173,-133.333333333333,4,2,31,5,0,0
6340,-133.333333333333,4,2,31,60,0,0
6507,-133.333333333333,4,2,31,5,0,0
6673,-100,4,2,31,60,0,0
7006,-133.333333333333,4,2,31,60,0,0
7340,-117.647058823529,4,2,31,60,0,0
7507,-117.647058823529,4,2,31,5,0,0
7673,-117.647058823529,4,2,31,60,0,0
7840,-117.647058823529,4,2,31,5,0,0
8007,-88.4955752212389,4,2,31,60,0,0
8173,-88.4955752212389,4,2,31,5,0,0
8340,-117.647058823529,4,2,31,60,0,0
8673,-100,4,2,31,70,0,0
10007,-133.333333333333,4,2,31,70,0,0
11257,-133.333333333333,4,2,31,5,0,0
11340,-125,4,2,31,75,0,0
22007,-100,4,2,31,80,0,1
26757,-100,4,2,31,5,0,1
26840,-100,4,2,31,80,0,1
32673,-125,4,2,31,75,0,0
35340,-100,4,2,31,75,0,0
35423,-100,4,2,31,5,0,0
35673,-100,4,2,31,75,0,0
35757,-100,4,2,31,5,0,0
36007,-100,4,2,31,75,0,0
36090,-100,4,2,31,5,0,0
36173,-100,4,2,31,75,0,0
36257,-100,4,2,31,5,0,0
36340,-100,4,2,31,75,0,0
36423,-100,4,2,31,5,0,0
36507,-100,4,2,31,75,0,0
36590,-100,4,2,31,5,0,0
36673,-100,4,2,31,75,0,0
37423,-100,4,2,31,5,0,0
37507,-100,4,2,31,75,0,0
37590,-100,4,2,31,5,0,0
37673,-100,4,2,31,75,0,0
37757,-100,4,2,31,5,0,0
37840,-100,4,2,31,75,0,0
37923,-100,4,2,31,5,0,0
38007,-100,4,2,31,75,0,0
43007,-100,4,2,31,85,0,0
43340,-100,4,2,31,75,0,0
47923,-100,4,2,31,5,0,0
48007,-100,4,2,31,75,0,0
48090,-100,4,2,31,5,0,0
48173,-100,4,2,31,75,0,0
48257,-100,4,2,31,5,0,0
48340,-100,4,2,31,75,0,0
54007,-133.333333333333,4,2,31,75,0,0
59340,-133.333333333333,4,2,31,70,0,0
64673,-133.333333333333,4,3,32,60,0,0
66007,-133.333333333333,4,2,32,50,0,0
66340,-117.647058823529,4,2,32,70,0,0
66673,-105.263157894737,4,2,32,80,0,0
67007,-105.263157894737,4,2,31,85,0,0
67340,-125,4,2,31,75,0,0
88673,-90.9090909090909,4,2,31,80,0,1
104673,-90.9090909090909,4,2,31,85,0,1
107340,-90.9090909090909,4,2,31,90,0,1
108673,-90.9090909090909,4,2,31,70,0,1
109007,-90.9090909090909,4,2,31,80,0,1
109340,-90.9090909090909,4,2,31,90,0,1
110007,-90.9090909090909,4,2,31,50,0,0

[Colours]
Combo1 : 255,119,119
Combo2 : 189,222,255
Combo3 : 113,255,113
Combo4 : 255,255,128

[HitObjects]
56,105,674,6,0,P|98:144|184:131,1,135,0|0,1:0|0:0,0:0:0:0:
235,93,1340,2,0,L|342:86,1,90,8|0,0:1|0:0,0:0:0:0:
380,33,1840,1,0,0:0:0:0:
380,33,1923,1,0,0:0:0:0:
380,33,2007,6,0,P|404:93|371:149,1,135.000005149842,2|0,0:0|0:0,0:0:0:0:
296,190,2673,2,0,P|232:211|162:196,1,135,8|0,0:1|0:0,0:0:0:0:
104,140,3340,2,0,B|84:100|87:51|87:51|75:99|32:128,1,180,0|8,1:0|0:1,0:0:0:0:
61,291,4340,2,0,L|9:282,1,45,0|0,0:0|0:0,0:0:0:0:
61,291,4673,6,0,L|196:280,1,135.000005149842,2|0,0:0|0:0,0:0:0:0:
276,271,5340,2,0,L|337:266,1,45,8|0,0:1|0:0,0:0:0:0:
401,261,5673,2,0,L|466:256,1,45
480,140,6007,6,0,L|470:62,1,67.5000025749208,0|0,1:0|0:0,0:0:0:0:
393,193,6340,2,0,L|401:265,1,67.5000025749208,0|0,1:0|0:0,0:0:0:0:
303,142,6673,6,0,P|265:76|181:108,1,180,8|0,0:0|1:0,0:0:0:0:
150,263,7340,38,0,L|238:254,1,76.5000014591217,2|0,1:2|0:0,0:0:0:0:
379,133,7673,2,0,L|303:141,1,76.5000014591217,0|0,1:0|0:0,0:0:0:0:
226,255,8007,6,0,L|327:245,1,101.700000310364,8|0,0:0|0:0,0:0:0:0:
379,133,8340,1,0,1:0:0:0:
308,63,8673,5,0,1:0:0:0:
228,45,8840,1,0,1:0:0:0:
306,151,9007,5,0,1:0:0:0:
225,168,9174,1,0,1:0:0:0:
351,233,9340,5,8,1:2:0:0:
285,282,9507,1,0,1:0:0:0:
426,282,9673,5,0,1:0:0:0:
387,354,9840,1,0,1:0:0:0:
285,282,10007,6,0,L|272:198,3,67.5000025749208,2|0|0|0,1:2|0:0|0:0|0:0,0:0:0:0:
237,46,10840,2,0,L|251:109,1,33.7500012874604,0|0,1:0|0:0,0:0:0:0:
274,215,11007,1,8,0:0:0:0:
294,314,11340,5,4,1:2:0:0:
178,190,11507,1,0,0:0:0:0:
187,348,11673,1,8,0:0:0:0:
274,215,11840,5,0,0:0:0:0:
274,215,11923,1,0,0:0:0:0:
274,215,12007,1,0,0:0:0:0:
127,278,12173,1,0,1:0:0:0:
344,259,12340,2,0,P|355:212|346:176,1,72,8|0,0:0|0:0,0:0:0:0:
244,93,12673,6,0,L|164:87,1,72,0|0,1:0|0:0,0:0:0:0:
202,209,13007,2,0,L|275:215,1,72,8|0,0:0|1:0,0:0:0:0:
138,162,13340,2,0,P|123:206|136:251,1,72,0|0,1:0|1:0,0:0:0:0:
126,230,13590,1,0,0:0:0:0:
126,230,13673,5,8,0:0:0:0:
210,279,13840,1,0,0:0:0:0:
297,252,14007,2,0,B|381:256,1,72,0|0,1:0|0:0,0:0:0:0:
138,162,14340,5,8,0:0:0:0:
218,194,14507,1,0,0:0:0:0:
368,170,14673,2,0,B|296:165,1,72,0|0,1:0|0:0,0:0:0:0:
144,76,15007,5,8,0:0:0:0:
224,108,15174,1,0,1:0:0:0:
52,167,15340,5,0,0:0:0:0:
138,162,15507,1,0,1:0:0:0:
16,288,15673,5,8,0:0:0:0:
91,247,15840,1,0,0:0:0:0:
142,334,16007,5,0,1:0:0:0:
217,293,16174,1,0,1:0:0:0:
301,312,16340,2,0,L|383:303,1,72,8|0,0:0|1:0,0:0:0:0:
454,200,16673,6,0,B|468:125|468:125|444:38,1,144,0|8,1:0|0:0,0:0:0:0:
310,130,17173,1,0,0:0:0:0:
310,130,17257,1,0,0:0:0:0:
310,130,17340,2,0,L|381:128,1,72,0|0,1:0|0:0,0:0:0:0:
466,271,17673,2,0,L|394:272,1,72,8|0,0:0|0:0,0:0:0:0:
477,117,18007,6,0,L|468:188,1,72,0|0,1:0|0:0,0:0:0:0:
303,286,18340,2,0,L|315:215,1,72,8|0,0:0|0:0,0:0:0:0:
488,45,18673,2,0,L|474:135,1,72,0|0,1:0|0:0,0:0:0:0:
451,249,19007,1,8,0:0:0:0:
381,138,19173,1,0,0:0:0:0:
295,341,19340,6,0,B|338:347|338:347|376:342,1,72
451,249,19673,5,8,0:0:0:0:
336,266,19840,1,0,0:0:0:0:
420,161,20007,5,0,0:0:0:0:
322,129,20174,1,0,1:0:0:0:
485,100,20340,5,8,0:0:0:0:
446,4,20507,1,0,1:0:0:0:
270,58,20673,6,0,P|224:62|179:56,1,72,0|0,0:0|1:0,0:0:0:0:
156,46,20923,1,0,0:0:0:0:
114,31,21007,2,0,P|74:26|42:32,1,72,8|0,0:0|0:0,0:0:0:0:
74,179,21340,6,0,L|81:78,1,72,0|0,1:0|1:0,0:0:0:0:
232,153,21590,1,0,0:0:0:0:
232,153,21673,2,0,L|225:254,1,72,8|0,0:0|1:0,0:0:0:0:
326,92,22007,70,0,B|231:65|231:65|128:92,1,180,6|8,1:2|0:0,0:0:0:0:
86,171,22507,2,0,L|80:244,1,45,0|0,0:0|0:0,0:0:0:0:
16,255,22673,1,0,1:0:0:0:
38,280,22756,1,0,0:0:0:0:
68,293,22839,1,0,1:0:0:0:
102,291,22922,1,0,0:0:0:0:
131,274,23006,1,8,0:0:0:0:
224,283,23173,5,0,0:0:0:0:
255,286,23257,1,0,0:0:0:0:
285,290,23340,2,0,L|380:300,1,90,0|0,1:0|0:0,0:0:0:0:
349,197,23590,1,0,0:0:0:0:
317,194,23673,2,0,L|212:182,1,90,8|0,0:0|1:0,0:0:0:0:
128,124,23923,1,0,0:0:0:0:
128,124,24007,6,0,B|113:172|113:172|118:237,1,90,0|0,0:0|1:0,0:0:0:0:
160,297,24340,1,8,0:0:0:0:
192,181,24507,1,0,0:0:0:0:
286,313,24673,5,0,1:0:0:0:
387,178,24840,1,0,0:0:0:0:
390,209,24923,1,0,0:0:0:0:
395,240,25007,1,8,0:0:0:0:
407,333,25173,5,0,0:0:0:0:
274,223,25340,1,0,1:0:0:0:
271,191,25423,1,0,0:0:0:0:
268,159,25506,1,0,1:0:0:0:
400,244,25673,2,0,B|412:293|412:293|405:347,1,90,8|0,0:0|0:0,0:0:0:0:
293,328,26007,5,0,1:0:0:0:
261,315,26090,1,0,0:0:0:0:
228,311,26173,1,0,0:0:0:0:
195,317,26256,1,0,0:0:0:0:
165,332,26340,1,8,0:0:0:0:
63,218,26507,5,0,0:0:0:0:
93,212,26590,1,0,0:0:0:0:
124,206,26673,1,0,1:0:0:0:
155,201,26757,1,0,0:0:0:0:
186,196,26840,1,0,1:0:0:0:
343,182,27007,5,8,0:0:0:0:
355,150,27090,1,0,0:0:0:0:
357,117,27173,1,0,0:0:0:0:
349,84,27256,1,0,0:0:0:0:
331,56,27340,5,0,1:0:0:0:
197,28,27507,2,0,L|167:31,3,30,0|0|0|8,0:0|0:0|0:0|0:0,0:0:0:0:
240,129,27840,2,0,L|269:124,3,30,0|0|0|0,0:0|0:0|0:0|1:0,0:0:0:0:
218,241,28173,1,0,1:0:0:0:
276,334,28340,2,0,B|327:345|327:345|372:336,1,90,8|0,0:0|0:0,0:0:0:0:
440,211,28673,5,0,0:0:0:0:
442,179,28756,1,0,0:0:0:0:
431,150,28839,1,0,0:0:0:0:
409,128,28922,1,0,0:0:0:0:
380,118,29006,1,8,0:0:0:0:
349,121,29089,1,0,0:0:0:0:
322,137,29172,1,0,0:0:0:0:
304,163,29256,1,0,0:0:0:0:
298,196,29340,2,0,L|291:257,1,45,0|0,1:0|0:0,0:0:0:0:
288,272,29507,2,0,L|281:333,1,45,0|0,1:0|0:0,0:0:0:0:
188,363,29673,2,0,B|202:263,1,90,8|0,0:0|0:0,0:0:0:0:
186,42,30007,5,4,1:2:0:0:
124,114,30173,1,0,0:0:0:0:
154,205,30340,1,8,0:0:0:0:
210,128,30507,2,0,B|256:133|256:133|312:128,1,90
367,40,30840,1,0,1:0:0:0:
387,186,31007,1,8,0:0:0:0:
255,51,31173,1,0,1:0:0:0:
157,277,31340,6,0,P|204:287|250:278,1,90,8|0,0:0|1:0,0:0:0:0:
274,270,31590,2,0,P|321:260|367:269,1,90,8|0,0:0|1:0,0:0:0:0:
392,275,31840,1,8,0:0:0:0:
468,203,32007,5,0,0:0:0:0:
476,174,32090,1,0,0:0:0:0:
477,144,32173,1,8,0:0:0:0:
470,115,32256,1,8,0:0:0:0:
458,85,32340,1,8,0:0:0:0:
431,62,32423,1,8,0:0:0:0:
400,54,32506,1,8,0:0:0:0:
367,57,32589,1,8,0:0:0:0:
338,75,32673,5,14,1:2:0:0:
253,107,32840,1,0,0:0:0:0:
230,108,32923,1,0,0:0:0:0:
208,107,33006,1,8,0:0:0:0:
119,93,33173,1,0,0:0:0:0:
97,92,33256,1,0,0:0:0:0:
75,94,33339,1,0,1:0:0:0:
1,148,33507,1,0,1:0:0:0:
0,170,33590,1,0,0:0:0:0:
2,192,33673,1,8,0:0:0:0:
46,267,33840,1,0,0:0:0:0:
140,242,34007,5,0,1:0:0:0:
228,274,34173,1,0,0:0:0:0:
228,274,34257,1,0,0:0:0:0:
228,274,34340,6,0,L|317:266,1,72,8|0,0:0|0:0,0:0:0:0:
355,144,34673,2,0,B|258:151,1,72,0|0,0:0|1:0,0:0:0:0:
284,150,34923,1,0,1:0:0:0:
284,150,35007,1,8,0:0:0:0:
228,274,35173,1,0,0:0:0:0:
341,234,35340,6,0,L|391:286,3,45,0|0|0|0,1:0|0:0|0:0|0:0,0:0:0:0:
393,243,35673,6,0,L|460:268,3,45,8|0|0|0,0:0|0:0|0:0|0:0,0:0:0:0:
435,227,36007,6,0,L|506:222,3,45,0|0|0|0,1:0|0:0|1:0|0:0,0:0:0:0:
463,197,36340,6,0,L|526:162,3,45,8|0|0|0,0:0|0:0|1:0|0:0,0:0:0:0:
481,152,36673,5,0,0:0:0:0:
429,39,36840,1,0,3:0:0:0:
398,33,36923,1,0,3:0:0:0:
366,39,37007,1,8,3:2:0:0:
274,71,37173,1,0,3:0:0:0:
184,92,37340,6,0,L|132:101,1,45,0|0,3:0|0:0,0:0:0:0:
108,105,37507,2,0,L|64:113,1,45,0|0,3:0|0:0,0:0:0:0:
55,199,37673,6,0,L|99:191,1,45,8|0,3:2|0:0,0:0:0:0:
130,185,37840,2,0,L|174:177,1,45,0|0,3:0|0:0,0:0:0:0:
205,172,38007,5,0,1:0:0:0:
379,126,38174,1,0,0:0:0:0:
379,126,38257,1,0,0:0:0:0:
379,126,38341,1,0,0:0:0:0:
319,236,38507,1,0,0:0:0:0:
319,236,38591,1,0,0:0:0:0:
319,236,38674,1,0,1:0:0:0:
267,92,38840,1,0,1:0:0:0:
267,92,38924,1,0,0:0:0:0:
267,92,39007,1,8,0:0:0:0:
405,190,39173,1,0,0:0:0:0:
400,280,39340,6,0,L|406:186,1,90,0|0,1:0|0:0,0:0:0:0:
373,27,39673,1,8,0:0:0:0:
310,180,39840,1,0,0:0:0:0:
425,99,40007,1,0,1:0:0:0:
274,83,40340,5,8,0:0:0:0:
241,92,40506,1,0,0:0:0:0:
208,97,40673,1,0,1:0:0:0:
174,96,40839,1,0,0:0:0:0:
141,91,41006,1,8,0:0:0:0:
61,28,41340,5,0,1:0:0:0:
44,69,41506,1,0,1:0:0:0:
43,114,41673,1,8,0:0:0:0:
60,155,41839,1,0,1:0:0:0:
87,199,42007,5,0,0:0:0:0:
95,227,42090,1,0,0:0:0:0:
97,257,42173,1,0,0:0:0:0:
92,286,42257,1,0,0:0:0:0:
83,315,42340,2,0,L|28:340,3,45
181,337,42673,5,0,1:0:0:0:
214,348,42756,1,0,0:0:0:0:
249,349,42839,1,0,1:0:0:0:
283,339,42923,1,0,0:0:0:0:
314,320,43007,6,0,L|319:261,1,45,8|8,0:0|0:0,0:0:0:0:
320,229,43173,2,0,L|325:170,1,45,8|8,0:0|0:0,0:0:0:0:
382,120,43340,6,0,B|332:104|332:104|281:110,1,90,4|0,0:0|0:0,0:0:0:0:
205,226,43673,2,0,B|254:242|254:242|305:236,1,90,8|0,0:0|0:0,0:0:0:0:
382,120,44007,22,0,B|384:32|384:32|361:-16,2,120,0|0|0,1:0|0:0|0:0,0:0:0:0:
252,211,44673,22,0,B|238:182|238:182|240:99,1,90,2|0,0:0|0:0,0:0:0:0:
296,21,45007,1,8,0:0:0:0:
317,163,45173,1,0,1:0:0:0:
300,295,45340,2,0,B|258:303|258:303|210:296,1,90,0|0,1:0|1:0,0:0:0:0:
163,213,45673,2,0,B|215:205|215:205|252:211,1,90,8|0,0:0|0:0,0:0:0:0:
419,282,46007,6,0,B|426:236|426:236|420:193,1,90
300,295,46340,2,0,B|292:340|292:340|298:383,1,90,8|0,0:0|0:0,0:0:0:0:
419,192,46673,2,0,B|382:186|382:186|330:194,1,90,0|0,1:0|1:0,0:0:0:0:
419,282,47007,2,0,B|464:288|464:288|508:283,1,90,8|0,0:0|0:0,0:0:0:0:
489,109,47340,5,2,1:2:0:0:
419,192,47507,1,0,3:0:0:0:
419,192,47590,1,0,3:0:0:0:
419,192,47673,1,8,3:2:0:0:
383,83,47840,2,0,L|354:49,1,45,0|0,3:0|0:0,0:0:0:0:
328,29,48007,2,0,L|284:18,1,45,0|0,3:0|0:0,0:0:0:0:
252,18,48173,2,0,L|189:32,1,45,0|0,3:0|0:0,0:0:0:0:
185,46,48340,1,8,3:2:0:0:
176,76,48423,1,0,0:0:0:0:
167,106,48506,1,0,0:0:0:0:
158,136,48590,1,0,0:0:0:0:
149,166,48673,6,0,B|136:221|136:221|149:276,1,90,4|0,1:2|0:0,0:0:0:0:
303,160,49007,1,8,0:0:0:0:
231,227,49173,2,0,B|243:273|243:273|230:337,1,90,0|0,0:0|0:0,0:0:0:0:
57,271,49507,1,0,1:0:0:0:
188,148,49673,2,0,B|233:139|233:139|281:151,1,90,8|0,0:0|0:0,0:0:0:0:
474,246,50007,6,0,B|428:254|428:254|341:238,1,135,2|0,0:0|0:0,0:0:0:0:
310,229,50340,1,8,0:0:0:0:
274,121,50507,1,0,0:0:0:0:
274,121,50590,1,0,0:0:0:0:
274,121,50673,2,0,L|361:138,1,90,0|0,1:0|1:0,0:0:0:0:
310,229,51007,2,0,L|203:210,1,90,8|0,0:0|0:0,0:0:0:0:
61,124,51340,6,0,B|55:80|55:80|67:35,1,90,4|0,1:2|0:0,0:0:0:0:
147,87,51590,1,0,0:0:0:0:
147,87,51673,2,0,B|153:131|153:131|141:176,1,90,8|0,0:0|0:0,0:0:0:0:
55,300,52007,1,0,1:0:0:0:
55,300,52090,1,0,0:0:0:0:
55,300,52173,1,0,1:0:0:0:
61,124,52340,1,8,0:0:0:0:
198,240,52507,1,0,1:0:0:0:
29,206,52673,6,0,P|77:209|116:192,1,90,8|0,0:0|1:0,0:0:0:0:
141,175,52923,2,0,P|182:158|226:161,1,90,8|0,0:0|1:0,0:0:0:0:
257,180,53173,1,8,0:0:0:0:
427,306,53340,5,0,0:0:0:0:
439,277,53423,1,0,0:0:0:0:
440,245,53506,1,8,0:0:0:0:
430,216,53590,1,8,0:0:0:0:
408,176,53673,5,8,0:0:0:0:
395,133,53756,1,8,0:0:0:0:
402,89,53839,1,8,0:0:0:0:
428,52,53923,1,8,0:0:0:0:
464,16,54007,6,0,L|312:33,1,135.000005149842,10|0,1:2|0:0,0:0:0:0:
252,87,54507,1,0,0:0:0:0:
252,87,54673,2,0,P|242:154|285:214,1,135.000005149842
335,134,55173,1,0,0:0:0:0:
252,87,55340,2,0,L|171:94,1,67.5000025749208
102,69,55673,2,0,L|22:76,1,67.5000025749208
0,166,56007,2,0,L|154:152,1,135.000005149842,0|0,0:0|0:0,0:0:0:0:
268,139,56673,101,0,0:0:0:0:
268,139,56840,2,0,L|349:130,1,67.5000025749208
411,125,57173,1,0,0:0:0:0:
391,199,57340,2,0,L|370:298,2,101.250003862381
411,125,58007,5,0,0:0:0:0:
335,131,58173,2,0,L|237:127,1,67.5000025749208
193,141,58507,1,0,0:0:0:0:
176,140,58590,1,0,0:0:0:0:
159,139,58673,1,0,0:0:0:0:
80,161,58840,1,0,0:0:0:0:
47,234,59007,2,0,L|59:313,1,67.5000025749208,0|0,0:0|0:0,0:0:0:0:
191,351,59340,5,14,1:2:0:0:
348,160,59673,1,8,1:2:0:0:
164,160,60007,1,8,1:2:0:0:
321,351,60340,1,8,1:2:0:0:
175,365,60673,5,14,1:2:0:0:
364,134,61006,1,8,1:2:0:0:
142,134,61340,1,8,1:2:0:0:
331,365,61673,1,8,1:2:0:0:
255,54,62007,5,12,1:2:0:0:
184,262,62173,1,8,1:2:0:0:
364,134,62340,1,8,1:2:0:0:
142,134,62507,1,8,1:2:0:0:
319,264,62673,1,8,1:2:0:0:
167,44,62840,1,8,1:2:0:0:
256,192,63007,1,8,1:2:0:0:
345,46,63173,1,8,1:2:0:0:
256,96,63340,5,0,1:0:0:0:
256,112,63423,1,0,1:0:0:0:
256,129,63506,1,0,1:0:0:0:
256,146,63590,1,0,1:0:0:0:
256,163,63673,1,0,1:0:0:0:
256,180,63756,1,0,1:0:0:0:
256,197,63840,1,0,1:0:0:0:
256,214,63923,1,0,1:0:0:0:
255,233,64007,6,0,L|201:218,3,33.7500012874604,8|8|8|8,1:2|1:2|1:2|1:2,0:0:0:0:
131,238,64340,2,0,L|87:266,3,33.7500012874604,8|8|8|8,1:2|1:2|1:2|1:2,0:0:0:0:
30,196,64673,5,8,0:3:0:0:
30,196,64840,1,8,0:3:0:0:
86,350,65007,1,4,0:0:0:0:
169,141,65173,5,4,0:0:0:0:
169,141,65257,1,8,0:0:0:0:
187,322,65423,1,4,0:0:0:0:
187,322,65507,1,8,0:0:0:0:
0,276,65673,2,0,L|82:267,1,67.5000025749208,0|0,0:0|0:0,0:0:0:0:
285,277,66007,6,0,L|285:225,3,33.7500012874604,2|0|0|0,0:0|0:0|0:0|0:0,0:0:0:0:
375,272,66340,2,0,L|375:217,3,38.2500007295609,2|0|0|0,0:0|0:0|0:0|0:0,0:0:0:0:
463,266,66673,2,0,L|463:204,3,42.7499988584519,2|0|0|0,0:0|0:0|0:0|0:0,0:0:0:0:
415,151,67007,5,8,0:0:0:0:
407,126,67090,1,8,0:0:0:0:
411,100,67173,1,8,0:0:0:0:
421,76,67257,1,8,0:0:0:0:
435,60,67340,6,0,P|356:76|277:60,1,144,12|8,0:0|0:0,0:0:0:0:
215,14,67840,1,0,0:0:0:0:
263,162,68007,2,0,L|355:152,1,72,0|0,1:0|1:0,0:0:0:0:
182,109,68340,2,0,L|110:116,1,72,8|0,0:0|0:0,0:0:0:0:
0,223,68673,6,0,P|56:216|125:291,1,144,0|8,1:0|0:0,0:0:0:0:
110,362,69173,1,0,1:0:0:0:
179,199,69340,1,0,1:0:0:0:
32,306,69507,1,0,1:0:0:0:
206,295,69673,2,0,L|285:295,1,72,8|0,0:0|0:0,0:0:0:0:
396,217,70007,6,0,P|373:286|403:361,1,144,0|8,1:0|0:0,0:0:0:0:
493,280,70507,1,0,0:0:0:0:
382,219,70673,6,0,P|359:288|389:363,1,144,0|8,1:0|0:0,0:0:0:0:
479,282,71173,1,0,1:0:0:0:
408,118,71340,5,0,1:0:0:0:
297,170,71507,1,0,1:0:0:0:
181,130,71673,1,8,0:0:0:0:
138,14,71840,1,0,0:0:0:0:
267,71,72007,1,0,1:0:0:0:
81,106,72173,1,0,1:0:0:0:
81,106,72257,1,0,0:0:0:0:
81,106,72340,2,0,L|92:196,1,72,8|0,0:0|1:0,0:0:0:0:
217,207,72673,6,0,L|203:362,1,144,2|8,1:2|0:0,0:0:0:0:
50,277,73173,1,0,0:0:0:0:
50,277,73257,1,0,0:0:0:0:
50,277,73340,2,0,L|139:265,1,72,0|0,1:0|0:0,0:0:0:0:
366,329,73673,2,0,L|287:312,1,72,8|0,0:0|0:0,0:0:0:0:
171,123,74007,6,0,P|168:83|184:41,1,72,0|0,1:0|0:0,0:0:0:0:
331,163,74340,2,0,P|297:185|253:192,1,72,8|0,0:0|1:0,0:0:0:0:
290,8,74673,2,0,P|326:25|354:60,1,72,0|0,1:0|0:0,0:0:0:0:
262,102,75007,1,8,0:0:0:0:
262,102,75173,1,0,0:0:0:0:
328,260,75340,6,0,P|262:233|195:255,1,144,0|8,1:0|0:0,0:0:0:0:
47,147,75840,1,0,0:0:0:0:
77,384,76007,1,0,1:0:0:0:
14,250,76173,1,0,1:0:0:0:
77,384,76340,1,8,0:0:0:0:
108,232,76507,1,0,1:0:0:0:
77,384,76673,6,0,L|159:377,1,72,0|0,1:0|1:0,0:0:0:0:
299,346,77007,2,0,L|381:339,1,72,8|0,0:0|0:0,0:0:0:0:
439,151,77340,1,0,1:0:0:0:
328,254,77507,1,0,1:0:0:0:
462,376,77673,1,8,0:0:0:0:
462,376,77840,1,0,1:0:0:0:
346,156,78007,6,0,B|340:47|340:47|370:73,1,144,6|8,1:2|0:0,0:0:0:0:
495,235,78507,1,0,0:0:0:0:
345,302,78673,2,0,L|431:287,1,72,0|0,1:0|1:0,0:0:0:0:
509,138,79007,2,0,L|438:150,1,72,8|0,0:0|0:0,0:0:0:0:
253,191,79340,6,0,P|262:115|211:52,1,144,0|8,1:0|0:0,0:0:0:0:
99,156,79840,1,0,1:0:0:0:
99,156,80007,2,0,L|200:145,1,72,0|0,1:0|1:0,0:0:0:0:
312,114,80340,1,8,0:0:0:0:
312,114,80507,1,0,0:0:0:0:
189,253,80673,6,0,L|346:233,1,144,0|8,1:0|0:0,0:0:0:0:
254,339,81173,1,0,0:0:0:0:
180,238,81340,6,0,L|337:218,1,144,0|8,1:0|0:0,0:0:0:0:
245,324,81840,1,0,1:0:0:0:
215,145,82007,5,0,1:0:0:0:
245,324,82173,1,0,1:0:0:0:
421,294,82340,1,8,0:0:0:0:
393,117,82507,1,0,0:0:0:0:
323,220,82673,1,0,1:0:0:0:
323,220,82840,1,0,1:0:0:0:
284,31,83007,1,8,0:0:0:0:
323,220,83173,1,0,0:0:0:0:
489,86,83340,6,0,L|478:178,1,72,2|0,1:2|0:0,0:0:0:0:
225,183,83673,2,0,L|216:111,1,72,8|0,0:0|0:0,0:0:0:0:
356,114,84007,1,0,1:0:0:0:
356,114,84173,1,0,1:0:0:0:
502,106,84340,2,0,L|491:198,1,72,8|0,0:0|0:0,0:0:0:0:
238,203,84673,6,0,L|229:131,1,72,0|0,1:0|0:0,0:0:0:0:
369,134,85007,1,8,0:0:0:0:
369,134,85173,1,0,1:0:0:0:
399,263,85340,2,0,L|310:255,1,72,0|0,1:0|1:0,0:0:0:0:
303,16,85673,2,0,L|374:9,1,72,8|0,0:0|0:0,0:0:0:0:
479,191,86007,5,6,0:0:0:0:
265,133,86173,1,0,0:0:0:0:
480,75,86340,1,8,0:0:0:0:
265,133,86507,1,0,0:0:0:0:
265,133,86840,2,0,P|206:116|174:127,1,72,0|8,1:0|0:0,0:0:0:0:
10,159,87173,1,0,0:0:0:0:
102,268,87340,6,0,L|98:171,1,72,14|0,0:0|1:0,0:0:0:0:
115,160,87590,2,0,L|111:63,1,72,8|0,0:0|1:0,0:0:0:0:
96,50,87840,1,8,0:0:0:0:
10,159,88007,1,0,1:0:0:0:
197,117,88173,5,8,0:0:0:0:
222,115,88257,1,8,0:0:0:0:
246,112,88340,1,8,0:0:0:0:
271,110,88423,1,8,0:0:0:0:
296,107,88507,1,8,0:0:0:0:
320,104,88590,1,8,0:0:0:0:
344,101,88673,6,0,B|393:100|428:49|428:49|466:95|419:151,1,198.000006042481,12|8,1:2|0:0,0:0:0:0:
341,1,89173,1,0,0:0:0:0:
354,196,89340,1,0,1:0:0:0:
356,225,89423,1,0,0:0:0:0:
356,254,89507,1,0,1:0:0:0:
356,283,89590,1,0,0:0:0:0:
356,312,89673,1,8,0:0:0:0:
226,223,89840,5,0,0:0:0:0:
218,199,89923,1,0,0:0:0:0:
208,175,90007,2,0,L|205:296,1,99.0000030212403,0|0,1:0|0:0,0:0:0:0:
124,227,90257,1,0,0:0:0:0:
113,204,90340,2,0,L|110:325,1,99.0000030212403,8|0,0:0|1:0,0:0:0:0:
27,254,90590,1,0,0:0:0:0:
16,231,90673,2,0,L|13:352,1,99.0000030212403,0|0,0:0|1:0,0:0:0:0:
189,374,91007,1,8,0:0:0:0:
189,374,91173,1,0,0:0:0:0:
313,252,91340,5,0,1:0:0:0:
110,302,91507,1,0,0:0:0:0:
110,302,91590,1,0,0:0:0:0:
110,302,91673,1,8,0:0:0:0:
292,352,91840,1,0,0:0:0:0:
132,200,92007,1,0,1:0:0:0:
132,200,92090,1,0,0:0:0:0:
132,200,92173,1,0,1:0:0:0:
213,273,92340,2,0,L|215:157,1,99.0000030212403,8|0,0:0|0:0,0:0:0:0:
50,84,92673,5,0,1:0:0:0:
76,98,92757,1,0,0:0:0:0:
105,102,92840,1,0,1:0:0:0:
134,99,92923,1,0,0:0:0:0:
159,82,93007,1,8,0:0:0:0:
294,76,93173,5,0,0:0:0:0:
294,76,93257,1,0,0:0:0:0:
294,76,93340,2,0,L|297:128,1,49.5000015106202,0|0,1:0|0:0,0:0:0:0:
363,208,93507,2,0,L|365:257,1,49.5000015106202,0|0,1:0|0:0,0:0:0:0:
469,234,93673,1,8,0:0:0:0:
413,355,93840,1,0,0:0:0:0:
413,355,93923,1,0,0:0:0:0:
413,355,94007,5,2,1:2:0:0:
273,216,94173,2,0,L|234:213,3,33.0000010070801,0|0|0|8,0:0|0:0|0:0|0:0,0:0:0:0:
237,327,94507,2,0,L|195:336,3,33.0000010070801,0|0|0|0,1:0|0:0|0:0|1:0,0:0:0:0:
376,171,94840,1,0,1:0:0:0:
314,379,95007,1,8,0:0:0:0:
314,379,95173,1,0,0:0:0:0:
288,122,95340,5,0,1:0:0:0:
463,223,95507,1,0,0:0:0:0:
463,193,95590,1,0,0:0:0:0:
463,163,95673,1,8,0:0:0:0:
463,133,95757,1,0,0:0:0:0:
463,103,95840,1,0,1:0:0:0:
461,73,95923,1,0,0:0:0:0:
460,43,96007,5,0,1:0:0:0:
301,21,96173,1,0,1:0:0:0:
376,171,96340,1,8,0:0:0:0:
376,171,96673,6,0,L|378:275,1,99.0000030212403,0|0,1:0|0:0,0:0:0:0:
299,362,97007,1,8,0:0:0:0:
207,236,97173,2,0,P|217:169|119:99,1,198.000006042481,0|0,1:0|1:0,0:0:0:0:
250,64,97673,1,8,0:0:0:0:
250,64,97840,1,0,1:0:0:0:
118,199,98007,5,0,1:0:0:0:
118,203,98090,1,0,0:0:0:0:
118,208,98173,1,0,1:0:0:0:
119,213,98256,1,0,0:0:0:0:
119,218,98340,1,8,0:0:0:0:
120,223,98423,1,0,0:0:0:0:
120,228,98506,1,0,0:0:0:0:
121,233,98590,1,0,0:0:0:0:
122,238,98673,6,0,L|62:241,1,49.5000015106202,0|0,1:0|0:0,0:0:0:0:
100,355,98840,2,0,L|40:358,1,49.5000015106202,0|0,1:0|0:0,0:0:0:0:
196,307,99007,1,8,0:0:0:0:
223,295,99090,1,8,0:0:0:0:
252,296,99173,1,8,0:0:0:0:
279,307,99257,1,8,0:0:0:0:
298,329,99340,6,0,L|298:262,1,49.5000015106202,8|0,0:0|0:0,0:0:0:0:
252,168,99507,1,0,0:0:0:0:
252,168,99590,1,0,0:0:0:0:
252,168,99673,2,0,P|298:181|364:161,1,99.0000030212403,8|0,0:0|0:0,0:0:0:0:
397,49,100007,1,0,1:0:0:0:
397,49,100173,1,0,1:0:0:0:
414,253,100340,1,8,0:0:0:0:
414,253,100423,1,0,0:0:0:0:
414,253,100507,1,0,0:0:0:0:
414,253,100590,1,0,0:0:0:0:
414,253,100673,6,0,P|443:215|448:157,1,99.0000030212403,0|0,1:0|0:0,0:0:0:0:
302,89,101007,1,8,0:0:0:0:
302,89,101173,1,0,0:0:0:0:
493,84,101340,1,0,1:0:0:0:
397,49,101507,1,0,1:0:0:0:
259,212,101673,1,8,0:0:0:0:
355,177,101840,1,0,0:0:0:0:
199,126,102007,5,0,1:0:0:0:
206,321,102173,1,0,0:0:0:0:
191,340,102257,1,0,0:0:0:0:
177,360,102340,2,0,L|176:259,1,99.0000030212403,8|0,0:0|0:0,0:0:0:0:
105,210,102590,1,0,0:0:0:0:
91,230,102673,2,0,L|90:129,1,99.0000030212403,0|0,1:0|1:0,0:0:0:0:
20,80,102923,1,0,0:0:0:0:
6,100,103006,2,0,L|5:-1,1,99.0000030212403,8|0,0:0|1:0,0:0:0:0:
188,55,103340,5,0,1:0:0:0:
184,74,103423,1,0,0:0:0:0:
184,93,103507,1,0,1:0:0:0:
190,111,103590,1,0,0:0:0:0:
202,126,103673,1,8,0:0:0:0:
217,137,103757,1,0,0:0:0:0:
236,141,103840,1,0,0:0:0:0:
255,143,103923,1,0,0:0:0:0:
274,138,104007,6,0,L|339:121,1,49.5000015106202,0|0,1:0|0:0,0:0:0:0:
254,241,104173,2,0,L|319:224,1,49.5000015106202,0|0,1:0|0:0,0:0:0:0:
423,203,104340,1,8,0:0:0:0:
421,232,104423,1,8,0:0:0:0:
419,261,104507,1,8,0:0:0:0:
417,290,104590,1,8,0:0:0:0:
413,319,104673,6,0,L|354:319,1,49.5000015106202,14|0,1:2|0:0,0:0:0:0:
219,343,104840,1,0,0:0:0:0:
219,343,104923,1,0,0:0:0:0:
219,343,105007,2,0,L|213:135,1,198.000006042481,8|8,0:0|0:0,0:0:0:0:
121,284,105507,1,0,0:0:0:0:
121,284,105673,2,0,L|106:173,1,99.0000030212403,8|0,0:0|0:0,0:0:0:0:
184,43,106007,5,12,0:0:0:0:
254,241,106173,1,0,0:0:0:0:
254,241,106257,1,0,0:0:0:0:
254,241,106340,2,0,L|467:238,1,198.000006042481,8|8,0:0|0:0,0:0:0:0:
306,121,106840,1,0,0:0:0:0:
306,121,107007,2,0,L|425:96,1,99.0000030212403,8|0,0:0|0:0,0:0:0:0:
371,338,107340,5,12,0:0:0:0:
371,338,107507,1,8,0:0:0:0:
352,215,107673,1,8,0:0:0:0:
352,215,107840,1,8,0:0:0:0:
499,372,108007,1,8,0:0:0:0:
499,372,108174,1,8,0:0:0:0:
480,249,108340,1,8,0:0:0:0:
480,249,108507,1,8,0:0:0:0:
445,121,108673,5,6,1:2:0:0:
420,103,108757,1,0,1:0:0:0:
390,97,108840,1,0,1:0:0:0:
360,101,108923,1,0,1:0:0:0:
333,114,109007,1,0,1:0:0:0:
308,130,109090,1,0,1:0:0:0:
278,134,109173,1,0,1:0:0:0:
248,128,109257,1,0,1:0:0:0:
225,108,109340,6,0,L|226:44,1,49.5000015106202,0|0,1:0|1:0,0:0:0:0:
380,203,109507,2,0,L|379:252,1,49.5000015106202,0|0,1:0|1:0,0:0:0:0:
306,346,109673,5,8,1:2:0:0:
266,343,109757,1,8,1:2:0:0:
226,340,109840,1,8,1:2:0:0:
186,336,109923,1,8,1:2:0:0:
146,333,110007,5,6,0:0:0:0:
