osu file format v14

[General]
AudioFilename: 8.mp3
AudioLeadIn: 0
PreviewTime: 67257
Countdown: 0
SampleSet: Soft
StackLeniency: 0.7
Mode: 0
LetterboxInBreaks: 0
WidescreenStoryboard: 0

[Editor]
DistanceSpacing: 0.9
BeatDivisor: 4
GridSize: 32
TimelineZoom: 1.7

[Metadata]
Title:Oriental Blossom
TitleUnicode:Oriental Blossom
Artist:Eisyo-kobu
ArtistUnicode:影翔鼓舞
Creator:Crystal
Version:Gaia's Extra
Source:SOUND VOLTEX III GRAVITY WARS
Tags:Newspaper Cup #3 3rd third sdvx 影虎。Kagetora. saka=ichi The 4th KACオリジナル楽曲コンテスト Original Song Contest konami arcade championship fourth Evil_Twilight 384059043 Pata-Mon Sadism-Bread Gaia Doj EmingK yf_bmp handsome muscle z1085684963 Karen Kashima Vert 23konG Ellyu pw384
BeatmapID:1243784
BeatmapSetID:586889

[Difficulty]
HPDrainRate:6
CircleSize:4.2
OverallDifficulty:8.2
ApproachRate:9.3
SliderMultiplier:1.6
SliderTickRate:2

[Events]
//Background and Video events
0,0,"4.jpg",0,0
//Break Periods
//Storyboard Layer 0 (Background)
//Storyboard Layer 1 (Fail)
//Storyboard Layer 2 (Pass)
//Storyboard Layer 3 (Foreground)
//Storyboard Sound Samples

[TimingPoints]
674,333.333333333333,4,2,52,60,1,0
674,-142.857142857143,4,2,52,60,0,0
4590,-142.857142857143,4,2,58,60,0,0
4757,-142.857142857143,4,2,52,60,0,0
6007,-111.111111111111,4,2,51,60,0,0
6673,-62.5,4,2,51,60,0,0
7007,-111.111111111111,4,2,51,60,0,0
8007,-62.5,4,2,51,60,0,0
8340,-100,4,2,51,60,0,0
9340,-62.5,4,2,51,60,0,0
10840,-142.857142857143,4,2,51,60,0,0
11007,-62.5,4,2,51,60,0,0
11340,-90.9090909090909,4,2,51,60,0,0
13340,-125,4,2,51,60,0,0
13673,-125,4,2,51,60,0,0
14007,-83.3333333333333,4,2,51,60,0,0
14340,-125,4,2,51,60,0,0
14673,-100,4,2,51,60,0,0
15007,-83.3333333333333,4,2,51,60,0,0
21340,-55.5555555555556,4,2,51,60,0,0
22007,-76.9230769230769,4,2,51,60,0,0
31340,-62.5,4,2,51,65,0,0
32840,-76.9230769230769,4,2,51,60,0,0
36840,-76.9230769230769,4,2,51,70,0,0
37007,-76.9230769230769,4,2,51,60,0,0
37173,-76.9230769230769,4,2,51,70,0,0
37673,-76.9230769230769,4,2,51,60,0,0
37840,-76.9230769230769,4,2,51,70,0,0
38007,-76.9230769230769,4,2,51,60,0,0
40340,-76.9230769230769,4,2,51,70,0,0
41007,-76.9230769230769,4,2,51,60,0,0
41340,-76.9230769230769,4,2,51,70,0,0
41673,-76.9230769230769,4,2,51,60,0,0
42007,-76.9230769230769,4,2,51,70,0,0
42090,-76.9230769230769,4,2,51,60,0,0
42673,-76.9230769230769,4,2,51,70,0,0
43007,-62.5,4,2,51,65,0,0
43340,-90.9090909090909,4,2,51,60,0,0
47507,-76.9230769230769,4,2,51,70,0,0
47673,-76.9230769230769,4,2,51,60,0,0
47840,-76.9230769230769,4,2,51,70,0,0
48340,-76.9230769230769,4,2,51,60,0,0
48507,-76.9230769230769,4,2,51,70,0,0
48673,-90.9090909090909,4,2,51,60,0,0
52673,-58.8235294117647,4,2,51,60,0,0
54007,-142.857142857143,4,2,51,50,0,0
54090,-142.857142857143,4,2,52,50,0,0
59340,-62.5,4,2,51,60,0,0
59673,-76.9230769230769,4,2,51,60,0,0
60673,-58.8235294117647,4,2,51,60,0,0
61007,-71.4285714285714,4,2,51,60,0,0
63340,-58.8235294117647,4,2,51,60,0,0
64673,-58.8235294117647,4,3,55,70,0,0
65007,-58.8235294117647,4,3,55,50,0,0
65173,-100,4,3,55,60,0,0
65507,-100,4,3,55,70,0,0
65673,-100,4,3,55,60,0,0
65840,-76.9230769230769,4,3,55,60,0,0
66007,-76.9230769230769,4,2,51,70,0,0
67007,-58.8235294117647,4,2,51,70,0,0
67340,-71.4285714285714,4,2,51,70,0,0
69340,-62.5,4,2,51,70,0,0
69673,-71.4285714285714,4,2,51,70,0,0
70007,-62.5,4,2,51,70,0,0
70257,-71.4285714285714,4,2,51,70,0,0
70673,-62.5,4,2,51,70,0,0
71007,-71.4285714285714,4,2,51,70,0,0
71340,-62.5,4,2,51,70,0,0
71590,-71.4285714285714,4,2,51,70,0,0
72007,-58.8235294117647,4,2,51,70,0,0
72673,-153.846153846154,4,2,51,70,0,0
73007,-71.4285714285714,4,2,51,70,0,0
73673,-71.4285714285714,4,2,70,70,0,0
73757,-71.4285714285714,4,2,51,70,0,0
77673,-125,4,2,51,70,0,0
78007,-66.6666666666667,4,2,51,70,0,0
78340,-71.4285714285714,4,2,51,70,0,0
80007,-62.5,4,2,51,70,0,0
80340,-71.4285714285714,4,2,51,70,0,0
80673,-62.5,4,2,51,70,0,0
81006,-71.4285714285714,4,2,51,70,0,0
81340,-62.5,4,2,51,70,0,0
81673,-71.4285714285714,4,2,70,70,0,0
81757,-71.4285714285714,4,2,51,70,0,0
83007,-58.8235294117647,4,2,51,70,0,0
83340,-66.6666666666667,4,2,51,70,0,0
84007,-200,4,2,51,70,0,0
84090,-200,4,2,57,60,0,0
84340,-66.6666666666667,4,2,51,70,0,0
85007,-200,4,2,51,70,0,0
85090,-200,4,2,57,60,0,0
85340,-66.6666666666667,4,2,51,70,0,0
86507,-100,4,2,51,70,0,0
87007,-76.9230769230769,4,2,51,70,0,0
87340,-58.8235294117647,4,2,51,70,0,0
88673,-66.6666666666667,4,2,51,70,0,0
97507,-62.5,4,2,51,70,0,0
99007,-58.8235294117647,4,2,51,70,0,0
99340,-71.4285714285714,4,2,51,70,0,0
101340,-58.8235294117647,4,2,51,70,0,0
102340,-66.6666666666667,4,2,51,70,0,0
104340,-58.8235294117647,4,2,51,70,0,0
104673,-66.6666666666667,4,2,51,70,0,0
108673,-66.6666666666667,4,2,51,60,0,0
110007,-200,4,2,51,70,0,0
115173,-200,4,2,51,30,0,0

[Colours]
Combo1 : 200,200,200
Combo2 : 255,91,91
Combo3 : 255,255,128
Combo4 : 106,181,255
Combo5 : 255,140,198
Combo6 : 191,128,255
Combo7 : 255,0,0

[HitObjects]
215,99,674,6,0,P|203:168|201:203,1,83.9999974365235,0|0,3:0|0:0,0:0:0:0:
205,193,1007,2,0,P|174:204|142:213,1,55.9999982910157
193,342,1340,2,0,P|199:314|202:286,1,55.9999982910157,8|0,0:1|0:0,0:0:0:0:
295,159,1673,2,0,P|300:195|305:229,1,55.9999982910157,0|0,0:0|3:0,0:0:0:0:
313,238,1923,1,0,0:0:0:0:
313,238,2007,5,2,0:3:0:0:
436,278,2173,2,0,P|444:218|407:168,1,111.999996582031,0|0,3:0|0:0,0:0:0:0:
246,126,2673,2,0,P|279:132|327:142,1,55.9999982910157,8|0,0:1|0:0,0:0:0:0:
216,37,3007,2,0,P|189:46|162:54,1,55.9999982910157
76,131,3340,6,0,P|52:100|60:21,1,111.999996582031,0|0,3:0|0:0,0:0:0:0:
54,30,3840,1,0,3:0:0:0:
152,169,4007,2,0,P|137:209|117:259,1,83.9999974365235,8|0,0:1|0:0,0:0:0:0:
99,253,4340,1,0,0:0:0:0:
206,327,4507,6,0,P|201:285|226:231,1,83.9999974365235,0|0,3:0|0:0,0:0:0:0:
228,239,4840,2,0,P|295:255|345:264,1,111.999996582031,0|0,3:0|0:0,0:0:0:0:
451,172,5340,2,0,P|427:169|390:194,1,55.9999982910157,8|0,0:1|0:0,0:0:0:0:
440,332,5673,2,0,P|436:303|418:259,1,55.9999982910157,0|0,3:0|0:0,0:0:0:0:
319,97,6007,6,0,P|316:133|305:200,1,71.9999978027344,0|0,3:0|0:0,0:0:0:0:
206,327,6340,2,0,P|203:290|192:224,1,71.9999978027344,0|0,3:0|0:0,0:0:0:0:
103,103,6673,6,0,P|157:115|191:120,1,64,8|0,0:0|0:0,0:0:0:0:
364,260,7007,86,0,P|323:270|271:275,1,71.9999978027344,0|0,3:0|0:0,0:0:0:0:
57,182,7340,2,0,P|92:186|127:196,1,71.9999978027344,2|0,3:3|0:0,0:0:0:0:
389,83,7673,2,0,P|348:93|296:98,1,71.9999978027344,0|0,3:0|0:0,0:0:0:0:
446,297,8007,6,0,P|451:265|452:233,1,64,8|0,0:0|0:0,0:0:0:0:
264,46,8340,22,0,P|277:119|286:182,1,120,0|0,3:0|0:0,0:0:0:0:
281,191,8673,5,0,3:0:0:0:
148,277,8840,1,0,3:0:0:0:
189,124,9007,1,0,3:0:0:0:
371,171,9173,1,0,3:0:0:0:
260,337,9340,54,0,L|242:262,1,64,8|0,0:0|0:0,0:0:0:0:
189,138,9507,37,0,3:0:0:0:
139,315,9673,1,0,3:0:0:0:
383,265,9840,1,0,3:0:0:0:
78,193,10007,69,4,0:1:0:0:
78,193,10840,2,0,P|91:217|100:237,1,27.9999991455078,0|0,3:0|0:0,0:0:0:0:
139,315,11007,86,0,B|163:222|112:220|144:117,1,192,8|0,0:0|0:0,0:0:0:0:
256,51,11340,22,0,B|275:83|275:83|269:137|232:175,1,132.00000402832,4|0,3:2|0:0,0:0:0:0:
242,194,11673,2,0,L|309:186,1,44.0000013427735,10|0,0:0|0:0,0:0:0:0:
369,296,11840,1,0,0:0:0:0:
369,296,11923,1,0,0:0:0:0:
369,296,12007,2,0,P|326:288|257:274,1,88.000002685547,2|2,0:0|3:2,0:0:0:0:
45,163,12340,2,0,P|50:213|63:278,1,88.000002685547,10|0,0:0|0:0,0:0:0:0:
276,103,12673,6,0,P|326:100|371:183,1,132.00000402832,2|0,3:2|0:0,0:0:0:0:
389,178,13007,2,0,L|450:167,1,44.0000013427735,10|0,0:0|0:0,0:0:0:0:
198,185,13173,2,0,L|281:202,1,44.0000013427735,2|0,3:2|0:0,0:0:0:0:
45,163,13340,6,0,L|122:145,1,64,2|0,0:0|3:0,0:0:0:0:
122,137,13590,1,0,0:0:0:0:
122,137,13673,2,0,P|127:94|136:56,1,64,10|2,0:0|0:0,0:0:0:0:
414,95,14007,6,0,B|377:115|377:115|325:106|255:100,1,143.999995605469,2|0,3:2|0:0,0:0:0:0:
248,130,14340,2,0,P|242:161|240:193,1,64,10|2,0:0|0:0,0:0:0:0:
343,355,14673,2,0,P|346:294|323:259,1,80,2|0,0:0|3:0,0:0:0:0:
147,305,15007,2,0,P|192:298|250:293,1,95.9999970703126,10|2,0:0|3:2,0:0:0:0:
412,195,15340,5,2,0:0:0:0:
157,130,15507,2,0,P|146:162|136:203,1,47.9999985351563,0|0,3:0|0:0,0:0:0:0:
82,239,15673,2,0,P|42:228|-13:220,1,95.9999970703126,8|2,0:0|0:0,0:0:0:0:
228,204,16007,1,0,3:0:0:0:
71,89,16173,1,0,3:0:0:0:
228,204,16340,2,0,P|275:196|331:189,1,95.9999970703126,10|2,0:0|0:0,0:0:0:0:
176,307,16673,38,0,P|257:314|346:325,1,143.999995605469,2|0,3:2|0:0,0:0:0:0:
389,281,17007,2,0,P|399:337|381:374,1,95.9999970703126,10|0,0:0|0:0,0:0:0:0:
333,158,17340,2,0,P|343:112|360:53,1,95.9999970703126,2|0,0:0|3:0,0:0:0:0:
203,211,17673,2,0,P|147:222|95:230,1,95.9999970703126,8|0,0:0|0:0,0:0:0:0:
177,50,18007,6,0,P|253:88|227:149,1,143.999995605469,2|0,3:2|0:0,0:0:0:0:
222,224,18340,2,0,P|236:260|250:287,1,47.9999985351563,10|0,0:0|0:0,0:0:0:0:
383,371,18507,2,0,B|380:326|399:267|399:267|384:252|374:234,1,143.999995605469,0|0,3:2|0:0,0:0:0:0:
448,202,18840,2,0,P|469:194|504:191,1,47.9999985351563,0|0,3:0|0:0,0:0:0:0:
339,146,19007,2,0,P|295:138|234:132,1,95.9999970703126,8|2,0:0|0:0,0:0:0:0:
68,232,19340,6,0,B|111:233|150:241|150:241|169:225|209:207,1,143.999995605469,0|0,3:0|0:0,0:0:0:0:
274,264,19673,2,0,P|257:311|249:359,1,95.9999970703126,8|2,0:0|0:0,0:0:0:0:
339,146,20007,2,0,P|295:138|234:132,1,95.9999970703126,2|0,0:0|3:0,0:0:0:0:
402,278,20340,1,8,0:0:0:0:
375,72,20507,1,0,3:0:0:0:
402,278,20673,53,2,0:0:0:0:
335,188,20840,1,2,3:2:0:0:
250,267,21007,1,10,0:0:0:0:
328,349,21173,1,2,0:0:0:0:
321,258,21340,86,0,L|234:268,1,71.9999978027344,0|0,3:0|0:0,0:0:0:0:
127,318,21507,2,0,P|96:310|60:286,1,71.9999978027344,0|0,3:0|0:0,0:0:0:0:
0,160,21673,2,0,B|23:105|21:23|21:23|29:67|71:93,1,215.999993408203,8|0,0:0|0:0,0:0:0:0:
152,135,22007,22,0,B|182:137|208:153|208:153|255:117|332:123,1,155.999992858887,6|0,3:2|0:0,0:0:0:0:
369,69,22340,2,0,P|330:43|264:44,1,103.999995239258,8|0,0:0|0:0,0:0:0:0:
281,232,22673,1,2,0:0:0:0:
311,226,22757,1,0,0:0:0:0:
341,220,22840,1,2,3:2:0:0:
371,214,22923,1,0,0:0:0:0:
402,209,23007,1,10,0:0:0:0:
437,229,23090,1,0,0:0:0:0:
455,265,23173,1,2,0:0:0:0:
451,306,23257,1,0,0:0:0:0:
426,339,23340,6,0,P|383:329|304:319,1,103.999995239258,0|2,3:0|0:0,0:0:0:0:
196,269,23590,1,2,0:0:0:0:
196,269,23673,2,0,P|215:326|227:376,1,103.999995239258,8|2,0:0|3:2,0:0:0:0:
100,225,23923,1,2,0:0:0:0:
100,225,24006,2,0,P|87:284|73:333,1,103.999995239258,2|0,0:0|3:0,0:0:0:0:
19,139,24340,2,0,P|78:103|183:148,1,155.999992858887,8|0,0:0|0:0,0:0:0:0:
195,196,24673,5,0,3:0:0:0:
295,44,24840,2,0,P|305:72|317:110,1,51.999997619629,2|2,0:0|0:0,0:0:0:0:
387,195,25007,2,0,P|339:186|265:177,1,103.999995239258,10|0,0:0|0:0,0:0:0:0:
61,258,25340,2,0,P|90:253|125:247,1,51.999997619629,2|2,0:0|0:0,0:0:0:0:
195,196,25507,1,2,3:2:0:0:
47,61,25673,2,0,P|65:111|80:173,1,103.999995239258,10|2,0:0|0:0,0:0:0:0:
141,359,26007,5,2,0:0:0:0:
170,337,26090,1,0,0:0:0:0:
204,327,26173,1,2,3:2:0:0:
240,327,26257,1,0,0:0:0:0:
270,346,26340,2,0,P|304:354|350:360,1,51.999997619629,10|0,0:0|0:0,0:0:0:0:
434,274,26507,1,2,0:0:0:0:
423,259,26590,1,0,0:0:0:0:
411,245,26673,6,0,L|319:257,1,51.999997619629,0|0,3:0|0:0,0:0:0:0:
245,208,26840,2,0,P|222:201|183:194,1,51.999997619629,0|0,3:0|0:0,0:0:0:0:
57,178,27007,1,10,0:0:0:0:
57,178,27090,1,2,0:0:0:0:
57,178,27173,1,2,0:0:0:0:
57,178,27257,1,2,0:0:0:0:
57,178,27340,38,0,L|82:293,1,103.999995239258,0|2,3:0|0:0,0:0:0:0:
94,305,27562,2,0,P|118:300|150:292,1,34.6666650797527,2|2,0:0|0:0,0:0:0:0:
194,195,27673,2,0,P|203:143|212:69,1,103.999995239258,10|2,0:0|0:0,0:0:0:0:
202,75,27896,2,0,P|186:66|159:58,1,34.6666650797527,2|2,0:0|0:0,0:0:0:0:
293,158,28007,2,0,P|335:148|406:138,1,103.999995239258,2|0,0:0|3:0,0:0:0:0:
275,310,28340,2,0,P|229:297|169:288,1,103.999995239258,8|2,0:0|0:0,0:0:0:0:
380,348,28673,6,0,P|366:282|359:223,1,103.999995239258,2|2,3:2|0:0,0:0:0:0:
293,158,28923,1,2,0:0:0:0:
266,183,29007,1,10,0:0:0:0:
231,193,29090,1,0,0:0:0:0:
194,195,29173,1,2,3:2:0:0:
158,185,29257,1,0,0:0:0:0:
127,165,29340,2,0,P|135:105|140:48,1,103.999995239258,2|2,0:0|3:2,0:0:0:0:
70,304,29673,2,0,P|121:297|202:283,1,103.999995239258,8|0,0:0|0:0,0:0:0:0:
425,169,30007,5,6,3:2:0:0:
215,108,30173,1,0,0:0:0:0:
292,298,30340,1,8,0:0:0:0:
293,158,30507,2,0,P|306:193|315:221,2,51.999997619629,2|0|0,0:0|0:0|0:0,0:0:0:0:
275,310,30840,1,2,3:2:0:0:
396,92,31007,1,8,0:0:0:0:
159,200,31173,1,2,3:2:0:0:
439,250,31340,22,0,P|403:258|366:268,1,64,12|0,0:2|0:0,0:0:0:0:
159,200,31507,1,0,3:0:0:0:
159,200,31590,2,0,P|195:206|236:215,1,64,12|0,0:0|0:0,0:0:0:0:
370,81,31757,1,0,3:0:0:0:
370,81,31840,2,0,P|350:114|335:156,1,64,12|0,0:0|0:0,0:0:0:0:
457,310,32007,6,0,P|452:277|427:234,1,64,12|0,0:0|0:0,0:0:0:0:
340,137,32173,2,0,L|256:163,1,64,8|8,0:0|0:0,0:0:0:0:
159,200,32340,2,0,L|75:180,1,64,8|8,0:0|0:0,0:0:0:0:
19,88,32507,2,0,P|26:56|56:28,1,64,8|8,0:0|0:0,0:0:0:0:
134,46,32673,21,4,3:2:0:0:
167,294,32840,2,0,L|102:301,1,51.999997619629,2|2,0:0|0:0,0:0:0:0:
31,272,33007,1,8,0:0:0:0:
252,185,33173,2,0,P|269:272|285:344,1,155.999992858887,2|0,0:0|0:0,0:0:0:0:
351,382,33507,2,0,P|360:357|366:325,1,51.999997619629,0|0,3:0|0:0,0:0:0:0:
408,229,33673,2,0,B|479:214|479:214|509:246,1,103.999995239258,8|2,0:0|0:0,0:0:0:0:
385,102,34007,6,0,B|314:87|314:87|284:119,1,103.999995239258,2|2,3:2|0:0,0:0:0:0:
252,185,34257,1,2,0:0:0:0:
252,185,34340,2,0,L|141:165,1,103.999995239258,8|0,0:0|3:0,0:0:0:0:
365,332,34673,2,0,L|254:312,1,103.999995239258,2|2,0:0|3:2,0:0:0:0:
180,302,34923,1,2,3:2:0:0:
180,302,35007,2,0,P|134:334|123:389,1,103.999995239258,8|2,0:0|0:0,0:0:0:0:
322,238,35340,6,0,P|341:166|291:109,1,155.999992858887,2|0,3:2|0:0,0:0:0:0:
291,109,35673,2,0,P|348:99|404:84,1,103.999995239258,10|0,0:0|0:0,0:0:0:0:
107,35,36007,2,0,P|164:44|220:59,1,103.999995239258,2|0,0:0|3:0,0:0:0:0:
0,184,36340,2,0,P|21:178|57:172,1,51.999997619629,10|0,0:0|0:0,0:0:0:0:
126,157,36507,1,0,3:0:0:0:
305,289,36673,6,0,P|261:283|181:269,1,103.999995239258,2|8,0:0|0:1,0:0:0:0:
132,237,36923,1,8,0:1:0:0:
132,237,37007,2,0,P|125:268|124:303,1,51.999997619629,8|0,0:0|0:0,0:0:0:0:
216,115,37173,2,0,P|223:141|233:192,1,51.999997619629,8|0,0:1|0:0,0:0:0:0:
305,289,37340,6,0,L|380:276,1,51.999997619629,8|0,3:1|0:0,0:0:0:0:
476,181,37507,2,0,P|483:153|486:123,1,51.999997619629,8|0,3:1|0:0,3:0:0:0:
362,53,37673,2,0,P|359:78|351:103,1,51.999997619629,8|0,0:2|0:0,0:0:0:0:
228,165,37840,2,0,L|155:155,1,51.999997619629,8|0,0:1|0:0,0:0:0:0:
25,143,38007,37,2,3:2:0:0:
164,238,38173,2,0,L|215:245,1,51.999997619629,2|2,0:0|0:0,0:0:0:0:
303,206,38340,1,8,0:0:0:0:
64,239,38507,2,0,P|28:301|101:374,1,155.999992858887,2|0,0:0|0:0,0:0:0:0:
160,369,38840,2,0,P|154:340|140:300,1,51.999997619629,2|0,3:2|0:0,0:0:0:0:
233,142,39007,2,0,P|223:189|213:258,1,103.999995239258,8|0,0:0|0:0,0:0:0:0:
437,239,39340,6,0,P|392:226|305:209,1,103.999995239258,2|2,3:2|0:0,0:0:0:0:
303,206,39590,1,0,0:0:0:0:
303,206,39673,1,10,0:0:0:0:
486,141,39840,1,2,3:2:0:0:
353,329,40007,2,0,P|297:336|239:340,1,103.999995239258,2|0,0:0|3:0,0:0:0:0:
43,194,40340,1,10,1:2:0:0:
215,246,40507,1,2,0:0:0:0:
79,311,40673,5,8,1:3:0:0:
61,204,40840,1,2,0:0:0:0:
43,97,41007,1,8,1:2:0:0:
43,97,41340,1,0,1:0:0:0:
222,265,41507,1,2,3:2:0:0:
81,216,41673,5,8,1:2:0:0:
185,186,41840,1,0,3:0:0:0:
289,157,42007,5,2,1:2:0:0:
318,167,42090,1,0,0:0:0:0:
343,184,42173,1,8,3:1:0:0:
362,208,42257,1,0,0:0:0:0:
373,236,42340,1,8,3:2:0:0:
376,266,42423,1,0,0:0:0:0:
367,296,42507,1,8,0:1:0:0:
353,324,42590,1,0,0:0:0:0:
330,345,42673,5,8,3:1:0:0:
283,339,42757,1,8,0:1:0:0:
236,333,42840,1,8,0:1:0:0:
189,327,42923,1,0,0:0:0:0:
142,321,43007,2,0,L|130:248,1,64,8|8,0:0|0:0,0:0:0:0:
43,194,43173,2,0,L|62:100,1,64,8|8,0:0|0:0,0:0:0:0:
158,53,43340,22,0,B|198:56|224:73|224:73|256:74|302:41|302:41,1,132.00000402832,4|0,3:2|0:0,0:0:0:0:
350,2,43673,2,0,P|368:44|345:103,1,88.000002685547,8|0,0:0|0:0,0:0:0:0:
222,190,44007,2,0,P|249:153|311:143,1,88.000002685547,2|0,0:0|3:0,0:0:0:0:
365,174,44257,1,2,0:0:0:0:
365,174,44340,2,0,P|397:202|441:207,1,88.000002685547,8|2,0:0|0:0,0:0:0:0:
276,328,44673,6,0,B|171:360|171:360|131:353|113:315,1,176.000005371094,2|8,3:0|0:0,0:0:0:0:
32,208,45173,2,0,B|137:240|137:240|172:230|195:195,1,176.000005371094,0|0,3:0|3:0,0:0:0:0:
275,12,45673,2,0,P|268:71|295:153,1,132.00000402832,8|0,0:0|0:0,0:0:0:0:
365,174,46007,6,0,P|376:128|345:83,1,88.000002685547,8|0,1:3|0:0,0:0:0:0:
290,263,46340,2,0,P|333:272|385:284,1,88.000002685547,8|0,1:2|0:0,0:0:0:0:
186,119,46673,2,0,P|142:128|91:140,1,88.000002685547,0|0,1:1|3:0,0:0:0:0:
173,323,47007,2,0,P|183:278|187:224,1,88.000002685547,8|0,1:2|0:0,0:0:0:0:
33,99,47340,5,4,1:1:0:0:
29,125,47423,1,0,0:0:0:0:
24,156,47507,2,0,L|54:232,1,51.999997619629,8|8,3:1|0:1,0:0:0:0:
43,359,47673,2,0,L|107:329,1,51.999997619629,8|0,0:0|0:0,0:0:0:0:
238,244,47840,2,0,L|187:236,1,51.999997619629,8|0,0:1|0:0,0:0:0:0:
278,87,48007,6,0,P|267:115|264:146,1,51.999997619629,8|0,3:1|0:0,0:0:0:0:
354,325,48173,2,0,P|348:291|318:259,1,51.999997619629,8|0,3:1|0:0,0:0:0:0:
137,157,48340,2,0,P|146:185|164:211,1,51.999997619629,8|0,0:0|0:0,0:0:0:0:
487,239,48507,2,0,P|460:216|416:211,1,51.999997619629,8|0,3:1|0:0,0:0:0:0:
348,181,48673,37,4,3:2:0:0:
469,38,48840,1,2,0:0:0:0:
487,239,49007,1,8,0:0:0:0:
276,235,49173,1,2,0:0:0:0:
276,235,49257,1,2,0:0:0:0:
276,235,49340,2,0,P|267:186|252:132,1,88.000002685547,2|0,0:0|3:0,0:0:0:0:
101,33,49673,2,0,P|90:75|82:118,1,88.000002685547,8|0,0:0|0:0,0:0:0:0:
214,298,50007,6,0,P|277:286|366:271,1,132.00000402832,4|0,3:1|0:0,0:0:0:0:
408,320,50340,1,8,0:0:0:0:
192,202,50507,2,0,P|171:141|218:82,1,132.00000402832,0|0,3:0|0:0,0:0:0:0:
283,78,50840,1,0,3:0:0:0:
117,261,51007,2,0,P|114:309|107:375,1,88.000002685547,8|0,0:0|0:0,0:0:0:0:
281,185,51340,6,0,P|325:173|394:158,1,88.000002685547,4|2,3:2|0:0,0:0:0:0:
447,148,51590,1,2,0:0:0:0:
447,148,51673,1,8,0:0:0:0:
283,78,51840,1,0,0:0:0:0:
361,274,52007,1,2,0:0:0:0:
361,274,52090,1,2,0:0:0:0:
361,274,52173,1,2,3:2:0:0:
148,193,52340,2,0,L|218:206,1,44.0000013427735,10|2,0:0|0:0,0:0:0:0:
281,185,52507,1,2,3:2:0:0:
59,107,52673,22,0,P|93:95|140:84,1,68.0000012969971,12|0,0:2|0:0,0:0:0:0:
348,193,52840,1,0,3:0:0:0:
348,193,52923,2,0,P|314:191|268:181,1,68.0000012969971,12|0,0:0|0:0,0:0:0:0:
246,11,53090,1,0,3:0:0:0:
246,11,53173,2,0,P|238:45|231:90,1,68.0000012969971,12|0,0:0|0:0,0:0:0:0:
189,289,53340,6,0,P|226:283|278:270,1,68.0000012969971,8|0,0:0|0:0,0:0:0:0:
348,193,53507,2,0,L|332:116,1,68.0000012969971,8|8,0:0|0:0,0:0:0:0:
456,220,53673,2,0,P|451:254|441:308,1,68.0000012969971,8|8,0:0|0:0,0:0:0:0:
273,355,53840,2,0,P|239:362|206:367,1,68.0000012969971,8|8,0:0|0:0,0:0:0:0:
69,306,54007,22,0,P|40:268|58:197,1,111.999996582031,4|8,3:2|0:1,0:0:0:0:
131,150,54507,1,0,3:0:0:0:
131,150,54590,1,0,0:0:0:0:
131,150,54673,2,0,P|160:112|142:41,1,111.999996582031,8|8,0:1|3:1,0:0:0:0:
150,51,55173,1,0,0:0:0:0:
266,94,55340,6,0,P|262:126|254:174,1,55.9999982910157,8|0,0:1|3:0,0:0:0:0:
186,228,55673,2,0,L|199:282,1,55.9999982910157,8|0,0:1|0:0,0:0:0:0:
210,318,55923,1,0,0:0:0:0:
210,318,56007,1,8,3:1:0:0:
325,350,56173,1,8,0:1:0:0:
335,347,56257,1,8,0:1:0:0:
345,344,56340,1,8,0:1:0:0:
355,341,56423,1,8,0:1:0:0:
366,338,56507,1,8,0:1:0:0:
448,251,56673,5,8,3:1:0:0:
448,251,56840,2,0,P|419:244|381:235,1,55.9999982910157,0|8,0:0|0:1,0:0:0:0:
291,182,57173,1,0,3:0:0:0:
291,182,57340,2,0,L|278:110,1,55.9999982910157,8|0,0:1|0:0,0:0:0:0:
234,44,57673,2,0,P|254:37|284:27,2,27.9999991455078,8|8|8,0:1|0:1|0:1,0:0:0:0:
158,122,58007,6,0,P|140:117|95:112,1,55.9999982910157,8|0,0:1|3:0,0:0:0:0:
89,211,58340,2,0,P|70:213|26:223,1,55.9999982910157,8|8,0:1|0:1,0:0:0:0:
11,242,58590,1,8,0:1:0:0:
11,242,58673,1,8,3:1:0:0:
96,341,58840,1,8,0:1:0:0:
106,343,58923,1,8,0:1:0:0:
117,345,59007,1,8,0:1:0:0:
127,347,59090,1,8,0:1:0:0:
138,349,59173,1,8,0:1:0:0:
148,351,59257,1,8,0:1:0:0:
159,353,59340,22,0,B|199:351|270:324|270:324|255:376|255:376|235:367|231:350,1,192,12|0,0:0|0:0,0:0:0:0:
187,252,59673,22,0,B|183:195|203:145|203:145|194:124|174:96,1,155.999992858887,8|0,0:0|0:0,0:0:0:0:
337,31,60007,6,0,B|341:88|321:138|321:138|330:159|344:178,1,155.999992858887,8|0,0:0|0:0,0:0:0:0:
409,316,60340,6,0,P|466:291|447:194,1,155.999992858887,8|0,0:0|0:0,0:0:0:0:
265,199,60673,38,0,B|305:200|335:220|335:220|384:191|479:170,1,204.000003890991,12|0,0:0|0:0,0:0:0:0:
473,32,61007,22,0,B|411:16|411:16|360:56|376:134,1,167.999994873047,8|0,0:0|0:0,0:0:0:0:
265,199,61340,6,0,B|203:215|203:215|152:175|168:97,1,167.999994873047,8|0,0:0|0:0,0:0:0:0:
62,80,61673,6,0,L|79:257,1,167.999994873047,8|0,0:0|0:0,0:0:0:0:
46,334,62007,5,12,0:0:0:0:
269,295,62173,1,8,0:0:0:0:
184,75,62340,1,8,0:0:0:0:
170,266,62507,1,8,0:0:0:0:
360,212,62673,1,8,0:0:0:0:
67,182,62840,1,8,0:0:0:0:
409,83,63007,1,8,0:0:0:0:
34,171,63173,1,8,0:0:0:0:
475,183,63340,22,0,P|499:219|494:267,1,68.0000012969971,12|8,0:0|0:0,0:0:0:0:
418,346,63507,2,0,P|404:341|344:331,1,68.0000012969971,8|8,0:0|0:0,0:0:0:0:
236,251,63673,2,0,P|202:256|169:265,1,68.0000012969971,8|8,0:0|0:0,0:0:0:0:
22,238,63840,2,0,P|25:214|35:163,1,68.0000012969971,8|8,0:0|0:0,0:0:0:0:
103,35,64007,2,0,P|113:70|124:119,1,68.0000012969971,8|8,0:0|0:0,0:0:0:0:
210,170,64173,2,0,P|244:165|278:157,1,68.0000012969971,8|8,0:0|0:0,0:0:0:0:
409,83,64340,2,0,L|395:172,1,68.0000012969971,8|8,0:0|0:0,0:0:0:0:
333,266,64507,2,0,L|356:347,1,68.0000012969971,8|8,0:0|0:0,0:0:0:0:
433,384,64673,5,4,0:0:0:0:
479,257,64840,1,4,0:0:0:0:
276,157,65007,1,8,0:0:0:0:
294,275,65173,2,0,L|344:263,3,40,2|2|2|2,0:0|0:0|0:0|0:0,0:0:0:0:
217,334,65507,2,0,L|171:319,1,40,4|0,0:0|0:0,0:0:0:0:
94,288,65673,1,8,0:0:0:0:
0,161,65840,2,0,L|75:143,1,51.999997619629,2|2,0:0|0:0,0:0:0:0:
126,59,66007,69,2,3:2:0:0:
145,76,66090,1,0,0:0:0:0:
168,87,66173,1,2,0:0:0:0:
193,93,66257,1,0,0:0:0:0:
218,94,66340,1,2,0:0:0:0:
243,87,66423,1,0,0:0:0:0:
266,75,66507,1,2,0:0:0:0:
281,53,66590,1,0,0:0:0:0:
284,27,66673,5,2,0:0:0:0:
256,65,66757,1,0,0:0:0:0:
252,111,66840,1,2,0:0:0:0:
276,150,66923,1,0,0:0:0:0:
348,173,67007,2,0,L|432:158,1,68.0000012969971,10|8,0:0|0:0,0:0:0:0:
360,286,67173,2,0,L|293:274,1,68.0000012969971,10|8,0:0|0:0,0:0:0:0:
50,148,67340,22,0,P|141:148|144:253,1,167.999994873047,4|0,3:2|0:0,0:0:0:0:
101,275,67673,2,0,P|116:331|132:399,1,111.999996582031,8|0,0:0|0:0,0:0:0:0:
260,260,67923,1,2,0:0:0:0:
260,260,68007,2,0,P|268:204|279:120,1,111.999996582031,4|4,0:3|3:0,0:0:0:0:
374,304,68340,1,8,0:0:0:0:
165,209,68507,1,4,0:3:0:0:
374,304,68673,6,0,P|425:288|496:270,1,111.999996582031,4|0,3:3|0:0,0:0:0:0:
130,68,69007,2,0,L|147:135,1,55.9999982910157,10|2,0:0|0:0,0:0:0:0:
165,209,69173,1,4,3:3:0:0:
397,162,69340,2,0,P|347:106|289:117,1,128,4|0,0:3|3:0,0:0:0:0:
275,149,69590,1,0,0:0:0:0:
275,149,69673,6,0,P|303:168|335:187,1,55.9999982910157,10|0,0:0|0:0,0:0:0:0:
463,105,69840,1,4,0:3:0:0:
260,260,70007,2,0,P|199:279|136:290,1,128,8|0,1:3|0:0,0:0:0:0:
105,290,70257,1,0,0:0:0:0:
105,290,70340,6,0,P|91:329|88:353,1,55.9999982910157,10|0,0:0|0:0,0:0:0:0:
36,182,70507,1,4,0:3:0:0:
206,123,70673,2,0,P|196:65|174:-1,1,128,2|0,1:2|3:0,0:0:0:0:
138,1,70923,1,0,0:0:0:0:
138,1,71007,6,0,P|116:32|111:67,1,55.9999982910157,10|0,0:0|0:0,0:0:0:0:
36,182,71173,1,4,3:0:0:0:
321,179,71340,2,0,P|377:216|434:241,1,128,2|0,1:2|3:0,0:0:0:0:
510,225,71590,1,0,0:0:0:0:
510,225,71673,1,8,0:0:0:0:
317,87,71840,1,2,0:2:0:0:
268,319,72007,6,0,P|297:314|345:297,1,68.0000012969971,0|0,3:0|0:0,0:0:0:0:
114,221,72173,2,0,P|97:259|84:304,1,68.0000012969971,0|0,3:0|0:0,0:0:0:0:
206,123,72340,2,0,P|220:158|230:192,3,68.0000012969971,10|2|2|2,0:0|0:0|0:0|0:0,0:0:0:0:
397,193,72673,6,0,P|359:186|321:179,1,77.9999964294435,2|0,3:3|0:0,0:0:0:0:
206,123,73007,6,0,P|263:112|321:98,1,111.999996582031,10|0,0:0|0:0,0:0:0:0:
401,66,73257,1,0,0:0:0:0:
401,66,73340,1,4,0:3:0:0:
249,266,73507,2,0,P|259:297|278:345,1,55.9999982910157,0|0,3:0|0:0,0:0:0:0:
106,377,73673,2,0,P|156:333|120:230,1,167.999994873047,14|0,0:0|0:0,0:0:0:0:
1,158,74007,6,0,B|62:170|62:170|80:163|113:143,1,111.999996582031,8|0,1:3|0:0,0:0:0:0:
164,85,74257,1,0,0:0:0:0:
164,85,74340,2,0,L|173:21,1,55.9999982910157,8|0,1:2|0:0,0:0:0:0:
317,87,74507,2,0,P|331:123|337:156,1,55.9999982910157,0|0,3:0|0:0,0:0:0:0:
273,301,74673,2,0,B|212:313|212:313|194:306|161:286,1,111.999996582031,0|0,1:0|3:0,0:0:0:0:
54,268,74923,1,0,0:0:0:0:
54,268,75007,2,0,P|39:304|42:347,1,55.9999982910157,10|0,0:0|0:0,0:0:0:0:
222,223,75173,2,0,P|217:192|208:154,1,55.9999982910157,4|0,0:3|0:0,0:0:0:0:
358,30,75340,6,0,P|344:88|330:162,1,111.999996582031,12|0,1:3|0:0,0:0:0:0:
389,207,75590,1,0,0:0:0:0:
389,207,75673,2,0,P|416:203|455:196,1,55.9999982910157,8|0,0:0|0:0,0:0:0:0:
376,344,75840,1,4,0:3:0:0:
351,335,75923,1,0,0:0:0:0:
326,327,76007,2,0,P|302:360|297:390,1,55.9999982910157,4|0,0:3|0:0,0:0:0:0:
222,223,76173,1,2,3:2:0:0:
456,113,76340,1,8,0:0:0:0:
252,37,76507,1,4,3:0:0:0:
372,242,76673,5,2,1:2:0:0:
153,129,76840,2,0,L|84:150,1,55.9999982910157,2|2,0:0|0:0,0:0:0:0:
26,173,77007,1,8,1:2:0:0:
242,299,77173,1,2,0:0:0:0:
233,310,77257,1,0,0:0:0:0:
225,321,77340,22,0,L|164:312,1,55.9999982910157,8|0,1:3|0:0,0:0:0:0:
389,207,77507,2,0,P|408:245|419:280,1,55.9999982910157,0|0,3:0|0:0,0:0:0:0:
279,58,77673,6,0,P|269:108|265:148,1,64,8|4,0:0|0:1,0:0:0:0:
274,158,77923,1,2,0:0:0:0:
274,158,78007,6,0,B|152:130|152:130|170:101|165:60,1,180.000006866455,2|0,3:0|0:0,0:0:0:0:
203,233,78340,2,0,P|221:297|235:378,1,111.999996582031,8|0,0:0|0:0,0:0:0:0:
222,363,78590,1,0,0:0:0:0:
222,363,78673,1,4,0:3:0:0:
295,247,78840,2,0,P|313:237|355:222,1,55.9999982910157,4|0,3:0|0:0,0:0:0:0:
128,204,79007,2,0,P|67:193|-10:182,1,111.999996582031,8|4,0:0|0:3,0:0:0:0:
249,77,79340,6,0,P|317:61|351:20,1,111.999996582031,4|0,3:3|0:0,0:0:0:0:
368,11,79590,1,0,0:0:0:0:
368,11,79673,2,0,P|372:58|378:77,1,55.9999982910157,8|0,0:0|0:0,0:0:0:0:
504,116,79840,2,0,P|495:152|489:186,1,55.9999982910157,4|0,3:3|0:0,0:0:0:0:
323,272,80007,2,0,P|299:258|182:233,1,128,4|0,0:3|3:0,0:0:0:0:
190,212,80257,1,0,0:0:0:0:
190,212,80340,6,0,P|183:189|180:151,1,55.9999982910157,8|0,0:0|0:0,0:0:0:0:
266,328,80507,2,0,P|240:351|214:366,1,55.9999982910157,4|0,0:3|0:0,0:0:0:0:
77,190,80673,2,0,P|90:128|100:51,1,128,8|0,1:3|0:0,0:0:0:0:
65,45,80923,1,0,0:0:0:0:
65,45,81007,6,0,P|36:67|24:103,1,55.9999982910157,8|0,0:0|0:0,0:0:0:0:
190,212,81173,2,0,L|267:184,1,55.9999982910157,4|0,0:3|0:0,0:0:0:0:
456,102,81340,2,0,P|381:80|346:140,1,128,2|0,1:2|3:0,0:0:0:0:
351,138,81590,1,0,0:0:0:0:
351,138,81673,22,0,P|365:179|371:204,1,55.9999982910157,14|0,0:0|0:0,0:0:0:0:
247,101,81840,2,0,P|252:74|262:43,1,55.9999982910157,4|0,3:3|0:0,0:0:0:0:
105,131,82007,2,0,P|83:123|24:108,1,55.9999982910157,4|0,0:3|0:0,0:0:0:0:
190,212,82173,2,0,P|157:230|113:248,1,55.9999982910157,4|0,3:3|0:0,0:0:0:0:
351,109,82340,2,0,P|378:100|421:96,1,55.9999982910157,10|0,0:0|0:0,0:0:0:0:
263,154,82507,2,0,P|254:128|247:101,1,55.9999982910157,4|0,0:3|0:0,0:0:0:0:
359,246,82673,86,0,P|365:213|369:181,1,55.9999982910157,4|0,3:3|0:0,0:0:0:0:
435,323,82840,2,0,P|415:343|392:358,1,55.9999982910157,2|0,3:2|0:0,0:0:0:0:
223,311,83007,2,0,P|270:316|309:333,3,68.0000012969971,8|2|2|2,0:0|0:0|0:0|0:0,0:0:0:0:
140,238,83340,6,0,L|61:219,1,60.0000022888184,6|0,0:3|0:0,0:0:0:0:
35,81,83507,2,0,L|93:95,1,60.0000022888184,4|0,0:3|0:0,0:0:0:0:
246,100,83673,2,0,P|266:75|279:27,1,60.0000022888184,8|0,0:0|0:0,0:0:0:0:
404,3,83840,2,0,P|419:37|430:72,1,60.0000022888184,4|0,0:3|0:0,0:0:0:0:
417,165,84007,6,0,P|455:157|492:150,1,60,4|0,0:1|0:0,0:0:0:0:
358,246,84340,86,0,P|335:238|301:225,1,60.0000022888184,8|0,0:0|0:0,0:0:0:0:
246,100,84507,2,0,L|162:119,1,60.0000022888184,4|0,0:3|0:0,0:0:0:0:
56,205,84673,2,0,P|63:243|76:281,1,60.0000022888184,4|0,3:0|0:0,0:0:0:0:
209,369,84840,2,0,P|217:340|222:310,1,60.0000022888184,4|0,0:3|0:0,0:0:0:0:
157,153,85007,6,0,P|164:191|177:229,1,60.0000022888184,8|0,0:0|0:0,0:0:0:0:
304,112,85340,86,0,P|284:106|234:98,1,60.0000022888184,4|0,0:3|0:0,0:0:0:0:
301,225,85507,2,0,P|327:218|359:210,1,60.0000022888184,4|0,3:0|0:0,0:0:0:0:
511,151,85673,2,0,L|497:229,1,60.0000022888184,8|0,0:0|0:0,0:0:0:0:
375,307,85840,2,0,P|346:315|316:322,1,60.0000022888184,4|0,0:3|0:0,0:0:0:0:
171,212,86007,70,0,P|146:276|193:308,1,120.000004577637,4|0,3:2|0:0,0:0:0:0:
201,313,86257,1,0,0:0:0:0:
201,312,86340,1,8,0:0:0:0:
218,130,86507,2,0,B|139:109|139:156|38:116,1,160,4|2,0:1|3:0,0:0:0:0:
328,34,87007,2,0,P|317:70|311:110,1,51.999997619629,8|0,0:0|0:0,0:0:0:0:
334,222,87173,2,0,P|319:186|299:152,1,51.999997619629,0|0,3:0|0:0,0:0:0:0:
60,123,87340,6,0,P|96:132|141:129,1,68.0000012969971,12|0,0:0|0:0,0:0:0:0:
375,168,87507,1,0,3:0:0:0:
375,168,87590,2,0,P|349:194|329:235,1,68.0000012969971,12|0,0:0|0:0,0:0:0:0:
198,377,87757,1,0,3:0:0:0:
198,377,87840,2,0,P|187:341|162:303,1,68.0000012969971,12|0,0:0|0:0,0:0:0:0:
232,63,88007,6,0,P|225:94|218:129,1,68.0000012969971,8|0,0:0|0:0,0:0:0:0:
72,205,88173,2,0,P|83:245|100:281,1,68.0000012969971,8|8,0:0|0:0,0:0:0:0:
269,332,88340,2,0,P|299:321|344:309,1,68.0000012969971,8|8,0:0|0:0,0:0:0:0:
439,188,88507,2,0,P|406:178|374:167,1,68.0000012969971,8|8,0:0|0:0,0:0:0:0:
60,123,88673,22,0,P|91:72|206:105,1,180.000006866455,4|0,3:2|0:0,0:0:0:0:
270,222,89007,2,0,P|282:195|295:158,1,60.0000022888184,8|0,0:0|0:0,0:0:0:0:
302,47,89173,1,2,0:0:0:0:
168,189,89340,1,2,0:0:0:0:
153,234,89423,1,0,0:0:0:0:
156,282,89507,1,2,3:2:0:0:
181,322,89590,1,0,0:0:0:0:
223,344,89673,1,10,0:0:0:0:
269,332,89757,1,0,0:0:0:0:
315,321,89840,1,2,0:0:0:0:
361,310,89923,1,0,0:0:0:0:
408,299,90007,6,0,P|328:283|265:267,1,120.000004577637,2|2,3:2|0:0,0:0:0:0:
493,157,90257,1,2,0:0:0:0:
493,157,90340,2,0,P|436:178|371:193,1,120.000004577637,10|2,0:0|3:2,0:0:0:0:
225,40,90590,1,2,0:0:0:0:
225,40,90673,2,0,P|256:78|269:120,1,60.0000022888184,2|0,0:0|0:0,0:0:0:0:
153,234,90840,2,0,P|176:222|224:202,1,60.0000022888184,2|0,3:2|0:0,0:0:0:0:
21,108,91007,2,0,P|73:119|146:128,1,120.000004577637,8|2,0:0|0:0,0:0:0:0:
357,56,91340,5,2,3:2:0:0:
207,208,91507,2,0,P|199:257|197:289,1,60.0000022888184,2|2,0:0|0:0,0:0:0:0:
247,371,91673,2,0,P|197:359|121:345,1,120.000004577637,8|2,0:0|0:0,0:0:0:0:
312,136,92007,2,0,P|320:165|332:218,1,60.0000022888184,2|2,0:0|0:0,0:0:0:0:
352,305,92173,1,2,3:2:0:0:
157,142,92340,2,0,P|182:131|232:123,1,60.0000022888184,8|0,0:0|0:0,0:0:0:0:
413,73,92507,2,0,P|383:66|356:55,1,60.0000022888184,2|0,3:2|0:2,0:2:0:0:
202,12,92673,5,2,0:0:0:0:
158,32,92757,1,0,0:0:0:0:
112,45,92840,1,2,3:2:0:0:
66,58,92923,1,0,0:0:0:0:
19,71,93007,2,0,P|5:106|8:142,1,60.0000022888184,10|0,0:0|0:0,0:0:0:0:
88,310,93173,1,2,0:0:0:0:
100,300,93257,1,2,0:0:0:0:
111,290,93340,6,0,L|101:215,1,60.0000022888184,2|0,3:2|0:0,0:0:0:0:
224,373,93507,2,0,L|235:293,1,60.0000022888184,2|0,3:2|0:0,0:0:0:0:
312,136,93673,1,10,0:0:0:0:
364,149,93757,1,0,0:0:0:0:
402,187,93840,1,2,0:0:0:0:
416,238,93923,1,0,0:0:0:0:
402,290,94007,38,0,P|333:270|274:255,1,120.000004577637,2|2,3:0|0:0,0:0:0:0:
276,246,94229,2,0,P|269:215|258:173,1,40.000001525879,2|2,0:0|0:0,0:0:0:0:
46,145,94340,2,0,P|100:139|180:126,1,120.000004577637,8|2,0:0|0:0,0:0:0:0:
173,117,94562,2,0,P|179:86|191:44,1,40.000001525879,2|2,0:0|0:0,0:0:0:0:
348,30,94673,2,0,P|356:80|364:153,1,120.000004577637,2|0,0:0|3:0,0:0:0:0:
123,378,95007,2,0,P|129:318|138:259,1,120.000004577637,8|0,0:0|0:0,0:0:0:0:
402,290,95340,6,0,P|333:270|274:255,1,120.000004577637,2|2,3:2|0:0,0:0:0:0:
216,204,95590,1,0,0:0:0:0:
195,174,95673,1,10,0:0:0:0:
199,137,95757,1,0,0:0:0:0:
220,108,95840,1,2,3:2:0:0:
254,96,95923,1,0,0:0:0:0:
289,104,96007,2,0,P|276:139|270:169,1,60.0000022888184,2|0,0:0|0:0,0:0:0:0:
155,316,96173,2,0,P|147:286|137:258,1,60.0000022888184,2|0,3:2|0:0,0:0:0:0:
13,109,96340,2,0,B|8:74|35:49|35:49|107:42|134:117,1,180.000006866455,8|0,0:0|0:0,0:0:0:0:
135,181,96673,6,0,P|109:191|67:197,1,60.0000022888184,2|0,3:2|0:0,0:0:0:0:
0,190,96840,1,2,0:0:0:0:
198,51,97007,2,0,P|210:79|223:116,1,60.0000022888184,10|0,0:0|0:0,0:0:0:0:
276,272,97173,2,0,B|239:294|239:294|277:136,1,180.000006866455,2|0,0:0|0:0,0:0:0:0:
414,235,97507,6,0,P|388:228|337:220,1,64,0|0,3:0|0:0,0:0:0:0:
109,337,97673,2,0,P|139:333|198:320,1,64,8|0,0:0|0:0,0:0:0:0:
220,106,97840,2,0,P|199:136|199:194,1,64,0|0,3:0|0:0,0:0:0:0:
276,272,98007,5,2,0:0:0:0:
250,243,98090,1,0,0:0:0:0:
211,239,98173,1,2,3:2:0:0:
172,241,98257,1,0,0:0:0:0:
137,257,98340,1,10,0:0:0:0:
101,271,98423,1,0,0:0:0:0:
63,279,98507,1,2,0:0:0:0:
26,269,98590,1,0,0:0:0:0:
5,239,98673,5,2,3:2:0:0:
53,255,98757,1,0,0:0:0:0:
101,271,98840,1,2,3:2:0:0:
149,287,98923,1,0,0:0:0:0:
197,303,99007,2,0,L|287:283,1,68.0000012969971,10|8,0:0|0:0,0:0:0:0:
386,185,99173,2,0,P|426:198|485:215,1,68.0000012969971,10|8,0:0|0:0,0:0:0:0:
392,41,99340,21,4,3:2:0:0:
359,75,99423,1,0,0:0:0:0:
314,93,99507,1,2,0:0:0:0:
266,93,99590,1,0,0:0:0:0:
222,74,99673,2,0,L|152:62,1,55.9999982910157,10|0,0:0|0:0,0:0:0:0:
31,44,99840,1,2,0:0:0:0:
292,13,100007,5,2,0:0:0:0:
155,160,100173,2,0,P|169:198|180:242,1,55.9999982910157,2|0,3:2|0:0,0:0:0:0:
192,318,100340,1,10,0:0:0:0:
223,356,100423,1,0,0:0:0:0:
273,363,100507,1,2,0:0:0:0:
323,359,100590,1,0,0:0:0:0:
356,321,100673,6,0,P|416:332|493:350,1,111.999996582031,2|2,3:2|0:0,0:0:0:0:
173,212,101007,2,0,P|233:200|310:183,1,111.999996582031,8|0,0:0|3:0,0:0:0:0:
340,129,101257,1,0,0:0:0:0:
340,129,101340,2,0,P|358:166|362:203,1,68.0000012969971,0|0,1:0|0:0,0:0:0:0:
271,52,101507,2,0,P|263:82|233:125,1,68.0000012969971,8|0,0:3|0:0,0:0:0:0:
116,294,101673,2,0,P|92:270|80:199,1,68.0000012969971,8|0,1:2|0:0,0:0:0:0:
198,339,101840,2,0,P|173:366|139:382,1,68.0000012969971
282,189,102007,6,0,B|371:222|371:222|374:250|384:268,1,136.000002593994,2|2,3:0|0:0,0:0:0:0:
461,301,102257,1,2,0:0:0:0:
461,301,102340,2,0,P|467:278|463:235,1,60.0000022888184,8|0,0:0|0:0,0:0:0:0:
361,73,102507,1,2,0:0:0:0:
361,73,102590,1,2,0:0:0:0:
361,73,102673,2,0,P|353:103|323:146,1,60.0000022888184,2|0,0:0|0:0,0:0:0:0:
215,245,102840,1,2,3:2:0:0:
215,245,102923,1,2,0:0:0:0:
215,245,103007,2,0,L|152:230,1,60.0000022888184,8|0,0:0|0:0,0:0:0:0:
66,153,103173,2,0,L|-6:166,1,60.0000022888184,0|0,3:0|0:0,0:0:0:0:
121,34,103340,5,2,0:0:0:0:
153,46,103423,1,0,0:0:0:0:
187,55,103507,1,2,3:2:0:0:
222,59,103590,1,0,0:0:0:0:
257,62,103673,1,10,0:0:0:0:
293,59,103757,1,0,0:0:0:0:
326,47,103840,1,2,0:0:0:0:
360,37,103923,1,0,0:0:0:0:
393,21,104007,5,2,3:2:0:0:
448,42,104090,1,0,0:0:0:0:
482,90,104173,1,2,3:2:0:0:
480,150,104257,1,0,0:0:0:0:
431,197,104340,2,0,P|407:180|357:169,1,68.0000012969971,10|8,0:0|0:0,0:0:0:0:
217,203,104507,2,0,P|193:220|143:231,1,68.0000012969971,10|8,0:0|0:0,0:0:0:0:
6,163,104673,70,0,P|72:114|125:171,1,120.000004577637,4|2,3:2|0:0,0:0:0:0:
132,231,104923,1,2,0:0:0:0:
132,231,105007,2,0,P|123:308|120:364,1,120.000004577637,8|0,0:0|0:0,0:0:0:0:
282,361,105257,1,0,0:0:0:0:
282,361,105340,2,0,P|276:332|271:288,1,60.0000022888184,10|0,0:0|0:0,0:0:0:0:
466,127,105507,2,0,P|444:146|408:173,1,60.0000022888184,2|0,0:0|0:0,0:0:0:0:
174,83,105673,2,0,P|201:92|242:109,1,60.0000022888184,10|0,0:0|0:0,0:0:0:0:
306,191,105840,1,2,0:0:0:0:
47,293,106007,6,0,P|77:240|140:233,1,120.000004577637,4|2,3:2|0:0,0:0:0:0:
306,191,106257,1,2,0:0:0:0:
306,191,106340,2,0,P|249:183|184:172,1,120.000004577637,8|0,0:0|0:0,0:0:0:0:
174,83,106590,1,0,0:0:0:0:
174,83,106673,2,0,P|164:52|159:15,1,60.0000022888184,10|0,0:0|0:0,0:0:0:0:
384,64,106840,2,0,P|374:93|359:140,1,60.0000022888184,2|0,0:0|0:0,0:0:0:0:
223,312,107007,2,0,L|204:242,1,60.0000022888184,10|0,0:0|0:0,0:0:0:0:
325,265,107173,2,0,P|315:297|296:346,1,60.0000022888184,2|0,0:0|0:0,0:0:0:0:
266,76,107340,5,4,3:2:0:0:
409,268,107507,1,8,0:0:0:0:
191,229,107673,1,8,0:0:0:0:
427,250,107840,1,8,0:0:0:0:
150,123,108007,1,8,0:0:0:0:
449,229,108173,1,8,0:0:0:0:
64,303,108340,1,8,0:0:0:0:
470,211,108507,1,8,0:0:0:0:
227,43,108673,85,12,0:0:0:0:
208,76,108757,1,8,0:0:0:0:
214,113,108840,1,8,0:0:0:0:
236,144,108923,1,8,0:0:0:0:
253,177,109007,1,8,0:0:0:0:
273,207,109090,1,8,0:0:0:0:
284,240,109173,1,8,0:0:0:0:
272,274,109257,1,8,0:0:0:0:
248,300,109340,5,8,0:0:0:0:
210,261,109423,1,8,0:0:0:0:
155,255,109507,1,8,0:0:0:0:
108,281,109590,1,8,0:0:0:0:
59,304,109673,1,8,0:0:0:0:
11,277,109757,1,8,0:0:0:0:
1,224,109840,1,8,0:0:0:0:
43,191,109923,1,8,0:0:0:0:
58,200,110007,5,2,3:0:0:0:
256,192,110090,12,2,115173,0:0:0:0:
