osu file format v14

[General]
AudioFilename: 8.mp3
AudioLeadIn: 0
PreviewTime: 67257
Countdown: 0
SampleSet: Soft
StackLeniency: 0.7
Mode: 0
LetterboxInBreaks: 0
WidescreenStoryboard: 1

[Editor]
DistanceSpacing: 1.6
BeatDivisor: 4
GridSize: 4
TimelineZoom: 2.3

[Metadata]
Title:Oriental Blossom
TitleUnicode:Oriental Blossom
Artist:Eisyo-kobu
ArtistUnicode:影翔鼓舞
Creator:Crystal
Version:G's Easy
Source:SOUND VOLTEX III GRAVITY WARS
Tags:Newspaper Cup #3 3rd third sdvx 影虎。Kagetora. saka=ichi The 4th KACオリジナル楽曲コンテスト Original Song Contest konami arcade championship fourth Evil_Twilight 384059043 Pata-Mon Sadism-Bread Gaia Doj EmingK yf_bmp handsome muscle z1085684963 Karen Kashima Vert 23konG Ellyu pw384
BeatmapID:1260643
BeatmapSetID:586889

[Difficulty]
HPDrainRate:2
CircleSize:2.3
OverallDifficulty:2
ApproachRate:3
SliderMultiplier:0.600000005960464
SliderTickRate:1

[Events]
//Background and Video events
0,0,"oriental.jpg",0,0
//Break Periods
2,54207,57900
//Storyboard Layer 0 (Background)
//Storyboard Layer 1 (Fail)
//Storyboard Layer 2 (Pass)
//Storyboard Layer 3 (Foreground)
//Storyboard Sound Samples

[TimingPoints]
674,333.333333333333,4,2,2,65,1,0
8673,-133.333333333333,4,2,2,65,0,0
10840,-100,4,2,2,65,0,0
67340,-100,4,2,2,75,0,1
77340,-100,4,2,2,75,0,0
78007,-100,4,2,2,75,0,1
88673,-100,4,2,2,75,0,0

[Colours]
Combo1 : 0,128,255
Combo2 : 128,255,0
Combo3 : 0,255,255
Combo4 : 0,255,0

[HitObjects]
44,92,674,6,0,P|106:67|164:56,1,120.000001192093,2|8,3:0|0:1,0:0:0:0:
344,104,2007,2,0,P|401:132|464:147,1,120.000001192093,0|8,3:0|0:1,0:0:0:0:
484,236,3007,1,0,3:0:0:0:
388,252,3340,6,0,P|349:296|316:352,1,120.000001192093,0|8,1:0|0:1,0:0:0:0:
156,248,4673,2,0,P|126:236|96:232,1,60.0000005960464,0|0,3:0|0:0,0:0:0:0:
32,164,5340,1,8,0:1:0:0:
184,46,6007,6,0,P|246:38|304:53,1,120.000001192093,0|8,1:0|0:1,0:0:0:0:
366,122,7007,1,0,1:0:0:0:
410,206,7340,2,0,P|412:264|395:327,1,120.000001192093,0|8,1:0|0:1,0:0:0:0:
259,368,8673,6,0,B|283:201|131:288|156:88,1,315.000015145541,0|8,1:0|0:1,0:0:0:0:
220,21,11340,6,0,P|252:14|285:15,1,60.0000005960464,4|8,1:2|0:1,0:0:0:0:
360,65,12007,2,0,P|380:121|383:189,1,120.000001192093,2|0,0:0|1:0,0:0:0:0:
337,264,13007,2,0,P|311:276|269:276,1,60.0000005960464,8|2,0:1|0:0,0:0:0:0:
231,195,13673,1,8,0:1:0:0:
186,281,14007,6,0,B|111:265|146:308|68:290,2,120.000001192093,0|0|0,1:0|1:0|1:0,0:0:0:0:
271,323,15673,1,8,0:1:0:0:
322,241,16007,2,0,P|284:225|262:224,1,60.0000005960464,2|8,1:2|0:1,0:0:0:0:
186,281,16673,6,0,P|158:266|131:258,1,60.0000005960464,2|8,1:2|0:1,0:0:0:0:
60,193,17340,2,0,P|73:134|99:81,1,120.000001192093,2|0,0:0|1:0,0:0:0:0:
187,42,18340,1,8,0:1:0:0:
269,90,18673,2,0,P|301:97|337:96,1,60.0000005960464,2|8,0:0|0:1,0:0:0:0:
392,168,19340,6,0,P|454:178|516:204,1,120.000001192093,0|2,1:0|0:0,0:0:0:0:
504,295,20340,1,8,0:1:0:0:
441,368,20673,2,0,P|402:360|375:353,1,60.0000005960464,2|8,0:0|0:1,0:0:0:0:
309,292,21340,1,2,1:2:0:0:
136,208,22007,6,0,P|143:145|164:92,2,120.000001192093,4|2|2,1:2|0:0|1:2,0:0:0:0:
148,304,23673,1,8,0:1:0:0:
244,304,24007,2,0,P|304:308|366:332,1,120.000001192093,2|2,0:0|1:2,0:0:0:0:
444,376,25007,6,0,P|471:322|487:265,1,120.000001192093,8|8,0:1|0:1,0:0:0:0:
424,192,26007,2,0,L|360:184,1,60.0000005960464,2|8,0:0|0:1,0:0:0:0:
280,228,26673,2,0,L|216:220,1,60.0000005960464,2|8,1:2|0:1,0:0:0:0:
156,148,27340,6,0,P|151:122|151:85,2,60.0000005960464,0|8|2,1:0|0:1|0:0,0:0:0:0:
46,305,28673,2,0,P|41:331|41:368,2,60.0000005960464,0|8|2,1:0|0:1|0:0,0:0:0:0:
71,212,29673,1,8,0:1:0:0:
154,259,30007,6,0,P|196:274|235:296,2,90.0000008940696,4|2|8,1:2|0:0|0:1,0:0:0:0:
166,163,31340,2,0,P|232:153|267:155,1,90.0000008940696,4|4,1:2|1:2,0:0:0:0:
290,186,32007,2,0,P|292:152|302:126,1,60.0000005960464,4|8,1:2|0:1,0:0:0:0:
380,74,32673,6,0,P|407:125|412:159,2,90.0000008940696,4|2|8,1:2|0:0|0:1,0:0:0:0:
292,34,34007,1,0,1:0:0:0:
197,47,34340,2,0,P|162:44|133:37,1,60.0000005960464,8|2,0:1|0:0,0:0:0:0:
188,224,35340,6,0,P|224:210|252:204,1,60.0000005960464,2|8,1:2|0:1,0:0:0:0:
296,288,36007,2,0,P|329:298|351:313,1,60.0000005960464,2|8,0:0|0:1,0:0:0:0:
444,288,36673,2,0,P|473:230|487:170,1,120.000001192093,2|2,1:2|1:2,0:0:0:0:
445,89,37673,1,8,0:1:0:0:
358,47,38007,6,0,P|354:65|355:144,2,90.0000008940696,0|2|8,1:0|0:0|0:1,0:0:0:0:
262,59,39340,2,0,L|201:55,1,60.0000005960464,0|8,1:0|0:1,0:0:0:0:
132,121,40007,2,0,L|128:182,1,60.0000005960464,2|8,0:0|0:1,0:0:0:0:
120,276,40673,5,2,0:0:0:0:
307,317,41340,1,2,0:0:0:0:
484,248,42007,6,0,P|426:177|396:85,1,180.000001788139,2|8,0:0|0:1,0:0:0:0:
320,40,43340,5,4,1:2:0:0:
152,132,44007,2,0,P|98:101|32:80,2,120.000001192093,2|2|0,0:0|1:3|1:0,0:0:0:0:
158,323,46007,2,0,P|188:309|334:346,1,180.000001788139,0|8,1:0|0:1,0:0:0:0:
412,296,47340,2,0,P|459:220|481:133,1,180.000001788139,2|2,0:0|1:2,0:0:0:0:
408,68,48673,6,0,L|312:44,2,90.0000008940696,4|2|8,1:2|0:0|0:1,0:0:0:0:
377,159,50007,2,0,P|321:187|254:195,1,120.000001192093,2|2,1:2|3:2,0:0:0:0:
77,153,51340,1,4,1:2:0:0:
203,297,52007,2,0,P|238:288|263:277,1,60.0000005960464,2|8,0:0|0:1,0:0:0:0:
341,328,52673,6,0,L|354:233,1,90.0000008940696,4|4,1:2|1:2,0:0:0:0:
374,195,53340,2,0,B|371:130,1,60.0000005960464,4|8,1:2|0:1,0:0:0:0:
336,45,54007,1,4,1:2:0:0:
109,109,59340,6,0,P|168:101|219:134,1,120.000001192093,4|8,1:2|0:1,0:0:0:0:
307,301,60673,2,0,P|366:309|417:276,1,120.000001192093,4|8,1:2|0:1,0:0:0:0:
473,94,62007,6,0,B|332:70|389:183|240:155,2,240.000002384186,8|8|0,0:1|0:1|0:0,0:0:0:0:
88,136,66007,6,0,P|173:93|264:76,1,180.000001788139,4|8,1:2|0:1,0:0:0:0:
332,136,67340,6,0,P|362:152|388:160,1,60.0000005960464,4|8,1:2|0:1,0:0:0:0:
464,216,68007,2,0,P|450:274|420:328,1,120.000001192093,2|2,0:0|1:2,0:0:0:0:
325,339,69007,2,0,P|314:311|312:277,1,60.0000005960464,8|2,0:1|0:0,0:0:0:0:
359,198,69673,5,8,0:1:0:0:
264,181,70007,2,0,P|220:195|153:241,2,120.000001192093,2|2|2,1:2|1:2|0:0,0:0:0:0:
324,105,71673,1,8,0:1:0:0:
406,54,72007,2,0,P|417:82|419:118,1,60.0000005960464,2|8,1:2|0:1,0:0:0:0:
418,207,72673,6,0,P|386:215|354:231,1,60.0000005960464,4|8,1:2|0:1,0:0:0:0:
289,290,73340,2,0,P|229:282|173:262,1,120.000001192093,2|2,0:0|1:2,0:0:0:0:
102,196,74340,1,8,0:1:0:0:
87,101,74673,2,0,L|127:44,1,60.0000005960464,2|8,0:0|0:1,0:0:0:0:
216,32,75340,6,0,P|279:39|337:58,1,120.000001192093,4|2,1:2|0:0,0:0:0:0:
420,95,76340,1,8,0:1:0:0:
489,160,76673,2,0,P|474:191|457:216,1,60.0000005960464,2|8,1:2|0:1,0:0:0:0:
374,256,77340,1,2,1:2:0:0:
232,120,78007,6,0,P|203:111|168:108,1,60.0000005960464,4|8,1:2|0:1,0:0:0:0:
92,56,78673,2,0,P|64:108|49:173,1,120.000001192093,2|2,0:0|1:2,0:0:0:0:
36,264,79673,2,0,P|42:297|57:327,1,60.0000005960464,8|2,0:1|0:0,0:0:0:0:
149,327,80340,5,8,0:1:0:0:
215,258,80673,2,0,P|272:254|338:257,2,120.000001192093,2|2|2,1:2|0:0|0:0,0:0:0:0:
182,167,82340,1,8,0:1:0:0:
142,79,82673,2,0,P|130:57|97:30,1,60.0000005960464,2|8,1:2|0:1,0:0:0:0:
33,98,83340,6,0,P|16:158|17:218,1,120.000001192093,4|2,1:2|3:0,0:0:0:0:
101,260,84340,2,0,P|160:268|215:290,1,120.000001192093,8|8,0:1|0:1,0:0:0:0:
308,317,85340,2,0,P|304:272|305:246,1,60.0000005960464,2|8,0:0|0:1,0:0:0:0:
349,172,86007,6,0,P|442:145|520:92,1,180.000001788139,4|8,1:2|0:1,0:0:0:0:
465,15,87340,2,0,P|409:20|380:47,1,90.0000008940696,4|4,1:2|1:2,0:0:0:0:
350,75,88007,2,0,L|287:65,1,60.0000005960464,0|8,1:2|0:1,0:0:0:0:
199,96,88673,6,0,P|142:76|79:68,2,120.000001192093,4|2|2,1:2|0:0|1:2,0:0:0:0:
159,183,90340,1,8,0:1:0:0:
254,193,90673,2,0,P|284:193|374:208,1,120.000001192093,2|2,0:0|1:2,0:0:0:0:
416,292,91673,6,0,P|457:239|484:184,1,120.000001192093,8|8,0:1|0:1,0:0:0:0:
478,95,92673,2,0,L|416:100,1,60.0000005960464,2|8,0:0|0:1,0:0:0:0:
329,62,93340,2,0,L|267:67,1,60.0000005960464,2|8,1:2|0:1,0:0:0:0:
177,36,94007,6,0,P|168:84|169:104,2,60.0000005960464,4|8|2,1:2|0:1|1:2,0:0:0:0:
32,162,95340,2,0,P|18:198|18:225,2,60.0000005960464,0|8|2,1:0|0:1|0:0,0:0:0:0:
115,210,96340,1,8,0:1:0:0:
210,220,96673,6,0,P|186:258|170:312,2,90.0000008940696,2|2|8,1:2|0:0|0:1,0:0:0:0:
306,224,98007,2,0,P|350:160|385:63,1,180.000001788139,2|8,0:0|0:1,0:0:0:0:
298,22,99340,6,0,P|239:37|186:62,1,120.000001192093,4|2,1:2|0:0,0:0:0:0:
102,13,100340,1,8,0:1:0:0:
96,108,100673,2,0,P|61:127|32:136,1,60.0000005960464,2|8,1:2|0:1,0:0:0:0:
7,223,101340,2,0,P|18:262|31:288,1,60.0000005960464,2|8,0:0|0:1,0:0:0:0:
119,304,102007,6,0,P|182:283|244:279,1,120.000001192093,4|2,1:2|1:2,0:0:0:0:
271,189,103007,1,8,0:1:0:0:
366,185,103340,2,0,P|407:264|430:353,1,180.000001788139,2|8,0:0|0:1,0:0:0:0:
334,342,104673,6,0,L|210:351,1,120.000001192093,4|8,1:2|0:1,0:0:0:0:
109,189,106007,2,0,L|228:180,1,120.000001192093,4|8,1:2|0:1,0:0:0:0:
398,89,107340,6,0,P|423:131|428:155,1,60.0000005960464,8|8,0:1|0:1,0:0:0:0:
361,212,108007,2,0,P|346:258|332:278,1,60.0000005960464,8|8,0:1|0:1,0:0:0:0:
247,290,108673,2,0,P|152:261|32:178,1,240.000002384186,4|4,1:2|1:2,0:0:0:0:
256,192,110173,12,2,115173,0:0:0:0:
